#TITLE:Chip 'N Dale, Rescue Rangers;
#SUBTITLE:;
#ARTIST:The Jets;
#TITLETRANSLIT:;
#SUBTITLETRANSLIT:;
#ARTISTTRANSLIT:;
#GENRE:Cartoon Theme;
#CREDIT:Ace Of Hearts;
#BANNER:Chip 'N Dale, Rescue Rangers - Bn.png;
#BACKGROUND:Chip 'N Dale - Bg.png;
#LYRICSPATH:;
#CDTITLE:Ace Of Hearts.png;
#MUSIC:Chip 'N Dale, Rescue Rangers.ogg;
#OFFSET:-0.140;
#SAMPLESTART:23.700;
#SAMPLELENGTH:12.000;
#SELECTABLE:YES;
#BPMS:0.000=143.260;
#STOPS:;
#BGCHANGES:-1.000=Chip N Dale OP.avi=1.000=1=0=0=StretchNoLoop==CrossFade==,
99999=-nosongbg-=1.000=0=0=0 // don't automatically add -songbackground-
;
#KEYSOUNDS:;

//---------------dance-single - Hard----------------
#NOTES:
     dance-single:
     Ace Of Hearts (2008):
     Hard:
     7:
     0.427,0.000,0.384,0.491,0.015:
0000
0000
0000
0000
,
0000
0000
0000
0000
,
0000
0000
0000
0000
,
0001
0000
0000
0020
0000
0000
0030
0000
,
0100
0000
0000
0020
0000
0000
0030
0000
,
0000
0000
0001
0000
0010
0010
0000
0100
,
0000
1000
0000
1100
0000
0000
1000
0000
,
1010
0000
0000
0040
0000
0000
0030
0000
,
0101
0000
0000
0004
0000
0000
0003
0000
,
0000
0000
2000
0000
3001
0010
0000
0110
,
0000
1100
0000
1001
0000
1000
0100
0000
,
0110
0000
0100
1000
0000
0001
0000
0011
,
0000
0110
0000
2200
0000
3300
0000
1000
,
0001
0020
0000
0031
0000
0001
0000
1001
,
0000
1000
1000
1000
1000
0010
0000
0210
,
0000
0301
0000
0000
1001
0000
1000
0200
,
0000
0310
0010
0010
0010
0001
0000
0102
,
0000
1003
0100
0020
0000
0130
0000
0000
,
0000
0000
1000
0000
0001
0000
0100
0000
0020
0000
0000
1030
0000
0000
2200
0000
,
0300
0000
3001
0000
0100
0010
0000
0220
,
0030
0301
2000
3010
,
0020
0130
0000
0001
0000
1000
0000
1010
,
0000
0010
0010
0010
0010
1000
0000
1002
,
0000
0013
0000
0000
1100
0000
0100
0010
,
0000
0100
0100
0100
0100
1000
0000
1002
,
0000
0103
0010
2000
0000
3100
0000
0000
,
0000
0000
0010
0000
0001
0000
1000
0000
0002
0000
0000
0103
0000
0000
1020
0000
,
0000
0000
0130
0000
0002
0000
1003
0020
,
0000
1030
0200
0310
,
0002
0000
1003
0200
0000
1300
0000
1001
,
0000
0001
0001
0001
0001
0100
0000
0120
,
0000
1030
0000
0000
1100
0000
0100
0020
,
0000
0031
0001
0001
0001
1000
0000
2100
,
0000
3001
0100
0020
0000
1030
0000
0000
,
0000
0001
0001
0001
0001
0200
0000
0000
,
0310
0000
0000
0000
;

//---------------dance-single - Expert----------------
#NOTES:
     dance-single:
     Ace Of Hearts (2008):
     Challenge:
     9:
     0.638,0.189,0.967,0.798,0.023: // measure 1
0000
0000
0000
0000
,  // measure 2
1001
0000
1000
0010
0000
0010
1000
0100
,  // measure 3
0110
0000
0100
1000
0000
0001
1000
0010
,  // measure 4
0210
0000
03M1
4000
0000
3010
0100
0001
,  // measure 5
0M12
0000
1003
0040
M00M
0130
0001
0010
,  // measure 6
110M
0000
01M1
0000
M210
0020
030M
0230
,  // measure 7
M000
00M2
0000
0010
M000
0303
1010
0000
,  // measure 8
1001
0000
1000
0400
0000
1300
0010
0100
,  // measure 9
0110
0000
0100
0004
0000
1003
0100
0010
,  // measure 10
0011
0000
0000
0000
2100
0000
0000
0000
0010
0000
0020
0000
3000
0030
0110
0000
,  // measure 11
0000
0101
0000
1001
0000
2100
3001
0000
,  // measure 12
MM11
0000
1MM1
1M1M
0000
1100
0000
0210
,  // measure 13
0000
2000
0000
0001
3300
1000
0010
0100
,  // measure 14
0110
0000
0040
0000
0000
0030
1010
0000
0000
0000
0110
0000
0000
0000
1001
0000
,  // measure 15
0000
0000
0102
0000
0100
0000
0100
0003
0100
0000
0010
0000
0000
0000
4010
0000
,  // measure 16
0000
3100
0110
0000
0012
0000
1003
2010
,  // measure 17
0000
0000
0001
0000
0001
0000
0001
3000
0001
0000
0010
0000
0000
0000
0410
0000
,  // measure 18
0000
13M0
0001
M201
00M0
031M
0000
2020
,  // measure 19
0030
0000
3001
0000
0002
0000
0013
0000
0200
0000
0000
1300
0000
0000
1020
0000
,  // measure 20
0000
0000
0000
0030
0110
0000
0000
0000
0200
0000
0301
0000
0000
0000
0020
0000
,  // measure 21
0000
0000
0000
0000
2030
0000
0000
0000
3020
0000
0000
0000
0032
0000
0000
0003
,  // measure 22
0201
0310
0000
1001
0000
2200
0000
0010
,  // measure 23
3300
0000
0210
0000
0010
0000
0010
0300
0010
0000
0001
0000
0000
0000
1004
0000
,  // measure 24
0000
0103
0110
0000
2010
0000
3001
0201
,  // measure 25
0000
0310
0010
0010
0010
1000
0000
4100
,  // measure 26
0000
3M10
0100
01M2
0000
1M03
0000
2200
,  // measure 27
3000
0000
0010
0000
0320
0000
0031
0000
0002
0000
0000
0103
0000
0000
0210
0000
,  // measure 28
0000
0000
0000
0000
0302
0000
0000
0003
2001
0000
0000
0000
3100
0000
M12M
0000
,  // measure 29
0000
0M00
0000
0000
0031
0000
0000
0000
2001
0000
0000
0000
3010
0000
0000
0000
,  // measure 30
0120
0000
1030
1200
0000
0310
0000
2002
,  // measure 31
3003
0000
0201
0000
0001
0000
0001
0300
0001
0000
1000
0000
0000
0000
1040
0000
,  // measure 32
0000
0130
1001
0000
1100
0000
0100
0110
,  // measure 33
0000
0000
0021
0000
0001
0000
0001
0030
0001
0000
0100
0000
0000
0000
0410
0000
,  // measure 34
0000
0301
1000
1020
0000
0130
0000
0220
,  // measure 35
0030
0000
0001
0000
0001
0000
0001
0300
0002
0000
2000
0000
0000
0000
0000
0000
,  // measure 36
0110
3003
0000
0000
;

//---------------dance-single - Medium----------------
#NOTES:
     dance-single:
     Ace Of Hearts (2008):
     Medium:
     5:
     0.254,0.000,0.123,0.276,0.000:
0000
0000
0000
0000
,
0000
0000
0000
0000
,
0000
0000
0000
0000
,
1000
0000
0000
0020
0000
0000
0030
0000
,
1000
0000
0000
0020
0000
0000
0030
0000
,
0000
0000
2000
0000
3001
0000
0000
0100
,
0000
0100
0000
0100
0000
0000
0001
0000
,
0100
0000
0000
0020
0000
0000
0030
0000
,
0100
0000
0000
0020
0000
0000
0030
0000
,
0000
0000
2000
0000
3001
0000
0000
0010
,
0000
0100
0000
0100
0000
0000
1000
0000
,
0001
0000
0000
1001
0000
0000
0000
0001
,
0000
0100
0000
0001
0000
0000
0000
1000
,
0001
1000
0000
0001
0000
0100
0000
0010
,
0000
4000
0000
0000
0000
3000
0000
2002
,
0000
3003
0000
0000
1000
0000
0001
0010
,
0000
0004
0000
0000
0000
0003
0000
1001
,
0000
1000
0000
0001
0000
0100
0000
0000
,
0000
0001
0100
0000
0002
0000
0000
1003
,
0000
0000
0100
0000
2000
0000
0000
3001
,
0000
0100
0001
1000
,
0002
0000
0000
0103
0000
0001
0000
1000
,
0000
0040
0000
0000
0000
0030
0000
0220
,
0000
0330
0000
0000
0100
0000
0001
1000
,
0000
0400
0000
0000
0000
0300
0000
0110
,
0000
0010
0000
0001
0000
1000
0000
0000
,
0000
0000
0001
0000
0200
0000
0000
0310
,
0000
0000
1000
0000
0002
0000
0000
0103
,
0000
0001
1000
0001
,
0020
0000
0000
0130
0000
1000
0000
1100
,
0000
4000
0000
0000
0000
3000
0000
2020
,
0000
3030
0000
0000
1000
0000
0010
0100
,
0000
0004
0000
0000
0000
0003
0000
0101
,
0000
0001
1000
0001
0000
0000
0000
0000
,
0000
0400
0000
0000
0000
0300
0000
0000
,
0010
0000
0000
0000
;

//---------------dance-single - Easy----------------
#NOTES:
     dance-single:
     Ace Of Hearts (2008):
     Easy:
     3:
     0.164,0.000,0.153,0.215,0.000:
0000
0000
0000
0000
,
0000
0000
0000
0000
,
0000
0000
0000
0000
,
0002
0000
0000
0003
0000
0000
0000
0000
,
0020
0000
0000
0030
0000
0000
0000
0000
,
0000
0000
0001
0000
0001
0000
0000
0100
,
0000
0100
0000
0100
0000
0000
0000
0000
,
0020
0000
0000
0030
0000
0000
0000
0000
,
2000
0000
0000
3000
0000
0000
0000
0000
,
0000
0000
0001
0000
0001
0000
0000
0100
,
0000
0100
0000
0100
0000
0000
0000
0000
,
0220
0000
0000
0330
0000
0000
0000
0200
,
0000
0000
0000
0300
0000
0000
0000
0000
,
0002
0000
0000
0003
0000
0000
0000
0001
,
0000
4000
0000
0000
3000
0000
0000
1001
,
0000
0000
0000
0000
0002
0000
0000
0003
,
0000
0004
0000
0000
0003
0000
0000
1001
,
0000
0000
0000
1000
0000
0000
0000
0000
,
0000
0000
0010
0000
,
0010
0000
1000
0000
,
1000
0000
0100
0000
,
0220
0000
0000
0000
0000
0000
0000
0330
,
0000
0040
0000
0000
0030
0000
0000
0110
,
0000
0000
0000
0000
0200
0000
0000
0300
,
0000
0400
0000
0000
0300
0000
0000
0110
,
0000
0000
0000
1000
0000
0000
0000
0000
,
0000
0000
1000
0000
,
1000
0000
0100
0000
,
0100
0000
0010
0000
,
0220
0000
0000
0000
0000
0000
0000
0330
,
0000
0040
0000
0000
0030
0000
0000
1001
,
0000
0000
0000
0000
0001
0000
0000
0001
,
0000
4000
0000
0000
3000
0000
0000
1100
,
0000
0000
0000
1000
0000
0000
0000
0000
,
0000
0400
0000
0000
0300
0000
0000
0000
,
1001
0000
0000
0000
;

//---------------dance-single - Novice----------------
#NOTES:
     dance-single:
     Ace Of Hearts (2008):
     Beginner:
     1:
     0.081,0.000,0.000,0.138,0.000:
0000
0000
0000
0000
,
0000
0000
0000
0000
,
0000
0000
0000
0000
,
0001
0000
0000
0000
,
0001
0000
0000
0000
,
0000
0000
0000
0000
,
0200
0000
0300
0000
,
0010
0000
0000
0000
,
0010
0000
0000
0000
,
0000
0000
0000
0000
,
1000
0000
0000
0000
,
1000
0000
0000
0000
,
1000
0000
0000
0000
,
0002
0000
0000
0000
0000
0000
0000
0003
,
0000
0000
0020
0000
0000
0000
0000
0030
,
0000
0000
0010
0000
,
0000
0000
0200
0000
0000
0000
0000
0300
,
0000
0000
0100
0000
,
0000
0000
0000
0000
,
1000
0000
0000
0000
,
1000
0000
0000
0000
,
1000
0000
0000
0000
,
0000
0000
0020
0000
0000
0000
0000
0030
,
0000
0000
0010
0000
,
0000
0000
0200
0000
0000
0000
0000
0300
,
0000
0000
0100
0000
,
0000
0000
0000
0000
,
0001
0000
0000
0000
,
0001
0000
0000
0000
,
0001
0000
0000
0000
,
0000
0000
2000
0000
0000
0000
0000
3000
,
0000
0000
1000
0000
,
0000
0000
0002
0000
0000
0000
0000
0003
,
0000
0000
0001
0000
,
0000
0020
0000
0000
,
0030
0000
0000
0000
;
