#TITLE:Catch Me If You Can;
#SUBTITLE:;
#ARTIST:Angela Via;
#TITLETRANSLIT:;
#SUBTITLETRANSLIT:;
#ARTISTTRANSLIT:;
#GENRE:Pop;
#CREDIT:Ace Of Hearts Original;
#BANNER:Catch Me If You Can - Bn.png;
#BACKGROUND:Catch Me If You Can - Bg.png;
#LYRICSPATH:;
#CDTITLE:Ace Of Hearts.png;
#MUSIC:Catch Me If You Can.ogg;
#OFFSET:-0.278;
#SAMPLESTART:42.000;
#SAMPLELENGTH:12.000;
#SELECTABLE:YES;
#BPMS:0.000=161.000,288.000=80.500,320.000=161.000;
#STOPS:379.500=2.960
;
#BGCHANGES:;
#KEYSOUNDS:;

//---------------dance-single - Ace Of Hearts (2008)----------------
#NOTES:
     dance-single:
     Ace Of Hearts (2008):
     Challenge:
     9:
     0.655,0.000,0.461,1.000,0.070:
0000
0000
0000
0000
,
0000
0000
0000
0000
,
0000
0000
0000
0000
,
0000
0000
0000
0000
,
2001
0000
0100
3200
0000
0310
0000
1002
,
0000
0010
0023
0100
0230
0000
1300
0000
,
0210
0000
0010
0320
0000
0031
0000
2100
,
0000
3010
0100
0001
0101
0000
0000
0000
,
0102
0000
0010
0023
0000
0130
0000
2100
,
0000
3010
0100
0001
0021
0000
0130
0000
,
1000
0100
0010
0011
0000
2200
3300
0000
,
0000
0010
0001
0100
0000
0000
0000
0000
,
0000
0000
2M1M
0000
32MM
0000
0310
0012
,
0000
0103
0010
1000
0100
0010
0001
0100
,
000M
0000
1010
0M0M
0101
M0M0
0001
1001
,
0MM0
1000
0100
0010
0002
0000
0200
0000
,
0303
0000
0100
0000
0220
0330
000M
2010
,
0000
3100
0010
0001
M1MM
0010
1000
0101
,
0000
0000
11MM
0000
MM11
0000
0001
0100
,
0010
1000
0100
0010
0011
0000
0000
M0M1
,
0M1M
M100
10M0
0M2M
0000
M130
00M1
0M20
,
0000
013M
20M0
3000
1M1M
0000
0000
1000
,
0010
0100
0001
0010
0200
0000
1300
0020
,
0000
0000
0130
0001
0200
0000
0000
0000
0000
0000
0020
0000
0000
0000
0000
0000
,
0330
0010
1000
0000
1100
0000
0010
0021
,
0000
0130
1000
0002
0200
0000
0000
0303
,
0000
0010
1000
0000
2200
3300
0010
0022
,
0033
0001
0010
0100
2000
0000
0020
3030
,
2000
0000
0100
0200
0300
0001
3000
0012
,
0000
0100
0103
0010
2010
0000
3200
0300
,
0021
0000
0100
0230
0000
1300
0000
2100
,
0000
0001
3001
0010
0110
0000
0000
0000
,
0012
0000
0100
0203
0000
0310
0000
2010
,
0000
3100
0100
0010
0012
0000
0103
0000
,
0001
0010
0100
2100
0000
0020
0000
3030
,
0000
0010
0100
0001
0000
0000
0000
0000
,
1000
0100
1000
0100
0010
0010
0010
0000
,
0001
0100
0010
1000
0100
0000
0010
0001
,
0100
0001
0100
0001
1000
1000
1000
0000
,
0010
0100
0001
0010
0100
1000
0010
0000
,
0000
0000
0201
000M
0310
00M0
0000
2M1M
,
0000
3100
0010
0001
M2M1
0000
0310
0000
,
0MM0
0000
1000
1000
0001
0000
00M1
M200
,
00M0
031M
10M0
010M
0M20
000M
0M02
M000
,
0033
0001
0020
0000
0230
0000
1300
0010
,
00M0
0010
1000
0100
0020
0000
0002
0000
,
0033
0000
0011
0000
2200
3300
0010
0220
,
0330
0010
0001
0100
0010
1000
0100
0M1M
,
M001
M1M0
0M1M
10M0
M00M
1M00
01M0
M02M
,
0M00
M031
0M20
0000
M130
0000
0000
1000
,
0010
0100
0001
0010
0200
0000
1300
2000
,
0000
0000
3010
0100
0020
0000
0000
0000
0000
0000
2000
0000
0000
0000
3030
0000
,
0000
1000
0100
0000
0022
0033
0100
0220
,
0330
1000
0010
0200
0002
0000
0000
0303
,
0000
0001
0202
0303
2020
3030
1000
2200
,
3300
0010
0001
0100
2020
3030
0202
0303
,
2001
0000
3100
0002
0000
0103
0000
2100
,
0000
0000
3010
0000
0001
0000
0010
0000
2000
0000
0000
0000
3200
0000
0000
0300
,
0012
0000
0103
2000
0000
3100
0000
0012
,
0000
0103
0010
2000
0200
0000
0010
3300
,
1020
0000
1030
0200
0000
0310
0000
0012
,
0000
0103
0010
1000
2100
0000
0002
3003
,
0001
0100
0010
2010
0000
3200
0000
0300
,
0000
0100
0010
0001
0000
0000
0000
0000
,
0120
0000
0100
0230
0000
1300
0000
1020
,
0000
0130
0001
0010
0012
0000
0200
0303
,
2010
0000
3100
0020
0000
0031
0000
0201
,
0000
0310
1000
0002
0200
0000
0010
0303
,
2100
0000
0001
3002
0000
0013
0000
2100
,
0000
3001
0100
0010
2000
0000
0200
3300
,
0010
0001
0100
0020
0000
0230
0000
0300
,
0000
0010
1000
0100
0000
0000
0000
0000
,
0000
0000
1000
0000
0200
0000
0000
0320
0000
0000
0000
0002
0000
0033
0000
0002
,
0000
0000
0103
0020
0000
0030
1000
0200
0000
0310
0002
2003
0000
0000
0020
0000
,
3030
0000
0001
0000
0200
0000
0000
0320
0000
0130
0002
0000
0003
0000
1000
0000
,
0200
0000
0310
0000
0M01
0000
02M0
M000
000M
0310
M100
0002
00M0
0000
M000
0000
,
0M03
0000
001M
0000
02M0
0000
130M
0020
0M00
0000
M000
0000
003M
0000
0100
0002
,
0000
0003
0100
2000
0000
0000
3100
0002
0000
0013
0100
2000
0000
0000
0002
0000
,
3003
0000
0000
1000
0100
0010
0002
0000
0203
0002
0000
0000
0303
0000
0020
2000
,
0030
3100
0000
0000
0000
0000
2000
3200
0000
0300
0020
0032
0000
0203
0000
0000
,
0310
1000
0100
0010
0001
0100
0010
1000
,
0100
0010
0001
0100
0010
1000
0100
0010
,
0001
0100
0010
1000
0100
0010
0001
0010
,
0100
1000
0010
0100
0001
0010
0100
1000
,
0100
0010
0001
0100
0010
1000
0100
0010
,
0001
0100
0001
0010
0100
1000
0010
0100
,
0001
0010
0100
1000
0010
0100
0001
0010
,
0100
1000
0100
0010
0001
0100
0010
1000
,
0100
0010
0001
0100
0010
1000
0100
0010
,
0001
0010
0100
1000
0010
0100
0010
1000
,
0100
0010
0001
0100
0010
1000
0100
0010
,
0001
0100
0010
1000
0100
0010
0001
0100
,
0010
1000
0100
0010
0001
0100
0010
1000
,
0100
0010
0001
0100
0010
1000
0100
0010
,
0001
0000
0000
0000
0000
0000
0000
0000
0000
0000
0000
0000
0000
0000
0000
0000
0000
0000
0000
0000
0000
0000
0000
0000
0010
0000
0000
0000
0000
0000
0000
0000
0000
0000
0000
0000
0000
0000
0000
0000
0000
0000
0000
0000
0000
0000
0000
0000
0100
0000
0000
0000
0000
0000
0000
0000
0000
0000
0000
0000
0000
0000
0000
0000
0000
0000
0000
0000
0000
0000
0000
0000
1000
0000
0000
0000
0000
0000
0000
0000
0000
0000
0000
0000
0000
0000
0000
0000
0000
0000
0000
0000
0000
0000
0000
0000
0010
0000
0000
0000
0000
0000
0000
0000
0000
0000
0000
0000
0000
0000
0000
0000
0000
0000
0000
0000
0000
0000
0000
0000
0100
0000
0000
0000
0000
0000
0000
0000
0000
0000
0000
0000
0000
0000
0000
0000
0000
0000
0000
0000
0000
0000
0000
0000
0001
0000
0000
0000
0000
0000
0000
0000
0000
0000
0000
0000
0000
0000
0000
0000
0000
0000
0000
0000
0000
0000
0000
0000
0020
0000
0000
0000
0000
0000
0030
0000
0000
0000
0000
0000
0000
0000
0000
0000
00M0
0000
0000
0000
0000
0000
0000
0000
,
2001
0000
0100
3200
0000
0310
0000
0012
,
0000
0103
0010
1000
0200
0000
0320
0030
,
0012
0000
0103
0020
0000
0130
0000
0102
,
0000
0013
0100
2000
0002
0000
0010
3003
,
2001
0000
3100
0020
0000
0031
0000
2100
,
0000
3010
0100
0001
0020
0000
0002
0033
,
0001
0010
0001
0200
0000
0002
0000
0000
,
0000
1000
0010
1000
0303
0101
0101
0000
,
0120
0000
0130
0002
0000
0013
0000
2100
,
0000
3010
0100
0001
0020
0000
0200
0330
,
2100
0000
3001
0200
0000
0310
0000
0201
,
0000
0310
1000
0100
2000
0000
3200
0000
,
0310
0001
0100
0020
0000
2030
0200
0000
,
3300
0000
0000
1000
0100
0010
0002
0013
,
0020
0200
0000
0000
,
0000
1000
0001
1000
0330
0000
0000
1000
,
M000
1000
0100
0010
0002
0000
0200
0000
,
0303
0000
0000
0000
0000
0000
0000
0001
,
000M
0001
0010
0200
2000
0000
0000
3300
,
0000
0000
0000
0000
0000
1000
0200
0000
,
0320
0000
0230
2300
0000
0002
0000
3003
,
0000
0000
0000
0000
1000
0001
2000
0000
,
0200
0000
0000
0000
,
0000
0001
0010
0001
3300
0000
0000
0000
,
1001
0000
1100
2100
0000
0000
3010
0000
,
0000
0210
0000
0301
0000
0000
1010
1010
,
0000
1100
0110
1100
0011
0011
0000
0000
,
0101
0101
1010
1010
0210
0000
0301
0000
,
0000
0000
1010
2010
0000
0000
3001
0000
,
0000
0012
0000
1003
0000
0000
1010
0101
,
0002
0023
0230
2300
0000
0002
0000
3003
,
0000
0010
0200
0020
0000
0330
0000
0000
;

//---------------dance-single - Ace Of Hearts (2008)----------------
#NOTES:
     dance-single:
     Ace Of Hearts (2008):
     Hard:
     8:
     0.556,0.000,0.207,0.937,0.041:
0000
0000
0000
0000
,
0000
0000
0000
0000
,
0000
0000
0000
0000
,
0000
0000
0000
0000
,
2100
0000
0100
3200
0000
0310
0000
0021
,
0000
0031
0001
0100
0020
0000
2000
3030
,
2100
0000
3100
0200
0000
0310
0000
0021
,
0000
0031
0100
0010
1000
0000
0000
0000
,
2100
0000
3100
0200
0000
0310
0000
0021
,
0000
0031
0100
0010
2000
0000
0200
3300
,
0010
0001
0010
0002
0000
0200
0303
0000
,
0000
0010
1000
0020
0030
0000
0000
0000
,
0000
0000
021M
0000
M302
0000
0013
0200
,
0000
1300
0100
0010
0001
0010
0100
1000
,
0000
0000
0002
0000
0020
0033
0100
2000
,
0000
3010
0100
0100
0002
0000
0020
0000
,
0033
0000
0200
0000
2300
0000
3000
1020
,
0000
0130
0001
0100
0001
0100
0001
0010
,
0000
0000
M02M
0000
M13M
0000
1000
0100
,
1000
0100
1000
0100
0010
0000
0000
0001
,
0010
0001
M020
0M31
0000
1000
0100
2000
,
0000
3001
0100
0000
0101
0000
0000
0001
,
0100
0001
0100
0001
0200
0000
0310
2000
,
0000
0000
0000
0000
0000
0200
0000
0000
,
3300
0100
0010
0000
0011
0000
0010
0012
,
0000
0103
0010
0200
0020
0000
0000
0330
,
0000
0100
0001
0000
0101
0000
0001
0020
,
0000
0130
1000
0100
0020
0030
0002
0003
,
0202
0000
0000
0000
0000
0303
0000
0200
,
0000
0310
1000
0010
0200
0000
0302
0003
,
0202
0000
0000
0000
0000
0303
0000
0002
,
0000
0013
0100
1000
0100
0000
0000
0000
,
2200
0000
0000
0000
0000
3300
0000
0200
,
0000
0310
0001
0010
0002
0000
0200
0303
,
0020
0000
0030
2000
3000
0200
0300
0000
,
0000
0010
0001
0020
0000
0030
0000
0000
,
0100
1000
0100
1000
0100
1000
0100
0000
,
0010
0001
0010
0001
0010
0000
0100
0010
,
0100
0010
0100
0010
0001
1000
0001
0000
,
1000
0010
1000
0010
1000
0010
1000
0000
,
0000
0000
201M
0000
3200
0000
0300
0012
,
0000
0103
0010
0100
0020
0000
2000
3030
,
0000
0000
0100
0010
0100
0000
1000
0020
,
0030
0100
0001
0100
0002
0000
0020
0000
,
0033
0001
0020
0000
0230
0000
1300
0200
,
0000
0310
MM01
0010
0200
0000
2000
3300
,
0000
0000
0002
0000
0203
0300
0020
2000
,
0030
3100
0010
0100
0010
0100
0010
0001
,
0100
0001
M20M
0301
0000
0010
0100
2000
,
0000
3010
0100
0M0M
0101
0000
0000
0001
,
0010
0001
0010
0100
2000
0000
3010
0200
,
0000
0000
0000
0000
0000
0002
0000
0303
,
0000
1000
0010
0000
1010
0000
0010
0210
,
0000
0301
0100
0001
0200
0000
0000
0300
,
0000
0010
1000
0000
1010
0000
1000
0200
,
0000
0310
0001
0010
0200
0000
2300
3000
,
2200
0000
0000
0000
0000
3300
0000
0120
,
0000
0031
0100
0001
0200
0000
0320
0030
,
0220
0000
0000
0000
0000
0330
0000
2010
,
0000
3100
0010
0100
0010
0000
0000
0000
,
0022
0000
0000
0000
0000
0033
0000
2001
,
0000
3010
0100
0010
0200
0300
0020
0030
,
0100
0001
0100
0002
0000
0020
0000
0033
,
0000
0100
1000
0200
0300
0000
0000
0000
,
2200
0000
0000
0000
0000
3300
0000
0200
,
0000
0310
0001
0010
0002
0000
0203
0300
,
0202
0000
0000
0000
0000
0303
0000
0002
,
0000
0013
0100
0010
0110
0000
0000
0000
,
0220
0000
0000
0000
0000
0330
0000
0020
,
0000
0031
0100
0010
2000
0000
3200
0300
,
0010
0001
0010
0200
0000
2300
0000
3000
,
0000
0001
0010
0001
0000
0000
0000
0000
,
0000
0000
2000
0000
3200
0000
0000
0320
0000
0000
0000
0000
0030
0000
0000
0002
,
0000
0000
1003
0200
0000
0000
0310
0002
0000
0000
0000
2000
0000
0000
0000
3003
,
0000
0000
2000
0000
3200
0000
0000
0320
0000
0000
0000
0000
0030
0000
0100
0000
,
2000
3100
10M0
200M
0000
0000
0000
3000
,
0M00
0000
0100
0000
M020
0000
0000
0M02
0000
0000
0000
0000
0033
0000
1000
0020
,
0000
0030
1000
0020
0000
0030
1000
0020
0000
0000
0030
0020
0000
0000
0000
0030
,
0000
0000
0000
1000
0200
0310
0002
0000
0200
0303
0000
0000
0000
0000
0010
2000
,
0000
3000
0000
0000
0000
0000
0100
0020
0000
0030
0100
0020
0000
0032
0000
0000
,
1003
0001
1000
0001
1000
0001
1000
0000
,
0100
0010
0100
0010
0100
0000
1000
0100
,
1000
0100
1000
0100
0010
0001
0010
0000
,
0100
1000
0100
1000
0010
1000
0010
0000
,
0100
0001
0100
0001
1000
0010
1000
0000
,
0100
0010
0100
0010
0100
0000
0010
0001
,
0010
0001
0010
0001
0100
0001
0100
0000
,
0010
1000
0010
1000
0100
1000
0100
0000
,
0010
0100
0010
0100
1000
0001
1000
0000
,
0010
0100
0001
0100
0010
0000
1000
0100
,
0010
0001
0010
0100
1000
1000
1000
0000
,
1000
0010
0100
0001
0010
0100
1000
0000
,
0001
0100
0001
0100
0010
1000
0010
0000
,
0010
1000
0100
0010
0001
0000
0001
0010
,
0100
0000
0000
0000
1000
0000
0000
0000
0100
0000
0000
0000
0010
0000
0000
0000
0001
0000
0000
0000
0010
0000
0000
0000
0100
0000
0000
0000
20M0
3000
0000
0000
,
1002
0000
0103
0002
0000
0103
0000
0102
,
0000
0013
0100
1000
0200
0300
0020
0030
,
0012
0000
1003
0200
0000
0310
0000
0012
,
0000
0103
0010
0100
0010
0000
0000
0000
,
2010
0000
3100
0020
0000
0130
0000
1200
,
0000
0310
0001
0010
0200
0300
2000
3000
,
0200
0320
0032
0023
0030
0200
0300
0000
,
0000
1000
0100
1000
0000
0000
0000
0000
,
0012
0000
1000
2003
0000
3100
0000
2100
,
0000
3010
0010
0100
0002
0000
0023
0030
,
0210
0000
1300
2000
0000
3010
0000
0102
,
0000
0013
0100
1000
0200
0300
0000
0000
,
0012
0000
0103
0200
0000
0310
0000
0210
,
0000
0301
1000
0010
2000
0000
3200
0300
,
0020
0032
0023
0230
0300
2000
3000
0000
,
0000
0010
0100
0001
0000
0000
0000
2000
,
0000
3100
0010
0100
0020
0000
0130
0000
,
0000
0000
0000
0000
0000
0000
0000
2000
,
3000
0100
0010
0002
0103
0000
0000
0000
,
0000
0000
0000
0000
0000
0010
0200
0300
,
0002
0000
0000
0000
0000
0000
0000
0003
,
0000
0000
0000
0000
0100
0001
0020
0000
,
0200
0000
0330
0000
,
0000
0000
0000
0000
,
0000
0000
1000
2000
0000
0000
3001
0000
,
0000
0020
0000
0130
0000
0000
1000
1000
,
0000
0100
0001
0100
0001
0001
0000
0000
,
1000
0100
1000
0100
2000
0000
3010
0000
,
0000
0000
0100
0200
0000
0000
0301
0000
,
0000
0002
0000
0013
0000
0000
0100
1000
,
0002
2003
3020
0230
0000
0002
0000
0303
,
0000
1000
0001
1000
0000
0000
0000
0000
;

//---------------dance-single - Ace Of Hearts (2008)----------------
#NOTES:
     dance-single:
     Ace Of Hearts (2008):
     Medium:
     5:
     0.411,0.000,0.053,0.869,0.036:
0000
0000
0000
0000
,
0000
0000
0000
0000
,
0000
0000
0000
0000
,
0000
0000
0000
0000
,
2200
0000
0000
0000
0000
3300
0000
1000
,
0000
0001
1000
0000
0002
0000
0003
0000
,
0202
0000
0000
0000
0000
0303
0000
0001
,
0000
1000
0001
0000
1000
0000
0000
0000
,
2020
0000
0000
0000
0000
3030
0000
1000
,
0000
0010
1000
0000
0010
0000
0000
0000
,
0200
0000
0000
0302
0000
0000
0003
0000
,
0000
1000
0000
1000
0000
0000
0000
0000
,
0000
0000
0002
0000
0M23
0000
0030
0002
,
0000
0003
0010
0000
0001
0000
1000
0100
,
0000
0000
0020
0000
0002
0033
0000
0002
,
0000
0003
2000
0000
0200
0000
0000
0000
,
3300
0000
0010
0000
0002
0003
0000
2000
,
0000
0000
3001
0000
1000
0000
0001
0100
,
0000
0000
0002
0M00
1003
0000
0001
0000
,
2000
0000
3001
0000
0010
0000
0000
0001
,
2000
0000
00M0
3001
0000
1000
0000
0002
,
0000
0003
0100
0000
0010
0000
0000
0100
,
0001
0000
1000
0000
0020
0000
0030
0200
,
0000
0000
0000
0000
,
0300
0000
0001
0000
0001
0000
0000
2000
,
0000
3000
0001
0000
0002
0000
0003
0000
,
0000
0000
1000
0000
1001
0000
0000
0002
,
0000
0003
1000
0000
0020
0000
0030
0000
,
0202
0000
0000
0000
0000
0303
0000
0200
,
0000
0301
1000
0000
2000
0000
3000
0000
,
2002
0000
0000
0000
0000
3003
0000
2000
,
0000
3001
1000
0000
0100
0000
0000
0000
,
0220
0000
0000
0000
0000
0330
0000
0020
,
0000
0130
1000
0000
2000
0000
0000
3000
,
0200
0000
0300
0200
0000
0000
0300
0000
,
0000
0010
0100
0020
0000
0030
0000
0000
,
0001
1000
0001
0000
1000
0001
1000
0000
,
0010
1000
0010
0000
,
0100
0001
0100
0000
0010
1000
0010
0000
,
0100
0001
0100
0000
0020
0000
1030
0000
,
0000
0000
0200
0000
0310
0000
0000
0001
,
0000
1000
0001
0000
2000
0000
0000
3000
,
0000
0000
0001
0100
0001
0000
0000
0020
,
0000
0030
0001
0000
0002
0000
0000
0000
,
0003
0000
0010
0000
0010
0000
0000
0200
,
0000
0300
10M0
0000
2000
0000
0000
3000
,
0000
0000
0001
0000
0001
0000
0000
2000
,
0000
3002
1003
0001
,
1000
0000
001M
0100
0000
0000
0000
0002
,
0000
0003
1000
000M
1000
0000
0000
0001
,
2000
3000
0001
0000
1000
0000
0000
0200
,
0000
0000
0000
0000
0000
0000
0000
0300
,
0000
0000
0010
0000
0010
0000
0000
0002
,
0000
0003
0100
0000
0100
0000
0000
0000
,
0000
0001
1000
0000
1001
0000
0000
2000
,
0000
3001
0200
0310
,
0220
0000
0000
0000
0000
0330
0000
0200
,
0000
0301
1000
0000
2000
0000
3000
0000
,
2002
0000
0000
0000
0000
3003
0000
0002
,
0000
0103
0010
0000
0010
0000
0000
0000
,
0220
0000
0000
0000
0000
0330
0000
2000
,
0000
3001
1000
0000
0020
0000
0000
0030
,
0200
0000
0300
0002
0000
0003
0000
0000
,
0000
1000
0001
1000
0000
0000
0000
0000
,
2000
0000
0000
0200
0000
3300
0000
2000
,
0000
3001
1000
0000
0020
0000
0000
0030
,
2000
0000
0000
0020
0000
3030
0000
0200
,
0000
0310
0100
0000
0001
0000
0000
0000
,
0002
0000
0000
0200
0000
0303
0000
0020
,
0000
1030
0001
0000
2000
0000
0000
3000
,
0200
0000
0000
0020
0000
0000
0000
0330
,
0000
0001
1000
0001
0000
0000
0000
0000
,
0000
0000
2000
0000
3002
0000
0003
2000
0000
0000
0000
0000
3000
0000
0000
0020
,
0000
0000
0000
0230
0000
0000
0000
0320
0000
0000
0000
0000
0000
0000
0000
0030
,
0000
0000
2000
0000
3002
0000
0000
2003
0000
0000
0000
0000
3000
0000
0000
0000
,
0002
M000
0000
0203
0000
0000
0000
0300
,
000M
0000
0000
0000
M020
0000
0000
2030
0000
000M
0000
0000
3000
0000
0000
0200
,
0000
0000
0300
0020
0000
0000
0030
0200
0000
0000
0000
0000
0000
0000
0000
0300
,
0000
0000
0000
1000
0002
0000
2003
0000
3002
0000
0003
0000
0000
0000
0001
0200
,
0000
0300
0000
0000
0000
0000
0001
0020
0000
0000
0000
0230
0000
0000
0000
0000
,
1300
0001
1000
0000
0001
1000
0001
0000
,
1000
0001
2000
0000
3001
0000
0010
0100
,
0020
0130
2000
3001
,
1000
0001
1000
0000
0002
0000
1003
0000
,
0001
0010
0001
0000
1000
0100
1000
0000
,
0100
0010
0200
0000
0310
0000
0010
0001
,
0020
0000
0031
0000
0001
0100
0001
0000
,
1000
0010
1000
0000
0020
0000
0130
0000
,
0001
0100
0001
0000
1000
0010
1000
0000
,
0001
0100
0002
0000
1003
0000
1000
0010
,
2000
0000
3010
0000
0010
1000
0010
0000
,
0100
0001
0100
0000
0200
0000
0301
0000
,
0010
0100
0010
0000
0001
1000
0001
0000
,
0010
0100
0020
0000
0031
0000
0001
0010
,
0002
0000
0000
0000
1003
0000
0000
0000
0020
0000
0000
0000
0130
0000
0000
0MM0
,
2000
0000
0000
0200
0000
3300
0000
0020
,
0000
0031
0100
0000
0200
0000
0000
0300
,
0002
0000
0000
2000
0000
3003
0000
2000
,
0000
3100
0020
0000
0130
0000
0000
0000
,
0020
0000
0000
0002
0000
0033
0000
0200
,
0000
0310
2000
0000
3200
0000
0000
0300
,
0020
0000
0030
0002
0000
0000
0003
0000
,
0000
1000
0100
1000
0000
0000
0000
0000
,
0002
0000
0000
0200
0000
0303
0000
0020
,
0000
0000
1030
0000
0002
0000
0000
0003
0020
0000
0000
0000
0000
0030
0000
0000
,
0020
0000
0000
0200
0000
0330
0000
0200
,
0000
1300
0002
0003
0200
0300
0000
0000
,
0020
0000
0000
2000
0000
3030
0000
0002
,
0000
1003
0200
0000
0320
0000
0000
0030
,
0002
0000
0000
0200
0000
0000
0303
0000
,
0000
0010
0100
0010
0000
0000
0000
0000
,
2000
0000
0000
0200
0000
3300
0000
0020
,
0000
0031
0200
0000
0320
0000
0030
0000
,
0200
0000
0000
0002
0000
0303
0000
0020
,
0000
0130
2000
0000
3001
0000
0000
0000
,
0200
0000
0000
0002
0000
0303
0000
0002
,
0000
0013
0200
0000
2300
3000
0020
0000
,
0000
0200
0000
0000
0330
0000
0000
0000
,
0000
0001
1000
0001
0000
0000
0000
0000
,
2000
0000
3001
2000
0000
3001
0000
0020
,
0000
0130
0010
0100
0020
0000
0031
0000
,
0200
0000
0301
0200
0000
0301
0000
2000
,
0000
3100
1000
0100
2000
0000
3000
0000
,
0002
0000
0013
0002
0000
0013
0000
0002
,
0000
1003
0001
1000
0002
0000
1003
0000
,
1000
0100
0010
0002
0000
2000
0000
3003
,
0000
1000
0001
1000
0000
0000
0000
0000
;

//---------------dance-single - Ace Of Hearts (2008)----------------
#NOTES:
     dance-single:
     Ace Of Hearts (2008):
     Easy:
     3:
     0.278,0.000,0.000,0.514,0.026:
0000
0000
0000
0000
,
0000
0000
0000
0000
,
0000
0000
0000
0000
,
0000
0000
0000
0000
,
2000
0000
0000
0000
0000
3000
0000
0001
,
0000
1000
0002
0003
,
0002
0000
0000
0000
0000
0003
0000
1000
,
0000
0001
1000
0000
,
0020
0000
0000
0000
0000
0030
0000
0100
,
0000
0010
0100
0000
,
0002
0000
0003
2000
0000
3000
0000
0000
,
0000
0001
0000
0001
0000
0000
0000
0000
,
0000
1000
0001
0000
,
1000
0001
1000
0001
,
0000
0020
0130
0000
,
1000
0002
0103
0000
,
0000
0010
0010
0000
,
2000
0001
3001
0001
,
0000
1000
0001
1000
,
0001
1000
0010
0000
,
0100
0010
0100
0000
,
0001
1000
0001
0000
,
2000
3000
0002
0003
,
0020
0000
0030
0000
,
0000
0001
0001
0000
,
2000
0001
3001
0000
,
0000
0001
0001
0000
,
0020
0000
0100
0130
,
2000
0000
0000
0000
0000
3000
0000
0001
,
0000
1000
0001
0000
,
0002
0000
0000
0000
0000
0003
0000
0010
,
0000
0100
0010
0000
,
2000
0000
0000
0000
0000
3000
0000
0001
,
0000
1000
0001
0000
,
0200
0000
0300
0002
0000
0000
0000
0000
,
0000
0010
0000
0013
0000
0000
0000
0000
,
0100
0100
0100
0000
,
0010
0010
0010
0000
,
0001
0001
0001
0000
,
1000
1000
1000
0000
,
0000
0001
0001
0000
,
0001
1000
0002
0003
,
0000
0010
0010
0000
,
0100
0010
0200
0300
,
0000
1000
1000
0000
,
0001
1000
0002
0003
,
0000
0010
0010
0000
,
0200
0300
2000
3000
,
0010
M10M
0010
0000
,
1000
0MM1
1000
0000
,
0020
0030
0200
0300
,
0002
0000
0003
0000
,
0000
0010
0010
0000
,
0100
0010
0100
0000
,
0000
1000
0001
0000
,
0010
0100
0020
0030
,
2000
0000
0000
0000
0000
3000
0000
0002
,
0000
1000
1003
0000
,
0020
0000
0000
0000
0000
0030
0000
0200
,
0000
0010
0310
0000
,
0020
0000
0000
0000
0000
0030
0000
2000
,
0000
0001
3001
0000
,
0020
0000
0030
0200
0000
0000
0000
0000
,
0000
0010
0000
0310
0000
0000
0000
0000
,
2000
0000
0000
0000
0000
3000
0000
0002
,
0000
1000
1003
0000
,
0020
0000
0000
0000
0000
0030
0000
0200
,
0000
0010
0310
0000
,
0200
0000
0000
0000
0000
0300
0000
0002
,
0000
1000
1003
0000
,
0002
0000
0003
2000
0000
0000
0000
0000
,
0000
0100
0000
3100
0000
0000
0000
0000
,
0000
0000
0000
0000
2000
0000
0000
3002
0000
0000
0003
0000
0000
0000
0000
0020
,
0000
0000
0000
0030
0000
0000
0000
0200
0000
0000
0000
0000
0000
0000
0000
0300
,
0000
0000
0000
0000
0002
0000
0000
2003
0000
0000
0000
0000
3000
0000
0000
0000
,
0200
M000
0000
0320
0000
0000
0000
0030
,
000M
0000
0000
0000
0002
0000
0000
2003
0000
00M0
0000
0000
3000
0000
0000
0020
,
0000
0000
0000
0000
0000
0000
0000
0230
0000
0000
0000
0000
0000
0000
0000
0300
,
0000
0000
0000
0000
0002
0000
0003
0000
2000
0000
3000
0000
0000
0000
0000
0020
,
0000
0030
0000
0000
0000
0000
0000
0200
0000
0300
0000
0002
0000
0003
0000
0000
,
1000
1000
1000
0000
,
0001
0001
0001
0000
,
0010
0010
0010
0000
,
0100
0100
0100
0000
,
0001
1000
0001
0000
,
0010
0100
0010
0000
,
0100
0010
0100
0000
,
1000
0001
1000
0000
,
0010
1000
0010
0000
,
0100
0001
0100
0000
,
0010
1000
0010
0000
,
0100
0001
0100
0000
,
0001
0010
0001
0000
,
1000
0100
1000
0000
,
0001
0010
0001
0000
,
20MM
0000
0000
0002
0000
3003
0000
0002
,
0000
0100
0103
0000
,
0020
0000
0000
2000
0000
3030
0000
2000
,
0000
0001
3001
0000
,
0020
0000
0000
0200
0000
0330
0000
0200
,
0000
1000
1300
0000
,
0020
0000
0000
0230
0000
0000
0000
0000
,
0000
0001
0000
0301
0000
0000
0000
0000
,
0002
0000
0000
0020
0000
0033
0000
0020
,
0000
0100
0130
0000
,
2000
0000
0000
0020
0000
3030
0000
0020
,
0000
0100
0130
0000
,
0002
0000
0000
0020
0000
0033
0000
0020
,
0000
0100
0130
0000
,
2000
0000
0000
3020
0000
0000
0000
0000
,
0000
0100
0000
0130
0000
0000
0000
0000
,
0200
0000
0000
0002
0000
0303
0000
0020
,
0000
0100
0130
0000
,
2000
0000
0000
0020
0000
3030
0000
0200
,
0000
0001
0301
0000
,
0020
0000
0000
0200
0000
0330
0000
2000
,
0000
0010
3010
0000
,
0200
0000
0000
0302
0000
0000
0000
0000
,
0000
1000
0000
1003
0000
0000
0000
0000
,
0200
0000
0000
0020
0000
0330
0000
0002
,
0000
0103
0020
0030
,
0200
0000
0000
0002
0000
0303
0000
0020
,
0000
0130
1000
0000
,
0002
0000
0000
2000
0000
3003
0000
0020
,
0000
0130
0002
0003
,
1000
0001
1000
0002
0000
2000
0000
3003
,
0000
0100
0010
0100
0000
0000
0000
0000
;

//---------------dance-single - Ace Of Hearts (2008)----------------
#NOTES:
     dance-single:
     Ace Of Hearts (2008):
     Beginner:
     2:
     0.196,0.000,0.067,0.293,0.000:
0000
0000
0000
0000
,
0000
0000
0000
0000
,
0000
0000
0000
0000
,
0000
0000
0000
0000
,
2000
0000
3000
0000
,
1000
0000
1000
0000
,
0002
0000
0003
0000
,
0001
0000
0001
0000
,
0020
0000
0030
0000
,
0010
0000
0010
0000
,
0200
0000
0300
0000
,
1001
0000
0000
0000
,
0000
1000
1000
0000
,
1000
0000
1000
0000
,
0000
0001
0001
0000
,
0001
0000
0001
0000
,
0000
0100
0100
0000
,
0100
0000
0100
0000
,
0000
0010
0010
0000
,
0010
0000
0010
0000
,
1000
0000
1000
0000
,
1000
0000
1000
0000
,
0001
0000
0001
0000
,
0002
0000
0003
0000
,
0000
0010
0010
0000
,
0020
0000
0030
0000
,
0000
0100
0100
0000
,
0200
0000
0300
0000
,
2000
0000
3000
0000
,
1000
0000
1000
0000
,
0002
0000
0003
0000
,
0001
0000
0001
0000
,
0200
0000
0300
0000
,
0100
0000
0100
0000
,
0020
0000
0030
0000
,
1001
0000
0000
0000
,
1000
0000
1000
0000
,
0001
0000
0001
0000
,
1000
0000
1000
0000
,
0010
0000
0010
0000
,
0000
1000
1000
0000
,
0001
0000
0002
0003
,
0000
0010
0010
0000
,
0100
0000
0200
0300
,
0000
0001
0001
0000
,
1000
0000
2000
3000
,
0000
0100
0100
0000
,
0020
0000
0030
0000
,
0100
0000
0100
0000
,
0100
0000
0100
0000
,
0001
0000
0001
0000
,
0002
0000
0003
0000
,
0000
1000
1000
0000
,
0002
0003
0001
0000
,
0000
1000
1000
0000
,
0001
0001
0002
0003
,
2000
0000
3000
0000
,
1000
0000
1000
0000
,
0002
0000
0003
0000
,
0001
0000
0001
0000
,
0200
0000
0300
0000
,
0100
0000
0100
0000
,
0020
0000
0030
0000
,
1001
0000
0000
0000
,
2000
0000
3000
0000
,
1000
1000
1000
0000
,
0002
0000
0003
0000
,
0001
0001
0001
0000
,
0200
0000
0300
0000
,
0100
0100
0100
0000
,
0020
0000
0030
0000
,
1001
0000
0000
0000
,
2000
0000
3000
0000
,
0002
0000
0003
0000
,
0200
0000
0300
0000
,
0020
0000
0030
0000
,
0002
0000
0003
0000
,
0200
0000
0300
0000
,
0000
0000
2002
3003
,
0220
0330
2002
3003
,
1000
0000
1000
0000
,
0001
0000
0001
0000
,
1000
0000
1000
0000
,
0001
0000
0001
0000
,
0010
0000
0010
0000
,
0100
0000
0100
0000
,
0010
0000
0010
0000
,
0100
0000
0100
0000
,
1000
0000
1000
0000
,
0001
0000
0001
0000
,
1000
0000
1000
0000
,
0001
0000
0001
0000
,
0010
0000
0010
0000
,
0100
0000
0100
0000
,
1000
0000
1000
0000
,
2000
0000
3000
0000
,
1000
1000
1000
0000
,
0002
0000
0003
0000
,
0001
0001
0001
0000
,
0200
0000
0300
0000
,
0100
0100
0100
0000
,
0020
0000
0030
0000
,
1001
0000
0000
0000
,
0002
0000
0003
0000
,
0001
0001
0001
0000
,
2000
0000
3000
0000
,
1000
1000
1000
0000
,
0020
0000
0030
0000
,
0010
0010
0010
0000
,
0200
0000
0300
0000
,
1001
0000
0000
0000
,
2000
0000
3000
0000
,
0002
1000
1003
0000
,
0002
0000
0003
0000
,
2000
0001
3001
0000
,
0020
0000
0030
0000
,
0020
0100
0130
0000
,
0200
0000
0300
0000
,
1001
0000
0000
0000
,
2002
0000
3003
0000
,
0010
0010
0010
0000
,
2002
0000
3003
0000
,
0100
0100
0100
0000
,
2002
0000
3003
0000
,
0010
0010
0010
0000
,
2000
0000
0000
0000
0002
0000
0000
3003
,
0000
1001
0000
0000
;

//---------------dance-single - Catching Up----------------
#NOTES:
     dance-single:
     Catching Up:
     Edit:
     11:
     -1.000,-1.000,-1.000,-1.000,-1.000:
// measure 1
0000
0000
0000
0000
,  // measure 2
0000
0000
0000
0000
,  // measure 3
0000
0000
0000
0000
,  // measure 4
0000
0000
0000
0000
,  // measure 5
0102
1000
1003
1200
0000
0310
0000
0012
,  // measure 6
0000
0000
1003
0000
0010
0000
0100
0000
0102
0000
0000
0000
2003
0000
0200
3300
,  // measure 7
0120
0031
0001
2001
0000
3010
0000
0110
,  // measure 8
0000
0100
0001
1000
1100
0100
0110
0010
,  // measure 9
0012
1003
1000
1020
0000
0130
0000
0102
,  // measure 10
0000
0000
1003
0000
0100
0000
0010
0000
0012
0000
0000
0000
2003
0000
0020
3030
,  // measure 11
0210
0000
0302
0000
2003
3000
1100
0000
0000
0000
0202
0000
0000
0000
0303
0000
,  // measure 12
0000
0000
0001
0000
1000
0000
0100
0010
0200
0000
1300
0000
0001
0000
0100
0000
,  // measure 13
0220
0300
2M3M
3000
1MM1
0001
0010
0210
,  // measure 14
0000
1300
0001
0100
0110
0010
1000
0100
,  // measure 15
0110
0010
0002
0000
1100
0000
1003
1020
,  // measure 16
0000
0000
0130
0000
0001
0000
0100
M00M
0400
0000
0000
0000
0340
0000
0000
0030
,  // measure 17
0011
0000
0000
0000
0002
0000
0000
0003
2001
0000
0010
0000
3000
0000
1M20
0000
,  // measure 18
0000
103M
0M10
M001
0M11
M010
1000
0001
,  // measure 19
0011
0010
0110
0000
2200
3300
0101
0001
,  // measure 20
1001
0000
1000
0000
0100
0000
0010
0000
0011
0000
0001
1000
0020
0000
0130
0000
,  // measure 21
M101
00M1
1M00
101M
M0M0
0M10
M100
01M2
,  // measure 22
M000
1M03
110M
00M0
M140
0000
0031
1000
,  // measure 23
1010
0010
0100
0001
2001
0000
3100
0120
,  // measure 24
0000
0000
0031
1000
0200
0000
0000
0000
0000
0000
0310
0001
1000
0000
0010
0000
,  // measure 25
0110
0100
0002
0003
2002
0003
3100
0120
,  // measure 26
0000
0130
1000
0001
0202
0000
0003
0310
,  // measure 27
0000
1000
2200
3300
0022
0030
1003
1020
,  // measure 28
0000
0031
0010
1000
2020
3030
0102
1003
,  // measure 29
1200
0000
0320
0000
0032
0003
2001
0000
0000
0000
0020
0000
3030
0000
0210
0000
,  // measure 30
0000
0000
0301
0000
0100
M00M
0100
0000
2100
0000
0000
0000
3002
0000
0203
0300
,  // measure 31
0120
0000
2030
0000
3200
0300
0120
0000
0000
0000
0002
0000
0033
0000
1001
0000
,  // measure 32
M00M
1000
0010
0100
0101
0M01
1001
1000
,  // measure 33
1200
0000
0320
0000
0032
0003
2001
0000
0000
0000
0020
0000
3030
0000
0210
0000
,  // measure 34
0000
0000
0301
0000
0010
M00M
0010
0000
2010
0000
0000
0000
3200
0000
0320
0030
,  // measure 35
0012
0000
2003
0000
3020
0030
0210
0000
0000
0000
0002
0000
0000
0000
0000
0000
,  // measure 36
0303
0000
0001
0000
1000
0000
0100
0010
0200
0000
1300
0000
1001
0000
0001
0000
,  // measure 37
0100
M00M
0100
0000
0010
M00M
0010
0000
1010
0000
1000
0000
0002
0000
0000
0003
,  // measure 38
0041
0000
0100
0000
0032
0000
1003
0100
,  // measure 39
0010
M00M
0010
0000
0100
M00M
0100
0000
0101
0000
0001
0000
2002
0000
0000
3003
,  // measure 40
1400
0000
0001
0000
0010
0000
2300
3001
,  // measure 41
0202
0303
0220
0000
1000
0000
0330
0101
,  // measure 42
0M0M
10M0
M100
0M10
00M2
0M00
M2M3
0320
,  // measure 43
0030
0000
1000
0002
1010
0003
1000
0100
,  // measure 44
0MM0
0100
0010
0001
2001
0000
0014
0000
,  // measure 45
3003
1000
0M20
0030
011M
0000
010M
11M1
,  // measure 46
0000
00M1
001M
01M0
2M00
3000
2MM2
0000
,  // measure 47
3003
0000
0001
0000
0021
0000
1030
0020
,  // measure 48
0000
0031
1000
0010
0110
0100
0101
00M1
,  // measure 49
1M01
200M
31M0
M110
00MM
0M10
M100
210M
,  // measure 50
0M00
30M2
M200
00M0
M010
00M0
0303
0001
,  // measure 51
1001
1000
0100
0010
0012
0000
1003
1020
,  // measure 52
0000
0000
0130
0001
2000
0000
0000
0000
0000
0000
0101
0000
0000
0000
3000
0000
,  // measure 53
0000
1000
1001
0000
0202
0003
0310
2010
,  // measure 54
0000
3100
0001
0100
4200
0000
0000
3300
,  // measure 55
0000
1000
2002
3003
0202
0003
0310
2010
,  // measure 56
0000
3010
0001
0010
2020
3030
0202
0303
,  // measure 57
2002
0003
0200
0300
0002
0003
0020
0000
3000
0000
0200
0000
0330
0000
0102
0000
,  // measure 58
0000
0000
1003
0000
0100
0000
0010
0000
0022
0000
0033
0000
2200
0300
0002
3003
,  // measure 59
0202
0003
0020
0030
2000
3000
0020
0000
0300
0000
2000
0000
3030
0000
1001
0000
,  // measure 60
M00M
0000
0001
0000
0011
0000
0010
0000
0220
0000
0030
0000
2000
0000
3000
0300
,  // measure 61
2002
3000
0200
0300
2000
3000
0023
0000
0000
0000
0200
0030
2300
3000
1002
0000
,  // measure 62
0000
0000
0103
0000
0010
0000
1000
0000
1001
0000
M00M
0000
0021
0000
0230
0300
,  // measure 63
2100
0000
3002
0000
0203
0300
0120
0000
0000
0000
2000
0000
0000
0000
3030
0000
,  // measure 64
0000
0000
1000
0000
0001
0000
0100
0010
0200
0000
0000
0000
0301
0000
2001
0000
,  // measure 65
3100
M00M
0100
0000
0001
0000
0021
0000
0000
0000
0130
0000
0000
0000
2100
0000
,  // measure 66
0000
0000
3001
0000
0010
M00M
0010
0000
2010
0000
0000
0000
3002
0000
0020
0003
,  // measure 67
0130
M00M
0100
0000
1000
0000
1002
0000
0000
0000
0103
0000
0000
0000
0110
0000
,  // measure 68
4010
0000
0001
0000
0100
0000
3001
0010
,  // measure 69
0100
M00M
0100
0000
0001
0000
2001
0000
0000
0000
3100
0000
0000
0000
0120
0000
,  // measure 70
0000
0031
1000
0010
0110
0100
0001
1000
,  // measure 71
1200
0000
0320
0000
0032
0003
2001
0000
0000
0000
0020
0000
0000
0000
3030
0000
,  // measure 72
0000
0000
0010
0000
1000
0000
0001
0010
0200
0000
1300
0000
0001
0000
0100
0000
,  // measure 73
0120
0000
1030
0000
2200
0000
0000
0020
0000
0000
0000
3330
0000
0000
0000
0200
,  // measure 74
0000
0000
1300
0002
0000
0000
1003
0020
0000
0130
0001
2000
0000
0000
0011
3002
,  // measure 75
0000
0000
0203
0300
0220
0000
0330
2204
0000
0000
3303
0000
0000
0000
0001
0000
,  // measure 76
2001
0000
3100
0000
0001
0000
0200
0000
0000
1300
0001
0200
0000
0000
0300
0000
,  // measure 77
0000
0000
0000
0000
0000
0000
M010
0000
0000
0000
0000
0000
2M20
0000
0000
0000
0000
0000
003M
0000
0000
3001
0000
0010
0M00
0001
0000
0020
0000
0000
M000
0000
0000
0130
0000
0000
000M
0000
0000
0000
0000
0000
10M0
0000
0000
1020
0000
0000
,  // measure 78
0M00
0000
013M
0102
M000
0000
10M3
1200
000M
0310
M001
4000
00M0
0000
3M10
0000
,  // measure 79
000M
0000
00M0
0100
0001
1000
0020
0030
0210
0002
0000
0303
0000
0000
0001
2001
,  // measure 80
0000
0020
0000
3030
0000
0000
0010
0210
0000
0000
0301
2001
3100
0010
0100
1000
,  // measure 81
0004
1000
0010
2003
,  // measure 82
3010
M00M
0010
0000
0100
M00M
0100
0000
0102
0000
0000
0000
1003
0000
0100
0000
,  // measure 83
0010
M00M
0010
0000
0100
M00M
0100
0000
1100
0000
1000
0000
2002
0000
3000
0000
,  // measure 84
0403
0010
1000
0320
,  // measure 85
4030
0001
0010
3200
,  // measure 86
0310
M00M
0010
0000
0100
M00M
0100
0000
2000
0000
0000
0000
3001
0000
0100
0000
,  // measure 87
0010
M00M
0010
0000
0100
M00M
0100
0000
0101
0000
0001
0000
2002
0000
0003
0000
,  // measure 88
3040
0000
0000
0000
0000
0000
0100
0000
0000
0000
0000
0000
0001
0000
0000
0000
0000
0000
0130
0010
0100
0010
0100
0010
,  // measure 89
0400
0001
1000
0320
,  // measure 90
0130
M00M
0100
0000
0010
M00M
0010
0000
2010
0000
0000
0000
3100
M00M
0100
0000
,  // measure 91
0010
M00M
0010
0000
0100
M00M
0100
0000
0101
0000
0001
0000
2002
0000
0003
0000
,  // measure 92
3040
0100
0001
2030
,  // measure 93
3004
0010
0100
2003
,  // measure 94
3100
M00M
0100
0000
0010
M00M
0010
0000
0012
0000
0000
0000
0103
M00M
0100
0000
,  // measure 95
0010
M00M
0010
0000
0100
M00M
0100
0000
0001
0000
1000
0000
0100
0000
1111
0000
,  // measure 96
0202
0300
2000
3000
0020
0030
2000
0000
0003
0000
0200
0000
3300
0000
0220
0000
,  // measure 97
0300
0031
1000
0010
0110
0MM0
0202
0303
,  // measure 98
2001
0000
0200
0300
0002
0003
0020
0000
3000
0000
0200
0000
0330
0000
0101
0000
,  // measure 99
M00M
0001
1000
0002
0200
0000
1010
0303
,  // measure 100
0220
0300
0002
0003
0200
0300
2000
0000
0030
0000
0002
0000
3003
0000
0022
0000
,  // measure 101
0003
0130
1000
0001
0011
0MM0
2200
3300
,  // measure 102
1002
0000
0203
0000
0320
0030
1010
0000
M00M
0000
0202
0000
0000
0000
0303
0000
,  // measure 103
0000
0000
0001
0000
1000
0000
0100
0010
0200
0000
1300
0000
0001
0000
0100
0000
,  // measure 104
0010
M00M
0010
0000
0100
M00M
0200
0000
0000
0000
0301
0000
0000
0000
0021
0000
,  // measure 105
0000
0130
1000
0001
0101
0MM0
2020
0030
,  // measure 106
3100
M00M
0100
0000
0010
M00M
0020
0000
0000
0000
0031
0000
0000
0000
1001
0000
,  // measure 107
M00M
1000
0010
1000
2200
0000
0011
3300
,  // measure 108
0100
M00M
0100
0000
0010
M00M
0020
0000
0000
0000
0130
0000
1000
0000
1001
0000
,  // measure 109
M00M
0001
0100
0010
1010
1MM0
0001
0010
,  // measure 110
0110
0000
2100
3001
0000
2002
0000
0000
,  // measure 111
0000
0010
0100
0010
0000
0000
3003
110M
,  // measure 112
0MM0
0000
M100
0000
0M10
0000
00M1
0000
200M
0000
00M0
0000
0M11
3000
10M0
0000
,  // measure 113
MM0M
1000
0100
0010
0011
0MM0
1100
1000
,  // measure 114
M00M
10M0
0M01
01M0
M111
0000
0000
1001
,  // measure 115
M00M
1000
0100
0010
0012
1003
0020
0030
,  // measure 116
0210
0000
0302
0000
2003
0000
3020
0000
0000
0000
0430
0000
0000
0300
0101
0000
,  // measure 117
M00M
0001
1000
0100
M110
0M10
00M2
0003
,  // measure 118
2M01
0000
3020
0000
0230
0300
0102
0000
0000
0000
2000
0000
0000
0000
0003
0000
,  // measure 119
0000
0000
3100
0000
0010
0000
0100
1000
0002
0000
0103
0000
0010
0000
1000
0000
,  // measure 120
1100
0000
0011
0011
0000
0000
1001
0000
,  // measure 121
0000
1010
0000
1010
0000
0000
0101
0101
,  // measure 122
0000
0011
0110
1100
1001
1001
0000
0000
,  // measure 123
1010
0110
0101
1001
2200
0000
0010
0000
,  // measure 124
3300
0000
0011
0011
0000
0000
1001
0000
,  // measure 125
0000
1010
0000
1010
0000
0000
0101
0101
,  // measure 126
0002
0000
0103
M0M0
0100
0000
1100
0000
M00M
0000
2000
0000
0000
0000
3000
0000
,  // measure 127
0000
0000
0001
0000
1000
0000
0010
0100
0002
0000
0000
0000
0003
0000
0000
0000
;
