#TITLE:Caramelldancing;
#SUBTITLE:;
#ARTIST:Caramell;
#TITLETRANSLIT:;
#SUBTITLETRANSLIT:;
#ARTISTTRANSLIT:;
#GENRE:;
#CREDIT:Ace Of Hearts;
#BANNER:Caramelldancing - Bn.png;
#BACKGROUND:Caramelldancing - Bg.jpg;
#LYRICSPATH:Caramelldancing Lyrics.lrc;
#CDTITLE:Ace Of Hearts.png;
#MUSIC:Caramelldancing.ogg;
#OFFSET:1.230;
#SAMPLESTART:51.240;
#SAMPLELENGTH:12.000;
#SELECTABLE:YES;
#BPMS:0.000=164.700,336.000=82.340,352.000=164.700;
#STOPS:;
#BGCHANGES:2.500=Caramelldancing BG Video.avi=1.000=0=0=0=StretchNoLoop====,
99999=-nosongbg-=1.000=0=0=0 // don't automatically add -songbackground-
;
#KEYSOUNDS:;

//---------------dance-single - Ace Of Hearts (2008)----------------
#NOTES:
     dance-single:
     Ace Of Hearts (2008):
     Hard:
     8:
     0.566,0.000,0.267,0.698,0.136: // measure 1
0000
0000
0000
0000
,  // measure 2
0000
0000
0000
0000
,  // measure 3
0000
0000
0000
0000
,  // measure 4
0000
0000
0000
0000
,  // measure 5
0000
0000
0000
0000
,  // measure 6
0000
0000
0000
0000
,  // measure 7
0000
0000
0000
0000
,  // measure 8
0000
0000
0000
0000
,  // measure 9
0000
0000
0000
0000
,  // measure 10
0000
0000
0000
0000
,  // measure 11
0000
0000
0000
0000
,  // measure 12
0000
0000
0000
0000
,  // measure 13
0001
0000
0000
0001
0000
0000
0001
0000
0000
1000
0000
0000
0010
0000
1000
0000
,  // measure 14
0100
0000
0000
0100
0000
0000
0100
0000
0000
0010
0000
0000
0001
0000
1000
0000
,  // measure 15
0010
0000
0000
0010
0000
0000
0010
0000
0000
1000
0000
0000
0100
0000
0010
0000
,  // measure 16
0001
0000
0000
0001
0000
0000
0001
0000
0000
1000
0000
0000
0001
0000
0100
0000
,  // measure 17
0010
0000
0000
0010
0000
0000
0010
0000
0000
1000
0000
0000
0001
0000
0010
0000
,  // measure 18
0100
0000
0000
0100
0000
0000
0100
0000
0000
1000
0000
0000
0100
0000
0010
0000
,  // measure 19
0001
0000
0000
0001
0000
0000
0001
0000
0000
1000
0000
0000
0100
0000
0010
0000
,  // measure 20
0100
0000
0000
0100
0000
0000
0100
0000
0000
1000
0000
0000
0001
0000
0100
0000
,  // measure 21
0010
1000
0001
0010
0002
0000
1003
0010
,  // measure 22
0100
0010
0000
1010
0000
0000
0000
0000
,  // measure 23
0102
0000
0013
0100
1000
0000
1000
0010
,  // measure 24
0100
0002
0000
0013
0000
0000
0000
0000
,  // measure 25
2100
0000
3001
0100
0000
0000
0000
0000
,  // measure 26
0000
0000
0000
0210
0000
0301
0010
0100
,  // measure 27
2000
0000
3001
0100
0000
0000
0000
0000
,  // measure 28
0120
0000
1030
0001
0000
0000
0000
1000
,  // measure 29
0100
0010
0100
1000
0001
0000
0001
0000
,  // measure 30
0011
0000
0020
0000
0000
0030
0010
0000
0000
0000
0000
0000
0000
0000
0100
0000
,  // measure 31
1000
0010
0100
0001
1000
0000
0001
0010
,  // measure 32
0001
2000
0000
3100
0000
0000
0000
0000
,  // measure 33
0020
0000
0031
1000
0000
0000
0000
0000
,  // measure 34
0000
0000
0001
0200
0000
0310
0100
0001
,  // measure 35
1000
0010
0000
0010
0000
0010
0000
1000
,  // measure 36
0001
0000
0200
0000
0310
0000
0200
0000
0302
0000
0000
0000
2003
0000
0000
3000
,  // measure 37
1100
0000
0100
0010
0001
0000
0000
0102
,  // measure 38
0000
0103
0010
1000
0002
0000
0020
0033
,  // measure 39
0110
0000
0100
1000
0001
0000
1000
0010
,  // measure 40
0000
0010
0100
0001
0020
0000
0200
0330
,  // measure 41
1100
0000
1000
0001
0100
0000
0000
0110
,  // measure 42
0000
0010
1000
0001
2000
0000
0020
3030
,  // measure 43
0110
0000
0100
0001
1000
0000
1000
0010
,  // measure 44
0000
0020
1030
0000
0002
0000
0200
0303
,  // measure 45
0010
0000
0010
0000
2000
3100
2000
3010
,  // measure 46
0000
0100
0000
0101
0000
0001
0022
0033
,  // measure 47
0010
0000
0010
0000
0002
0103
0002
0013
,  // measure 48
0000
0200
1300
0000
0000
0000
0000
0000
,  // measure 49
0010
0000
0010
0000
0200
0301
0200
0310
,  // measure 50
0000
1000
0000
1100
0000
0100
0220
0330
,  // measure 51
0010
0000
0010
0000
0200
0310
0200
1300
,  // measure 52
0000
0002
0103
0000
0000
0000
0000
0010
,  // measure 53
0100
0001
1000
0100
2000
0000
3001
0100
,  // measure 54
0001
0000
0020
0000
0000
0030
0110
0000
0000
0000
0000
0000
0000
0000
0100
0000
,  // measure 55
1000
0001
0100
0010
0200
0000
0301
0010
,  // measure 56
0100
0000
2000
0000
0000
3000
1010
0000
0000
0000
0000
0000
0000
0000
0000
0000
,  // measure 57
0020
0000
0130
0001
0000
0000
0000
0000
,  // measure 58
0000
0000
1000
0200
0000
1300
0001
0100
,  // measure 59
0020
0000
1030
0100
0000
0000
0000
0000
,  // measure 60
0000
2000
3010
0200
0302
0000
0023
0130
,  // measure 61
1000
0001
0100
0010
0100
0000
0010
0000
,  // measure 62
1010
0000
2000
0000
0000
3000
1000
0000
0000
0000
0000
0000
0000
0000
0001
0000
,  // measure 63
0100
0010
0100
0001
0010
0000
0100
1000
,  // measure 64
0010
0200
0000
0301
0000
0000
0000
0000
,  // measure 65
0020
0000
0130
1000
0000
0000
0000
0000
,  // measure 66
0000
0000
0001
0200
0000
0310
1000
0001
,  // measure 67
0010
0100
0000
0100
0000
0100
0000
1000
,  // measure 68
1001
0000
0000
0000
0001
0000
0000
0000
0201
0000
0000
0000
0320
0000
0000
0030
,  // measure 69
1010
0000
1000
0001
0100
0000
0000
0110
,  // measure 70
0000
0100
0001
1000
0200
0000
0020
0330
,  // measure 71
0011
0000
0001
1000
0010
0000
0010
0200
,  // measure 72
0000
0301
0010
0001
2000
0000
0200
3300
,  // measure 73
0110
0000
0010
0001
1000
0000
0000
1010
,  // measure 74
0000
0010
0100
0001
2000
0000
0020
3030
,  // measure 75
0101
0000
0100
0010
1000
0000
1000
0200
,  // measure 76
0000
0310
0001
0000
2000
0000
0200
3300
,  // measure 77
0010
0000
0000
0010
0000
0000
0010
0000
0000
0001
0000
0000
1000
0000
0010
0000
,  // measure 78
0100
0000
0000
0100
0000
0000
0100
0000
0000
0001
0000
0000
0100
0000
0001
0000
,  // measure 79
1000
0000
0000
1000
0000
0000
1000
0000
0000
0100
0000
0000
0010
0000
0001
0000
,  // measure 80
0100
0000
0000
0100
0000
0000
0100
0000
0000
0010
0000
0000
0100
0000
0001
0000
,  // measure 81
1000
0000
0000
1000
0000
0000
1000
0000
0000
0100
0000
0000
1000
0000
0001
0000
,  // measure 82
0100
0000
0000
0100
0000
0000
0100
0000
0000
0010
0000
0000
1000
0000
0001
0000
,  // measure 83
0010
0000
0000
0010
0000
0000
0010
0000
0000
0100
0000
0000
1000
0000
0001
0000
,  // measure 84
0100
0000
0000
0100
0000
0000
0100
0000
0000
0001
0000
0000
1000
0000
0001
0000
,  // measure 85
2000
0000
3001
0010
0001
0000
0000
0200
0000
0310
1000
0001
2000
0000
3020
0000
,  // measure 86
0130
0000
0001
0100
0001
0000
1000
0200
0000
1300
0001
0100
0002
0000
0023
0000
,  // measure 87
0130
0000
1000
0100
1000
0000
0000
0002
0000
1003
0010
1000
0020
0000
0230
0000
,  // measure 88
0301
0000
1000
0100
1000
0000
0001
0020
0000
0031
1000
0000
0020
0000
0200
0330
,  // measure 89
0004
4000
0000
0000
0000
0000
0000
0000
0000
0000
0000
0000
0000
0000
0000
0000
,  // measure 90
3003
0000
0022
0033
0220
0330
2200
3300
,  // measure 91
1000
0000
1000
0000
0002
0013
0002
0103
,  // measure 92
0000
0010
0000
1010
0000
1000
2002
3003
,  // measure 93
0001
0000
0001
0000
2000
3100
2000
3010
,  // measure 94
0000
0200
0301
0000
0000
0000
0000
0000
,  // measure 95
0010
0000
0010
0000
0200
1300
0200
0310
,  // measure 96
0000
0001
0000
1001
0000
1000
2200
3300
,  // measure 97
0100
0000
0100
0000
0020
0130
0020
0031
,  // measure 98
0000
0000
2000
0000
3100
0000
0000
0000
0120
0000
0000
0000
0002
0000
0000
0033
,  // measure 99
1001
0000
1000
0001
0010
0000
0000
0210
,  // measure 100
0000
1300
0001
0100
0002
0000
0020
0033
,  // measure 101
0110
0000
0100
1000
0001
0000
0001
0200
,  // measure 102
0000
0310
1000
0001
0020
0000
0200
0330
,  // measure 103
1100
0000
1000
0010
0100
0000
0000
0101
,  // measure 104
0000
0001
0010
0100
2000
0000
0020
3030
,  // measure 105
0110
0000
0100
0001
1000
0000
1000
0200
,  // measure 106
0000
0000
0310
0000
0001
0000
0000
0000
0200
0000
0000
0000
0020
0000
0000
0330
,  // measure 107
1010
0000
1000
0001
0100
0000
0000
0210
,  // measure 108
0000
0301
1000
0100
0020
0000
0002
0033
,  // measure 109
0101
0000
0100
0010
1000
0000
1000
0002
,  // measure 110
0000
0013
0100
0010
0002
0000
0200
0303
,  // measure 111
0110
0000
0100
0010
1000
0000
0000
1100
,  // measure 112
0000
0100
0010
0001
2000
0000
0020
3030
,  // measure 113
0110
0000
0100
0001
1000
0000
1000
0020
,  // measure 114
0000
0130
0001
0000
2000
0000
0200
0000
,  // measure 115
3300
0000
0000
0000
;

//---------------dance-single - Ace Of Hearts (2008)----------------
#NOTES:
     dance-single:
     Ace Of Hearts (2008):
     Medium:
     6:
     0.395,0.000,0.045,0.335,0.079:
0000
0000
0000
0000
,
0000
0000
0000
0000
,
0000
0000
0000
0000
,
0000
0000
0000
0000
,
0000
0000
0000
0000
,
0000
0000
0000
0000
,
0000
0000
0000
0000
,
0000
0000
0000
0000
,
0000
0000
0000
0000
,
0000
0000
0000
0000
,
0000
0000
0000
0000
,
0000
0000
0000
0000
,
1000
0000
0000
1000
0000
0000
1000
0000
0000
0000
0000
0000
0001
0000
0000
0000
,
0100
0000
0000
0100
0000
0000
0100
0000
0000
0000
0000
0000
0001
0000
0000
0000
,
0010
0000
0000
0010
0000
0000
0010
0000
0000
0000
0000
0000
0100
0000
0000
0000
,
1000
0000
0000
1000
0000
0000
1000
0000
0000
0000
0000
0000
0000
0000
0000
0000
,
0001
0000
0000
0001
0000
0000
0001
0000
0000
0000
0000
0000
0010
0000
0000
0000
,
0100
0000
0000
0100
0000
0000
0100
0000
0000
0000
0000
0000
1000
0000
0000
0000
,
0010
0000
0000
0010
0000
0000
0010
0000
0000
0000
0000
0000
1000
0000
0000
0000
,
0001
0000
0000
0001
0000
0000
0001
0000
0000
0000
0000
0000
1000
0000
0000
0000
,
0001
0100
0001
0000
1000
0000
1000
0000
,
0001
0010
0000
0010
0000
0000
0000
0000
,
0001
0000
1000
0010
1000
0000
0001
0000
,
1000
0020
0000
0130
0000
0000
0000
0000
,
0002
0000
1003
0010
0000
0000
0000
0000
,
0000
0000
0000
0020
0000
1030
0001
0000
,
2000
0000
3001
0010
0000
0000
0000
0000
,
0000
0000
0000
0000
0000
0000
0000
0001
,
1000
0000
0010
1000
0010
0000
1000
0000
,
0100
0010
0000
0010
0000
0000
0000
0100
,
1000
0000
0001
0100
0001
0000
1000
0000
,
0010
0100
0000
0100
0000
0000
0000
0000
,
0002
0000
1003
0100
0000
0000
0000
0000
,
0000
0000
1000
0002
0000
1003
0010
0000
,
0100
0000
0000
0000
,
0000
0002
1003
0002
2003
0000
3100
0000
,
1000
0000
0001
0010
0001
0000
0000
2000
,
0000
3001
0100
0000
0010
0000
0010
0000
,
1000
0000
0001
0100
0001
0000
1000
0020
,
0000
1030
0001
0000
0100
0000
0010
0000
,
1000
0000
0100
1000
0100
0000
0000
2000
,
0000
3001
0100
0000
0001
0000
1000
0000
,
0100
0000
0010
0001
0010
0000
0100
2000
,
0000
3001
0100
0000
0010
0000
0100
0000
,
0001
0000
0001
0000
0001
0020
0000
0130
,
0000
0000
0000
0000
,
0100
0000
0100
0000
0100
2000
0000
3001
,
0000
0020
0130
0000
0000
0000
0000
0000
,
1000
0000
1000
0000
1000
0020
0000
0130
,
0000
0000
0000
0000
,
0001
0000
0001
0000
0001
0020
0000
0130
,
0000
2000
3001
0000
0000
0000
0000
0000
,
1000
0100
1000
0000
0002
0000
0103
0000
,
0001
1000
0000
1000
0000
0000
0000
0000
,
0001
0010
0001
0000
1000
0000
0100
0000
,
1000
0001
0000
0001
0000
0000
0000
0000
,
2000
0000
3010
0100
0000
0000
0000
0000
,
0000
0000
0001
2000
0000
3001
0100
0000
,
0010
0000
0100
0001
0000
0000
0000
0000
,
0000
2000
3100
2000
3200
0000
0310
0000
,
0001
1000
0001
0000
0100
0000
0001
0000
,
1000
0010
0000
0010
0000
0000
0000
0000
,
1000
0010
1000
0000
0001
0000
0100
0000
,
0010
0100
0000
0100
0000
0000
0000
0000
,
0002
0000
1003
0010
0000
0000
0000
0000
,
0000
0000
1000
0002
0000
1003
0010
0000
,
0100
0000
0000
0000
,
0000
0101
1001
1001
,
1000
0000
0010
1000
0010
0000
0000
2000
,
0000
3001
0100
0000
0002
0000
0013
0000
,
0001
0000
1000
0010
1000
0000
0001
0200
,
0000
0301
1000
0000
0001
0000
0010
0000
,
0100
0000
1000
0001
1000
0000
0000
0020
,
0000
1030
0001
0000
0100
0000
0010
0000
,
0100
0000
0001
0100
0001
0000
1000
0002
,
0000
1003
0010
0000
2000
0000
3001
0000
,
0100
0000
0000
0100
0000
0000
0100
0000
0000
0000
0000
0000
0010
0000
0000
0000
,
1000
0000
0000
1000
0000
0000
1000
0000
0000
0000
0000
0000
0001
0000
0000
0000
,
0010
0000
0000
0010
0000
0000
0010
0000
0000
0000
0000
0000
0001
0000
0000
0000
,
1000
0000
0000
1000
0000
0000
1000
0000
0000
0000
0000
0000
0010
0000
0000
0000
,
0100
0000
0000
0100
0000
0000
0100
0000
0000
0000
0000
0000
0010
0000
0000
0000
,
1000
0000
0000
1000
0000
0000
1000
0000
0000
0000
0000
0000
0001
0000
0000
0000
,
0010
0000
0000
0010
0000
0000
0010
0000
0000
0000
0000
0000
0100
0000
0000
0000
,
1000
0000
0000
1000
0000
0000
1000
0000
0000
0000
0000
0000
0001
0000
0000
0000
,
0200
0000
0301
0100
0001
0000
0000
2000
0000
3001
0010
0000
0001
0000
1000
0000
,
0001
0000
1000
0100
1000
0000
0001
0010
0000
0001
0010
0000
0002
0000
1003
0000
,
0010
0000
0100
0010
0100
0000
0000
0002
0000
1003
0100
0000
1000
0000
0001
0000
,
1000
0000
0001
0100
0001
0000
1000
0200
0000
1300
0001
0000
2000
0000
3100
0000
,
0220
0000
0000
0000
,
0330
1001
0110
1001
,
1000
0000
1000
0000
1000
0020
0000
0130
,
0000
0000
0000
0000
,
0100
0000
0100
0000
0100
0002
0000
1003
,
0000
0002
0013
0000
0000
0000
0000
0000
,
0010
0000
0010
0000
0010
0200
0000
1300
,
0000
0000
0000
0000
,
0001
0000
0001
0000
0001
0200
0000
0310
,
0000
0200
0301
0000
1001
0000
1000
0000
,
0100
0000
0010
0001
0010
0000
0000
0002
,
0000
1003
0010
0000
2000
0000
3010
0000
,
0100
0000
0010
1000
0010
0000
1000
0002
,
0000
1003
0100
0000
2000
0000
3001
0000
,
0100
0000
0001
0100
0001
0000
0000
2000
,
0000
3001
0100
0000
0001
0000
0010
0000
,
0100
0000
0010
0001
0010
0000
0100
0020
,
0000
0031
1000
0000
0020
0000
0130
0000
,
0001
0000
1000
0010
1000
0000
0000
0020
,
0000
1030
0001
0000
0100
0000
0010
0000
,
1000
0000
0001
0100
0001
0000
1000
0020
,
0000
1030
0001
0000
1000
0000
0100
0000
,
0010
0000
0100
1000
0100
0000
0000
2000
,
0000
3001
0100
0000
0001
0000
0010
0000
,
0001
0000
1000
0010
1000
0000
0001
0020
,
0000
0031
1000
0000
0002
0000
0103
0000
;

//---------------dance-single - Ace Of Hearts (2008)----------------
#NOTES:
     dance-single:
     Ace Of Hearts (2008):
     Easy:
     3:
     0.222,0.000,0.000,0.210,0.000:
0000
0000
0000
0000
,
0000
0000
0000
0000
,
0000
0000
0000
0000
,
0000
0000
0000
0000
,
0000
0000
0000
0000
,
0000
0000
0000
0000
,
0000
0000
0000
0000
,
0000
0000
0000
0000
,
0000
0000
0000
0000
,
0000
0000
0000
0000
,
0000
0000
0000
0000
,
0000
0000
0000
0000
,
2000
0000
3000
0001
,
0002
0000
0003
0010
,
0020
0000
0030
0100
,
0200
0000
0300
0000
,
0020
0000
0030
0001
,
0002
0000
0003
1000
,
2000
0000
3000
0010
,
0020
0000
0030
1000
,
0001
0001
0001
0000
,
1000
0000
1000
0000
,
0010
0010
0010
0000
,
0100
0000
0100
0000
,
0001
0001
0001
0000
,
0000
0000
0100
0100
,
0100
0000
0100
0000
,
0000
0000
0000
0000
,
0001
0001
0001
0000
,
0010
0000
0010
0000
,
0100
0100
0100
0000
,
1000
0000
1000
0000
,
0001
0001
0001
0000
,
0000
0000
0100
0100
,
0100
0000
0000
0000
,
0000
0010
0010
0010
,
1000
1000
1000
0000
,
0001
0001
0001
0000
,
0010
0010
0010
0000
,
0100
0100
0100
0000
,
1000
1000
1000
0000
,
0001
0001
0001
0000
,
2000
0000
0000
0000
,
0002
0000
0000
3003
,
1000
0000
1000
0000
2000
0000
0000
3001
,
0000
0000
0000
0000
,
0001
0000
0001
0000
0002
0000
0000
2003
,
0000
3000
0000
0000
,
0010
0000
0010
0000
0020
0000
0000
0130
,
0000
0000
0000
0000
,
0100
0000
0100
0000
0200
0000
0000
0320
,
0000
0030
0000
0000
,
1000
1000
1000
0000
,
0010
0000
0010
0000
,
0100
0100
0100
0000
,
0001
0000
0001
0000
,
0100
0000
0100
0000
,
0000
0000
0010
0000
,
0010
0000
0010
0000
,
0000
1000
1000
1000
,
0001
0001
0001
0000
,
0010
0000
0010
0000
,
0001
0001
0001
0000
,
0100
0000
0100
0000
,
0010
0010
0010
0000
,
0000
0000
1000
1000
,
1000
0000
0000
0000
,
0000
0001
0001
0001
,
1000
0001
1000
0000
,
0001
1000
0001
0000
,
0010
0100
0010
0000
,
0100
0010
0100
0000
,
1000
0001
1000
0000
,
0010
0100
0010
0000
,
0200
0000
0000
0000
,
0020
0000
0000
0330
,
2000
0000
3000
0001
,
0002
0000
0003
0100
,
0200
0000
0300
0010
,
0020
0000
0030
0000
,
2000
0000
3000
0001
,
0002
0000
0003
0100
,
0200
0000
0300
0010
,
0020
0000
0030
0000
,
1000
1000
0001
0001
,
0100
0100
0020
0030
,
0100
0100
0001
0001
,
0010
0010
0020
0030
,
0200
0000
0000
0000
,
0300
1000
1000
0000
,
0001
0000
0001
0000
0002
0000
0000
1003
,
0000
0000
0000
0000
,
1000
0000
1000
0000
2000
0000
0000
3001
,
0000
0001
0000
0000
,
0010
0000
0010
0000
0020
0000
0000
0130
,
0000
0000
0000
0000
,
0100
0000
0100
0000
0200
0000
0000
0310
,
0000
0010
0000
0000
,
0001
0010
0001
0000
,
1000
0001
1000
0000
,
0001
0100
0001
0000
,
1000
0001
1000
0000
,
0010
0100
0010
0000
,
1000
0010
1000
0000
,
0002
0000
0000
0000
,
0200
0000
0000
0303
,
0100
0001
0100
0000
,
0010
0100
0010
0000
,
1000
0001
1000
0000
,
0001
0010
0001
0000
,
1000
0100
1000
0000
,
0001
0100
0001
0000
,
1000
0000
0010
0000
,
0200
0301
0200
0301
;

//---------------dance-single - Ace Of Hearts (2008)----------------
#NOTES:
     dance-single:
     Ace Of Hearts (2008):
     Beginner:
     1:
     0.121,0.000,0.017,0.142,0.000:
0000
0000
0000
0000
,
0000
0000
0000
0000
,
0000
0000
0000
0000
,
0000
0000
0000
0000
,
0000
0000
0000
0000
,
0000
0000
0000
0000
,
0000
0000
0000
0000
,
0000
0000
0000
0000
,
0000
0000
0000
0000
,
0000
0000
0000
0000
,
0000
0000
0000
0000
,
0000
0000
0000
0000
,
0001
0000
0000
0000
,
0001
0000
0000
0000
,
0001
0000
0000
0000
,
0001
0000
0000
0000
,
1000
0000
0000
0000
,
1000
0000
0000
0000
,
1000
0000
0000
0000
,
1000
0000
0000
0000
,
0100
0000
0100
0000
,
0100
0000
0000
0000
,
0010
0000
0010
0000
,
0010
0000
0000
0000
,
0002
0000
0003
0000
,
0000
0000
0000
0000
,
2000
0000
3000
0000
,
0000
0000
0000
0000
,
0001
0000
0001
0000
,
0001
0000
0000
0000
,
1000
0000
1000
0000
,
1000
0000
0000
0000
,
0200
0000
0300
0000
,
0000
0000
0020
0000
,
0030
0000
0000
0000
,
2002
0000
3003
0000
,
0001
0000
0000
0000
,
0001
0000
0000
0000
,
1000
0000
0000
0000
,
1000
0000
0000
0000
,
0010
0000
0000
0000
,
0010
0000
0000
0000
,
0200
0000
0000
0000
,
0300
0000
0000
0000
,
0001
0000
0001
0000
,
0001
0000
0000
0000
,
1000
0000
1000
0000
,
1000
0000
0000
0000
,
0010
0000
0010
0000
,
0010
0000
0000
0000
,
0100
0000
0100
0000
,
0100
0000
0000
0000
,
0001
0000
0001
0000
,
0001
0000
0000
0000
,
1000
0000
1000
0000
,
1000
0000
0000
0000
,
0020
0000
0030
0000
,
0000
0000
0200
0000
,
0300
0000
0000
0000
,
0000
0000
0000
0000
,
0001
0000
0001
0000
,
0001
0000
0000
0000
,
1000
0000
1000
0000
,
1000
0000
0000
0000
,
0200
0000
0300
0000
,
0000
0000
0020
0000
,
0030
0000
0000
0000
,
0220
0000
0330
0000
,
0001
0000
0000
0000
,
0001
0000
0000
0000
,
1000
0000
0000
0000
,
1000
0000
0000
0000
,
0100
0000
0000
0000
,
0100
0000
0000
0000
,
0020
0000
0000
0000
,
0030
0000
0000
0000
,
0100
0000
0000
0000
,
0100
0000
0000
0000
,
0100
0000
0000
0000
,
0100
0000
0000
0000
,
0010
0000
0000
0000
,
0010
0000
0000
0000
,
0010
0000
0000
0000
,
0010
0000
0000
0000
,
0001
0000
0001
0000
,
1000
0000
1000
0000
,
0010
0000
0010
0000
,
0100
0000
0200
0000
,
0300
0000
0000
0000
,
2002
0000
3003
0000
,
0001
0000
0001
0000
,
0001
0000
0000
0000
,
0100
0000
0100
0000
,
0100
0000
0000
0000
,
0010
0000
0010
0000
,
0010
0000
0000
0000
,
1000
0000
1000
0000
,
1000
0000
0000
0000
,
0010
0000
0010
0000
,
0020
0000
0030
0000
,
1000
0000
1000
0000
,
2000
0000
3000
0000
,
0001
0000
0001
0000
,
0002
0000
0003
0000
,
0010
0000
0010
0000
,
0020
0000
0030
0000
,
0001
0000
0001
0000
,
0002
0000
0003
0000
,
1000
0000
1000
0000
,
2000
0000
3000
0000
,
0010
0000
0010
0000
,
0020
0000
0030
0000
,
0100
0000
0100
0000
,
0200
0000
0300
0000
;

//---------------dance-single - Ace Of Hearts (2008)----------------
#NOTES:
     dance-single:
     Ace Of Hearts (2008):
     Challenge:
     11:
     0.838,0.000,0.488,0.527,0.564: // measure 1
0000
0000
0000
0000
,  // measure 2
0000
0000
0000
0000
,  // measure 3
0000
0000
0000
0000
,  // measure 4
0000
0000
0000
0000
,  // measure 5
0000
0000
0000
0000
,  // measure 6
0000
0000
0000
0000
,  // measure 7
0000
0000
0000
0000
,  // measure 8
0000
0000
0000
0000
,  // measure 9
0000
0000
0000
0000
,  // measure 10
0000
0000
0000
0000
,  // measure 11
0000
0000
0000
0000
,  // measure 12
0000
0000
0000
0000
,  // measure 13
1000
0000
0001
0010
0000
0001
0010
0000
0000
0001
0010
0000
0001
1000
0001
0000
,  // measure 14
0100
0000
0010
1000
0000
0010
1000
0000
0000
0010
1000
0000
0001
0100
0001
0000
,  // measure 15
0010
0000
0100
1000
0000
0100
1000
0000
0000
0100
1000
0000
0001
0100
0001
0000
,  // measure 16
1000
0000
0001
0100
0000
0001
0100
0000
0000
0001
0100
0000
0010
0100
0010
0000
,  // measure 17
1000
0000
0010
0100
0000
0010
0100
0000
0000
0010
0100
0000
0001
0100
0001
0000
,  // measure 18
1000
0000
0001
1000
0000
0001
1000
0000
0000
0001
1000
0000
0001
0010
0001
0000
,  // measure 19
1000
0000
0010
1000
0000
0010
1000
0000
0000
0010
1000
0000
0001
0100
0001
0000
,  // measure 20
1000
0000
0100
1000
0000
0100
1000
0000
0000
0100
1000
0000
0001
0010
0001
0000
,  // measure 21
1000
0000
0001
0010
0100
0000
0010
0000
0001
1000
0001
0000
0100
0000
0001
0000
,  // measure 22
1000
0100
0010
0000
0001
0000
2000
0000
0000
0000
0010
3000
0010
0000
0100
0000
,  // measure 23
0001
0000
1000
0010
0100
0000
0001
0000
0010
0100
1000
0000
0001
0000
0100
0000
,  // measure 24
0001
0000
2000
0000
0000
0000
3100
0000
0000
0000
0010
0000
0001
1000
0001
0100
,  // measure 25
0020
0000
0000
0130
0001
0000
1000
0000
0000
0000
0100
0000
1000
0000
0001
0000
,  // measure 26
0100
0000
0010
1000
0001
0000
0200
0000
0000
0000
0301
0000
0010
0001
1000
0000
,  // measure 27
0020
0000
0000
0000
0130
0000
0001
0000
0000
0000
1000
0000
0100
0010
0001
0000
,  // measure 28
0200
0000
0000
0301
1000
0000
0010
0000
0000
0000
0010
0000
0100
0001
0100
0010
,  // measure 29
0100
0000
0001
0000
1000
0000
0001
0000
1000
0001
0010
0000
0100
0000
1000
0000
,  // measure 30
0001
0100
0010
0000
0000
0000
1010
0000
0000
0000
1000
0000
0001
0010
0001
1000
,  // measure 31
0010
0000
1000
0100
0010
0000
0001
0000
1000
0010
0100
0000
0001
0000
1000
0000
,  // measure 32
0002
0000
0200
0000
0000
0000
1000
0000
0303
0000
0001
0000
1000
0100
0010
0100
,  // measure 33
2000
0000
0000
3010
0100
0000
0001
0000
0000
0000
0001
0000
0100
0000
0010
0000
,  // measure 34
0100
0000
0001
1000
0010
0000
0200
0000
0000
0000
0301
0000
1000
0010
0100
0000
,  // measure 35
0001
1000
0000
1001
0000
0001
0000
1000
,  // measure 36
2200
0010
0001
0010
0011
0000
0001
3300
,  // measure 37
1001
0000
0001
0100
0010
0000
0100
0000
0001
1000
0100
0000
1000
0000
0020
0000
,  // measure 38
0000
0000
0130
0001
1000
0000
0100
0000
0010
0100
1000
0000
0001
0000
0100
0000
,  // measure 39
0010
0000
0100
0001
1000
0000
0010
0000
1000
0000
0001
0010
0100
0000
2000
0000
,  // measure 40
0000
0000
3001
0100
0010
0000
0100
0000
0001
0010
0100
0000
1000
0000
0001
0000
,  // measure 41
0100
0000
0010
0100
0001
0000
1000
0000
0100
0010
0001
0000
1000
0000
0020
0000
,  // measure 42
0000
0000
0130
0010
1000
0000
0001
0000
0010
0100
1000
0000
0001
0000
0100
0000
,  // measure 43
0110
0000
0010
1000
1100
0000
0100
0120
,  // measure 44
0000
0031
1000
0000
1020
0000
0130
0000
,  // measure 45
0101
0M0M
0101
0M0M
0120
1M30
0120
1M30
,  // measure 46
0000
1100
0MM0
MM11
0MM0
0110
2002
3003
,  // measure 47
1010
M0M0
1010
M0M0
0210
03M1
0210
03M1
,  // measure 48
0000
0000
2000
0000
3100
0000
1000
0000
0001
0000
0100
0000
0010
0100
0001
0000
,  // measure 49
0011
00MM
0011
00MM
0120
0M31
0120
0M31
,  // measure 50
0000
0101
0MM0
1M1M
0MM0
1001
0220
0330
,  // measure 51
1100
MM00
1100
MM00
0210
13M0
0210
13M0
,  // measure 52
0000
0002
0103
00M0
0M0M
M0M0
0M00
0001
,  // measure 53
0011
0000
0010
0100
1000
0000
0001
0000
0100
0010
1000
0000
0001
0000
0010
0000
,  // measure 54
0001
1000
0100
0000
0000
0000
0110
0000
0000
0000
0000
0000
0000
0000
0100
0000
,  // measure 55
1000
0001
0100
0000
0010
0000
0100
0000
0001
0000
1000
0100
0010
0000
0001
0000
,  // measure 56
1000
0000
0002
0000
0003
0000
0101
0000
0000
0000
0100
0000
0010
0100
0001
1000
,  // measure 57
0200
0000
0000
0310
0001
0000
1000
0000
0000
0000
0001
0000
0100
0000
0010
0000
,  // measure 58
0100
0000
0001
0000
1000
0100
0020
0000
0000
0000
0130
0000
1000
0001
0100
0000
,  // measure 59
0020
0000
0032
2000
0003
3100
0000
0101
,  // measure 60
0000
0000
0001
1000
0010
0000
1000
0000
0100
0010
0001
0000
1000
0000
0010
0000
,  // measure 61
0100
0001
1000
0000
0100
0000
0010
0100
1000
0000
0001
0000
0100
0010
0100
0000
,  // measure 62
0002
0013
0000
0110
0000
0100
1000
0001
,  // measure 63
0100
0000
0010
0100
0001
0000
1000
0000
0100
0010
0001
0000
1000
0000
0010
0000
,  // measure 64
2000
0000
0200
0000
0000
0000
0001
0000
3300
0000
1001
0000
1000
0010
0100
0001
,  // measure 65
2000
0000
0000
3100
0010
0000
0001
0000
0000
0000
0100
0000
0010
0000
0100
0000
,  // measure 66
0001
0000
0010
0100
1000
0000
0002
0000
0000
0000
0103
0000
0010
0100
0001
0000
,  // measure 67
2000
0010
0000
0100
0000
0001
3000
0010
,  // measure 68
2002
0000
0010
0000
0010
0000
0010
3003
,  // measure 69
0101
0000
0100
0010
1000
0000
0001
0000
0100
0001
1000
0000
0100
0000
2000
0000
,  // measure 70
0000
0000
3010
0100
0001
0000
0100
0000
0010
1000
0001
0000
0010
0000
0100
0000
,  // measure 71
1000
0000
0001
0100
0010
0000
0100
0000
0001
1000
0100
0000
0010
0000
0002
0000
,  // measure 72
0000
0000
1003
0010
0100
0000
0010
0000
1000
0001
0010
0000
0200
0000
1300
0000
,  // measure 73
0001
0000
0100
0010
1000
0000
0001
0000
0010
0001
1000
0000
0010
0000
0200
0000
,  // measure 74
0000
0000
0301
0100
0010
0000
1000
0000
0001
0010
0100
0000
0010
0000
0001
0000
,  // measure 75
0101
0000
0100
0010
1010
0000
1000
1002
,  // measure 76
0000
0103
0010
0000
2010
0000
3100
0000
,  // measure 77
1000
0000
0100
0001
0000
0100
1000
0000
0000
0001
0100
0000
0010
0100
0010
0000
,  // measure 78
0100
0000
0001
0100
0000
1000
0100
0000
0000
0001
0100
0000
0010
0100
0010
0000
,  // measure 79
1000
0000
0010
0001
0000
0010
1000
0000
0000
0001
0100
0000
0001
1000
0001
0000
,  // measure 80
1000
0000
0100
0001
0000
0100
1000
0000
0000
0001
0100
0000
0010
1000
0010
0000
,  // measure 81
1000
0000
0001
0100
0000
0100
0010
0000
0000
0010
1000
0000
0001
0010
0100
0000
,  // measure 82
1000
0000
0001
0100
0000
0100
0010
0000
0000
0010
1000
0000
0010
0100
0001
0000
,  // measure 83
0100
0000
0010
1000
0000
1000
0001
0000
0000
0001
0010
0000
0010
0100
1000
0000
,  // measure 84
0001
0000
1000
0010
0000
0010
0100
0000
0000
0100
0001
0000
1000
0100
0010
0000
,  // measure 85
0021
0000
0130
1000
0001
0000
0100
0020
0000
0130
0001
1000
0002
0000
0020
0033
,  // measure 86
0110
0000
0100
1000
0010
0000
0100
0002
0000
1003
0100
0010
0200
0000
2300
3001
,  // measure 87
0201
0000
0310
1000
0100
0000
0010
0002
0000
0013
0100
1000
1020
0000
0230
0300
,  // measure 88
0102
0000
1003
0010
2010
0000
3001
0021
0000
0130
1000
0000
0002
0000
0103
0010
,  // measure 89
1000
0000
0000
0001
0000
0000
0100
0000
0000
0010
0000
0000
0100
0000
0000
0001
0000
0000
1000
0000
0000
0100
0000
0000
0010
0000
0000
0100
0000
0000
1000
0000
0000
0001
0000
0000
0100
0000
0000
0010
0000
0000
0100
0000
0001
0000
0100
0000
,  // measure 90
0001
1000
0100
1000
0001
0100
0010
0100
0001
0010
0100
1000
0001
0100
0010
0100
,  // measure 91
0101
0M0M
0101
0M0M
2100
3M01
0102
1M03
,  // measure 92
0000
1100
0MM0
MM11
0MM0
0101
0220
0330
,  // measure 93
1010
M0M0
1010
M0M0
0012
10M3
2010
30M1
,  // measure 94
0000
0000
0020
0000
0130
0000
1000
0000
0001
0000
0100
0000
0010
1000
0001
0000
,  // measure 95
1001
M00M
1001
0000
0201
031M
0210
03M1
,  // measure 96
0000
0011
0M0M
11MM
0M0M
0101
2020
3030
,  // measure 97
0110
0MM0
0110
0000
2001
301M
2010
30M1
,  // measure 98
0000
0200
0020
0000
1001
0330
0010
0000
,  // measure 99
1001
0000
1000
0010
0100
0000
0010
0000
1000
0100
0010
0000
0001
0000
2000
0000
,  // measure 100
0000
0000
3100
0010
0001
0000
1000
0000
0001
0100
0010
0000
0100
0000
0001
0000
,  // measure 101
0010
0000
0100
1000
0001
0000
0100
0000
0010
0100
0001
0000
1000
0000
0200
0000
,  // measure 102
0000
0000
0310
0100
1000
0000
0001
0000
0100
0010
1000
0000
0001
0000
1000
0000
,  // measure 103
0010
0000
0100
0010
1000
0000
0001
0000
0100
0001
1000
0000
0100
0000
0020
0000
,  // measure 104
0000
0000
0130
1000
0001
0000
0100
0000
0010
0100
0001
0000
1000
0000
0100
0000
,  // measure 105
0110
0000
0010
0100
1000
0000
0001
0000
0101
0000
0100
0010
1000
0000
2100
0000
,  // measure 106
0000
0000
3001
0100
0010
0000
0000
0000
0010
1000
0001
0000
0101
0000
0000
0000
,  // measure 107
1010
0000
1000
0001
0100
0000
0010
0000
0100
0001
1000
0000
0100
0000
0020
0000
,  // measure 108
0000
0000
0130
1000
0001
0000
0100
0000
0010
0100
0001
0000
1000
0000
0100
0000
,  // measure 109
1000
0000
0010
0100
0001
0000
1000
0000
0100
0000
0010
0100
1000
0000
0002
0000
,  // measure 110
0000
0000
1003
0010
0100
0000
0001
0000
0010
0100
1000
0000
0100
0000
1000
0000
,  // measure 111
0001
0000
0010
0100
1000
0000
0001
0000
1000
0100
0010
0000
0001
0000
0200
0000
,  // measure 112
0000
0000
0310
0100
0001
0000
1000
0000
0010
0100
0001
0000
1000
0000
0100
0000
,  // measure 113
0110
0000
0010
0100
1000
0000
0001
0201
,  // measure 114
0000
0310
1000
0000
0002
0000
0203
0300
,  // measure 115
0220
0000
0000
0000
,  // measure 116
0000
0000
0330
0000
;
