#TITLE:Always;
#SUBTITLE:;
#ARTIST:Shin Ji;
#TITLETRANSLIT:;
#SUBTITLETRANSLIT:;
#ARTISTTRANSLIT:;
#GENRE:;
#CREDIT:Ace Of Hearts;
#BANNER:Always - bn.png;
#BACKGROUND:Always - bg.jpg;
#LYRICSPATH:Always Lyrics.lrc;
#CDTITLE:Ace Of Hearts.png;
#MUSIC:Always.ogg;
#OFFSET:-1.060;
#SAMPLESTART:26.700;
#SAMPLELENGTH:16.000;
#SELECTABLE:YES;
#BPMS:0.000=135.000;
#STOPS:;
#BGCHANGES:-2.500=Always Music Video.avi=1.000=0=0=1=====,
99999=-nosongbg-=1.000=0=0=0 // don't automatically add -songbackground-
;
#KEYSOUNDS:;

//---------------dance-single - Ace Of Hearts (2009)----------------
#NOTES:
     dance-single:
     Ace Of Hearts (2009):
     Hard:
     8:
     0.431,0.000,0.187,0.835,0.022:
0000
0000
0000
0000
,
0000
0000
0000
0000
,
0000
0000
0000
0000
,
0000
0000
0000
0000
,
0000
0000
0000
0000
,
0000
0000
0000
0000
,
0000
0000
0000
0000
,
0000
0000
0000
0000
,
0000
0000
0000
0000
2000
3000
0100
2000
,
0000
3000
0000
0000
0020
0030
0100
0002
,
0000
0003
1000
0001
0020
0030
0100
2000
,
3000
0001
0100
0001
2000
0000
3200
0000
,
2300
0000
3002
0003
0002
0000
0000
0000
,
0003
0000
0202
0000
,
0000
0000
0303
0000
0120
0000
0000
1030
,
0002
0013
0100
1000
0002
0000
0000
0103
,
0010
0000
1000
0100
0020
0000
0230
0300
,
1100
0000
1000
0001
0020
0000
0230
0000
,
2300
0010
3010
0000
0210
0000
0000
0302
,
1003
0100
0010
0001
0200
0000
0000
0301
,
0010
0000
0100
1000
0002
0000
0203
0000
,
0310
0000
0100
0001
2000
0000
3020
0000
,
0230
0302
2000
0000
,
0000
0000
0000
0000
,
0000
3003
0000
0000
,
0000
0000
0000
0000
,
0000
0000
1010
0000
0101
0000
0001
1000
,
0020
0000
0130
0001
2000
0000
3010
0400
,
0000
0300
0000
0000
0001
0000
1000
0000
0200
0000
0000
0000
0320
0000
0000
0000
,
0230
0000
2300
0000
3002
0000
0000
0103
,
0040
0000
0000
0030
0000
0000
1000
0000
0001
0000
0000
0000
0010
0000
0200
0000
,
2300
0000
3000
0001
0200
0000
0302
0000
,
2003
0000
3000
0001
0020
0000
0030
0001
,
2000
0000
0000
3010
0000
0000
0100
0000
0002
0000
0000
0000
0003
0000
2000
0000
,
0200
0000
0001
0000
0010
3300
1000
0001
,
0020
0000
0130
1000
0002
0000
1003
0200
,
0000
0300
1000
0001
0020
0000
0032
0000
,
2003
0000
3200
0000
0320
0000
0000
0130
,
2000
0000
3000
0001
0200
0000
0310
0100
,
0002
0000
0003
1000
0200
0000
0320
0000
,
0031
0000
1000
0001
0020
0000
0230
0000
,
2300
0000
3002
0020
0000
0000
0000
0000
,
0000
0000
0000
0000
,
0000
0000
0033
0000
2100
0000
0000
3001
,
0200
0310
0100
0001
2000
0000
0000
3001
,
0100
0000
0010
0100
0002
0000
2003
0000
,
3100
0000
1000
0001
0200
0000
0320
0000
,
2030
0001
3001
0000
0021
0000
0000
0230
,
1300
0001
0100
0010
2000
0000
0000
3001
,
0010
0000
0100
0010
0002
0000
0203
0000
,
0310
0000
0100
0001
2000
0000
3020
0000
,
2030
3200
0020
0000
,
0000
0000
0000
0000
,
0000
0330
0000
0000
,
0000
0000
0000
0000
,
0000
0000
0011
0000
1100
0000
1000
0001
,
0020
0000
0130
1000
0002
0000
0013
0400
,
0000
0300
0000
0000
1000
0000
0100
0000
0020
0000
0000
0000
0230
0000
0000
0000
,
2300
0000
3002
0000
0023
0000
0000
0031
,
4000
0000
0000
3000
0000
0000
0001
0000
2000
0000
0000
0000
3010
0000
0100
0000
,
0002
0000
0003
0100
0020
0000
0230
0000
,
0302
0000
0003
1000
0020
0000
1030
0001
,
0200
0000
0000
0320
0000
0000
1030
0000
0002
0000
0000
0000
0203
0000
0002
0000
,
0000
0000
1000
0000
0010
0303
0001
1000
,
0020
0000
1030
0001
0200
0000
0301
0020
,
0000
0030
0100
1000
0020
0000
0230
0000
,
0302
0000
2003
0000
3020
0000
0030
0100
,
0002
0000
0003
1000
0200
0000
0320
0000
,
0230
0000
0300
1000
0002
0000
2003
0000
,
3010
0000
0100
0001
0020
0000
0032
0000
,
0203
0000
0320
2000
0000
0000
0000
0000
,
0000
0000
0000
0000
,
0000
0000
3030
0000
0102
0000
0000
0013
,
0200
1300
0001
0100
0020
0000
0000
1030
,
0100
0000
1000
0001
0200
0000
0320
0000
,
1030
0000
0100
0010
0002
0000
2003
0000
,
3200
0010
0310
0000
0012
0000
0000
2003
,
3010
0100
0001
1000
0002
0000
0000
1003
,
0010
0000
0100
0001
2000
0000
3200
0000
,
0310
0000
0100
1000
0020
0000
0230
0000
,
0302
2003
0200
0000
,
0000
0000
0000
0000
,
0000
3300
0000
0000
,
0000
0000
0000
0000
,
0000
0000
0000
0020
,
0031
0000
1000
0040
0000
0000
0000
0000
,
0000
0030
0000
0000
0000
0000
2000
3100
,
0020
0000
0130
2000
0000
3001
0400
0000
,
0000
0000
0300
0000
0000
0000
0001
1000
,
0020
2030
0000
3100
0000
0000
1000
0100
,
0010
0100
4000
0000
3000
0000
0001
0100
,
0002
0000
1003
0020
0000
0130
0004
0000
,
0000
0003
1000
0100
0020
0000
0130
0010
,
0001
1000
0100
0010
0100
1000
0200
0000
,
0300
0000
0000
0000
1000
0000
0001
0000
0020
0000
0000
0032
0000
0000
1003
0000
,
0400
0000
0300
2000
0000
3010
0100
0004
,
0000
0003
1000
0100
0020
0000
0130
0010
,
0002
0000
1003
0010
0100
0001
0020
0000
,
0000
0000
0000
0000
0030
0000
0000
0000
0210
0000
0000
2300
0000
0000
3002
0000
,
0403
0000
0000
0000
0300
0000
0001
0000
0020
0000
0000
0230
0000
0000
1300
0000
,
0020
0000
0000
2030
0000
0000
0200
0000
0010
0000
0000
0001
0000
0000
0011
0000
,
0000
0000
3300
0000
1010
1010
0000
0000
,
1001
1001
0000
0000
0011
0011
0000
0000
,
1100
1100
0000
0000
1001
1001
0000
0000
,
0101
0101
0000
0000
1020
0000
0001
0000
,
1030
0000
0000
0000
1100
1100
0000
0000
,
0110
0110
0000
0000
0011
0011
0000
0000
,
1001
1001
0000
0000
1200
0000
0010
0000
,
1000
0310
0021
0100
,
0001
0000
0130
0000
2100
0000
0000
3001
,
0200
0010
0001
0010
0302
0000
0000
1003
,
0100
0000
0010
0001
0200
0000
0320
0000
,
1030
0000
0001
0010
0200
0000
2300
0000
,
3002
0010
0013
0000
0210
0000
0300
1000
,
0020
0100
1000
0100
2030
0000
0000
3001
,
0010
0000
0100
1000
0020
0000
0230
0000
,
0301
0000
1000
0001
0200
0000
0320
0000
,
1030
0001
0002
0000
,
0000
0000
0000
0000
,
0003
0000
0000
0000
0000
0000
0000
0000
0002
0000
0000
0023
0000
0000
0130
0000
,
2000
0000
0000
3020
0000
0000
0130
0000
0101
0000
0000
0000
0000
0000
1010
0000
,
0000
0000
0000
0000
1000
0001
1000
0000
0220
0000
0000
0000
0000
0000
0000
0000
,
0330
0000
0000
0000
;

//---------------dance-single - Ace Of Hearts (2009)----------------
#NOTES:
     dance-single:
     Ace Of Hearts (2009):
     Medium:
     6:
     0.316,0.000,0.049,0.435,0.004:
0000
0000
0000
0000
,
0000
0000
0000
0000
,
0000
0000
0000
0000
,
0000
0000
0000
0000
,
0000
0000
0000
0000
,
0000
0000
0000
0000
,
0000
0000
0000
0000
,
0000
0000
0000
0000
,
0000
0000
0000
0000
0002
0003
1000
0200
,
0000
0000
0300
0000
2000
3000
0001
0020
,
0000
0000
0030
0000
0002
0003
1000
0020
,
0000
0030
1000
0001
2000
0000
3000
0000
,
0010
0100
0002
0000
,
0003
0000
2000
0000
,
0000
0000
3000
0000
0020
0000
0000
0130
,
0001
0000
1000
0000
0020
0000
0000
0130
,
0001
1000
0002
0203
,
0310
0000
1000
0001
2000
0000
3020
0000
,
0230
0000
0300
0000
0002
0000
0000
1003
,
0010
0000
0100
0000
0002
0000
0000
1003
,
0100
0000
1000
0010
1000
0000
0002
0000
,
0013
0000
0001
1000
0001
0000
0010
0000
,
0001
1000
2000
0000
,
0000
0000
0000
0000
,
0000
3000
0000
0000
,
0000
0000
0000
0000
,
0000
0000
0000
0000
0000
0000
0001
0010
,
0001
0000
1000
0001
2000
0000
3010
0010
,
0000
0000
0100
0001
0100
0000
0010
0000
,
1000
0000
0001
0000
2000
0000
0000
3100
,
0100
0000
0000
0000
0010
0000
0001
0010
,
0001
0000
0000
1000
0001
0000
2000
0000
,
3100
0000
0000
1000
0010
0000
0000
1000
,
0001
0000
1000
0000
0020
0000
0000
0130
,
0100
0000
0110
0000
1001
0000
1000
0001
,
1000
0000
0001
0100
0002
0000
1003
1000
,
0000
0000
0010
1000
0010
0000
1000
0000
,
0001
0000
0100
0000
0020
0000
0000
0130
,
0100
0000
0000
0001
1000
0000
0100
1000
,
0100
0000
0000
1000
0001
0000
0200
0000
,
0310
0000
1000
0001
0020
0000
0032
0000
,
2003
0000
3001
0020
0000
0000
0000
0000
,
0000
0000
0000
0000
,
0000
0000
0030
0000
0002
0000
0000
1003
,
0010
0000
1000
0000
0002
0000
0000
1003
,
0100
0000
1000
0001
1000
0000
0200
0000
,
0310
0000
0001
1000
0001
0000
0020
0000
,
0230
0000
0300
0000
2000
0000
0000
3001
,
0100
0000
0010
0000
2000
0000
0000
3001
,
0010
0000
0001
1000
0001
0000
2000
0000
,
3010
0000
1000
0001
1000
0000
0010
0000
,
2000
3001
0002
0000
,
0000
0000
0000
0000
,
0000
0003
0000
0000
,
0000
0000
0000
0000
,
0000
0000
0000
0000
0000
0000
1000
0010
,
1000
0000
0001
0100
0002
0000
1003
1000
,
0000
0000
0001
0100
0001
0000
1000
0000
,
0100
0000
0010
0000
0002
0000
0000
0103
,
0100
0000
0000
0001
1000
0000
0002
0000
,
0103
0000
0000
0001
1000
0000
0020
0000
,
0130
0000
0000
0001
1000
0000
0000
0100
,
2000
0000
3000
0000
0001
0000
1000
0100
,
0000
0000
0110
0000
1001
0000
0001
0100
,
0002
0000
1003
0010
2000
0000
3001
0100
,
0000
0000
0001
0100
0001
0000
1000
0000
,
0010
0000
0100
0000
0002
0000
0000
1003
,
0100
0000
1000
0010
,
1000
0000
0000
0001
1000
0000
0002
0000
,
0013
0000
0100
1000
0100
0000
1000
0000
,
0001
0000
1000
0020
0000
0000
0000
0000
,
0000
0000
0000
0000
,
0000
0000
0030
0000
2000
0000
0000
3001
,
0100
0000
0010
0000
2000
0000
0000
3001
,
0010
0000
0001
0010
0001
0000
2000
0000
,
3010
0000
0100
0001
0100
0000
0002
0000
,
1003
0000
0000
0000
0020
0000
0000
0130
,
0001
0000
1000
0000
0002
0000
0000
1003
,
0010
0100
0002
2003
,
3100
0000
1000
0001
1000
0000
0020
0000
,
1030
0100
0200
0000
,
0000
0000
0000
0000
,
0000
0300
0000
0000
,
0000
0000
0000
0000
,
0000
0000
0000
0010
,
0010
0000
0000
0200
0000
0000
0000
0000
,
0000
0300
0000
0000
0000
0000
1000
0000
,
1000
0000
0000
0001
0000
0000
0002
0000
,
0000
0003
0000
0010
,
0020
0000
0000
0130
0000
0000
1000
0001
,
1000
0000
1000
0000
0000
0000
0001
0100
,
0001
0000
0000
2000
0000
0000
3200
0000
,
0300
0000
1000
0001
1000
0000
0001
0010
,
0001
0000
1000
0001
1000
0000
2000
0000
,
3000
0000
0001
0100
0001
0000
1000
0010
,
1000
0000
0000
0001
0000
1000
0200
0000
,
0300
0000
1000
0001
1000
0000
0010
1000
,
0010
0000
1000
0000
0001
0100
0020
0000
,
0000
0000
0030
0000
2000
0000
0000
3001
,
0100
0000
0000
0001
2000
0000
3000
0001
,
0100
0000
0000
0000
0001
0000
0000
0000
1001
0000
0000
1001
0000
0000
1001
0000
,
0000
0000
0000
0000
1000
1000
0000
0000
,
0010
0010
0000
0000
0100
0100
0000
0000
,
0001
0001
0000
0000
0010
0010
0000
0000
,
0100
0100
0000
0000
2000
0000
3002
0000
,
2003
0000
3000
0000
0010
0010
0000
0000
,
1000
1000
0000
0000
0001
0001
0000
0000
,
0010
0010
0000
0000
0002
0000
2003
0000
,
3001
1000
0002
2003
,
0020
0000
3030
0000
2000
0000
0000
3001
,
0100
0001
0100
0000
0020
0000
0000
0130
,
0001
0000
1000
0010
2000
0000
3002
0000
,
0013
0001
2000
3020
,
0230
0000
0300
0000
0002
0000
0000
1003
,
0100
1000
0100
0000
0020
0000
0000
0130
,
1000
0000
0001
0010
0002
0000
2003
0000
,
3010
0000
1000
0010
2000
0000
3002
0000
,
0203
0310
2000
0000
,
0000
0000
0000
0000
,
0000
0000
0000
0000
3000
0000
0000
0000
0002
0000
0000
1003
0000
0000
0001
0000
,
0200
0000
0300
0000
0110
0000
0000
1001
,
0000
0110
2002
0000
,
3003
0000
0000
0000
;

//---------------dance-single - Ace Of Hearts (2009)----------------
#NOTES:
     dance-single:
     Ace Of Hearts (2009):
     Easy:
     3:
     0.184,0.000,0.009,0.249,0.002:
0000
0000
0000
0000
,
0000
0000
0000
0000
,
0000
0000
0000
0000
,
0000
0000
0000
0000
,
0000
0000
0000
0000
,
0000
0000
0000
0000
,
0000
0000
0000
0000
,
0000
0000
0000
0000
,
0000
0000
0000
0000
0002
0000
0000
0003
,
0000
0000
0000
0000
2000
0000
0000
3000
,
0000
0000
0000
0000
0020
0000
0000
0030
,
0000
0000
1000
1000
,
1000
0000
0002
0000
,
0003
0000
0200
0000
,
0000
0300
0002
0000
,
0013
0010
0020
0000
,
0031
0000
1000
1000
,
1000
0000
0010
0010
,
0010
0000
2000
0000
,
3010
0010
0020
0000
,
1030
0000
0001
0001
,
0001
0000
1000
1000
,
1000
0000
2000
0000
,
0000
0000
0000
0000
,
0000
3000
0000
0000
,
0000
0000
0000
0000
,
0000
0000
0000
0001
,
0001
0000
0000
0000
0002
0000
0000
0003
,
0000
0000
1000
1000
,
1000
0000
2000
0000
,
3000
0000
0010
0010
,
0010
0000
0100
0100
,
0100
0000
0001
0000
,
0001
0000
0002
0000
,
0003
0010
0010
0000
,
0001
0000
0001
0000
0002
0000
0000
0003
,
0000
1000
1000
0000
,
0100
0100
0200
0000
,
0300
0000
1000
1000
,
1000
0000
0001
0001
,
0001
0000
0010
0010
,
0010
0000
0000
0020
0000
0000
0000
0000
,
0000
0000
0000
0000
,
0000
0030
0002
0000
,
1003
1000
2000
0000
,
3100
0100
0200
0000
,
0310
0000
0001
0001
,
0001
0000
2000
0000
,
3100
0100
0200
0000
,
1300
0000
0001
0001
,
0001
0000
0100
0100
,
0100
0000
0200
0000
,
0000
0000
0000
0000
,
0000
0300
0000
0000
,
0000
0000
0000
0000
,
0000
0000
0000
0001
,
0001
0000
0000
0000
0002
0000
0000
0003
,
0000
0000
1000
1000
,
1000
0000
2000
0000
,
3000
0000
0010
0010
,
0010
0000
0100
0100
,
0100
0000
0001
0000
,
0001
0001
0002
0000
,
0003
0100
0100
0000
,
0010
0000
0000
0000
0020
0000
0000
0030
,
0000
0000
1000
1000
,
1000
0000
2000
0000
,
3000
0000
0100
0100
,
0100
0000
0010
0010
,
0010
0000
0001
0001
,
0001
0000
0000
0002
0000
0000
0000
0000
,
0000
0000
0000
0000
,
0000
0003
2000
0000
,
3010
0010
0020
0000
,
0130
0100
0200
0000
,
0301
0001
0002
0000
,
0003
0000
0200
0000
,
0310
0010
0020
0000
,
1030
1000
2000
0000
,
3001
0001
0001
0000
,
0100
0000
0200
0000
,
0000
0000
0000
0000
,
0000
0300
0000
0000
,
0000
0000
0000
0000
,
0000
0000
0000
0000
,
0001
0000
0002
0000
,
0003
0000
0000
0000
,
0100
0000
0200
0000
,
0300
0000
0000
0000
,
0020
0000
0030
0010
0000
0000
0000
0000
,
1000
0000
0000
0000
,
0001
0000
0002
0000
,
0003
0000
1000
0000
,
1000
1000
2000
3000
,
0000
0000
0001
0001
,
0001
0000
0002
0003
,
0000
0000
0010
0000
,
0010
0010
0020
0030
,
0000
0000
0001
0001
,
0001
0000
1000
1000
,
1000
0000
0000
0000
0000
0000
0000
0000
0010
0000
0000
0010
0000
0000
0010
0000
,
0000
0000
0000
0000
1000
1000
0000
0000
,
0001
0001
0000
0000
0010
0010
0000
0000
,
0001
0001
0000
0000
1000
1000
0000
0000
,
0001
0001
0000
0000
2002
0000
0000
0000
,
3003
0000
0000
0000
1000
1000
0000
0000
,
0010
0010
0000
0000
1000
1000
0000
0000
,
0001
0001
0000
0000
2000
0000
0000
0000
,
3002
0000
0023
0000
,
0032
0000
0003
0000
2000
0000
0000
3001
,
0001
0000
0000
0000
0002
0000
0000
1003
,
1000
0000
0100
0100
,
0100
0000
0010
0010
,
0010
0000
0000
0000
0002
0000
0000
1003
,
1000
0000
0000
0000
2000
0000
0000
3001
,
0001
0000
0100
0100
,
0100
0000
0010
0010
,
0010
0010
0020
0000
,
0000
0000
0000
0000
,
0000
0030
2000
0000
,
3001
0000
0000
0000
0020
0000
0000
0030
,
0000
1001
0000
0000
;

//---------------dance-single - Ace Of Hearts (2009)----------------
#NOTES:
     dance-single:
     Ace Of Hearts (2009):
     Beginner:
     2:
     0.129,0.000,0.067,0.209,0.000:
0000
0000
0000
0000
,
0000
0000
0000
0000
,
0000
0000
0000
0000
,
0000
0000
0000
0000
,
0000
0000
0000
0000
,
0000
0000
0000
0000
,
0000
0000
0000
0000
,
0000
0000
0000
0000
,
0000
0000
0001
0000
,
0000
0000
0001
0000
,
0000
0000
0001
0000
,
0000
0000
1000
0000
,
0000
0000
2000
0000
,
3000
0000
0002
0000
,
0000
0003
0020
0000
,
0030
0000
0002
0000
,
0003
0000
1000
0000
,
1000
0000
0001
0000
,
0001
0000
0200
0000
,
0300
0000
0020
0000
,
0030
0000
1000
0000
,
1000
0000
0001
0000
,
0001
0000
0002
0000
,
0000
0000
0000
0000
,
0000
0000
0003
0000
,
0000
0000
0000
0000
,
0000
0000
0000
0000
,
1000
0000
0000
0000
2000
0000
0000
3000
,
0000
0000
0001
0000
,
0001
0000
0002
0000
,
0003
0000
0100
0000
,
0000
0000
0100
0000
,
0000
0000
0001
0000
,
0001
0000
0002
0000
,
0003
0000
1001
0000
,
0000
0000
1000
0000
,
0000
0000
0010
0000
,
0010
0000
0020
0000
,
0030
0000
1000
0000
,
1000
0000
0001
0000
,
0001
0000
0010
0000
,
0010
0000
0020
0000
,
0000
0000
0000
0000
,
0000
0030
0002
0000
,
0003
0000
2000
0000
,
3000
0000
0010
0000
,
0010
0000
1000
0000
,
1000
0000
0002
0000
,
0003
0000
0200
0000
,
0300
0000
0001
0000
,
0001
0000
1000
0000
,
1000
0000
2000
0000
,
0000
0000
0000
0000
,
0000
0000
3000
0000
,
0000
0000
0000
0000
,
0000
0000
0000
0000
,
0001
0000
0000
0000
0002
0000
0000
0003
,
0000
0000
0100
0000
,
0100
0000
0200
0000
,
0300
0000
0010
0000
,
0000
0000
1000
0000
,
0000
0000
0100
0000
,
0100
0000
0200
0000
,
0300
0000
0110
0000
,
0000
0000
0010
0000
,
0000
0000
0001
0000
,
0001
0000
0002
0000
,
0003
0000
1000
0000
,
1000
0000
0010
0000
,
0010
0000
0100
0000
,
0100
0000
0200
0000
,
0000
0000
0000
0000
,
0000
0300
0020
0000
,
0030
0000
2000
0000
,
3000
0000
0001
0000
,
0001
0000
1000
0000
,
1000
0000
0020
0000
,
0030
0000
0200
0000
,
0300
0000
0001
0000
,
0001
0000
1000
0000
,
1000
0000
2000
0000
,
0000
0000
0000
0000
,
0000
3000
0000
0000
,
0000
0000
0000
0000
,
0000
0000
0000
0000
,
0002
0000
0003
0000
,
0000
0000
0000
0000
,
0200
0000
0300
0000
,
0000
0000
0000
0000
,
0020
0000
0000
0030
0000
0000
0000
0000
,
0010
0000
0000
0000
,
1000
0000
0000
0000
2000
0000
0000
3000
,
0000
0000
0001
0000
,
0001
0000
0002
0003
,
0000
0000
0100
0000
,
0100
0000
0100
0000
,
0000
0000
0010
0000
,
0010
0000
0020
0030
,
0000
0000
2000
0000
,
3000
0000
0002
0000
,
0003
0000
0000
0000
2002
0000
0000
3003
,
0000
0000
1001
0000
,
1001
0000
0110
0000
,
0110
0000
1001
0000
,
1001
0000
2002
0000
,
3003
0000
0011
0000
,
0011
0000
1100
0000
,
1100
0000
2000
0000
,
3000
0000
0001
0000
,
0001
0000
2000
0000
,
3001
0000
0002
0000
,
1003
0000
0010
0000
,
0010
0000
0100
0000
,
0100
0000
0002
0000
,
1003
0000
2000
0000
,
3001
0000
0100
0000
,
0100
0000
0010
0000
,
0010
0000
0020
0000
,
0000
0000
0000
0000
,
0030
0000
2000
0000
,
3000
0000
0000
0000
0002
0000
0000
0003
,
0000
1001
0000
0000
;

//---------------dance-single - Ace Of Hearts (2009)----------------
#NOTES:
     dance-single:
     Ace Of Hearts (2009):
     Challenge:
     10:
     0.614,0.000,0.671,0.999,0.064: // measure 1
0000
0000
0000
0000
,  // measure 2
0000
0000
0000
0000
,  // measure 3
0000
0000
0000
0000
,  // measure 4
0000
0000
0000
0000
,  // measure 5
0000
0000
0000
0000
,  // measure 6
0000
0000
0000
0000
,  // measure 7
0000
0000
0000
0000
,  // measure 8
0000
0000
0000
0000
,  // measure 9
0000
0000
0000
0000
0012
0000
1003
1020
,  // measure 10
0000
0230
0300
0000
0102
0000
1003
2100
,  // measure 11
0000
0000
3100
0010
0012
0000
1003
0020
,  // measure 12
0000
0000
1030
0000
0100
0000
0010
0000
0012
0000
0000
0000
2003
0000
0000
3000
,  // measure 13
1020
0000
0000
0000
0230
0000
0000
0300
0202
0000
0000
0000
0303
0000
0000
0000
,  // measure 14
0200
0300
2002
0000
,  // measure 15
0000
0000
0000
3003
0110
0000
0000
0000
1020
0000
0000
0000
0130
0000
0001
0000
,  // measure 16
2001
3100
0010
0001
0201
0000
0310
1000
,  // measure 17
0100
0000
0010
0001
0201
0000
0320
0000
,  // measure 18
1030
0000
0100
0010
0012
0000
2003
0000
,  // measure 19
0200
0001
0001
3300
0012
0000
1003
0010
,  // measure 20
0110
0100
0001
0010
0210
0000
1300
0001
,  // measure 21
0010
0000
0100
1000
1002
0000
0203
0000
,  // measure 22
0310
0000
1000
0001
0021
0000
0230
0000
,  // measure 23
1300
0010
0220
0000
,  // measure 24
0000
0000
0000
0000
,  // measure 25
0000
0000
0000
0000
0330
0000
0000
0000
0100
0000
0000
0000
0101
0000
0100
0001
,  // measure 26
2000
3000
1100
0000
0100
0000
0010
0000
0012
0000
1003
0000
0010
0000
0210
0000
,  // measure 27
0002
0303
2002
0000
0010
3003
1000
0100
,  // measure 28
0020
0000
0130
1000
1002
0010
0103
4000
,  // measure 29
0000
3000
0000
0000
0010
0000
0100
0000
0102
0000
0000
0000
0023
0000
0030
0000
,  // measure 30
0200
0000
0000
0000
2300
0000
0000
3000
1020
0000
0000
0000
0130
0000
0001
0000
,  // measure 31
0010
0001
0010
0000
0200
0000
1300
0000
1020
0000
0000
0000
0230
0000
0301
0000
,  // measure 32
4000
0000
0000
0000
3000
0000
0001
0000
0021
0000
0000
0000
0230
0000
0000
0300
,  // measure 33
2400
0000
3300
1000
0020
0000
1030
0001
,  // measure 34
0021
0000
0000
0230
0000
0000
1300
0000
1002
0000
0000
0000
0000
0000
2003
0000
,  // measure 35
0002
0000
0100
0000
0110
3003
1000
0010
,  // measure 36
0210
0000
0301
1000
1200
0010
0301
0004
,  // measure 37
0000
0003
0000
0000
1001
0000
1000
0000
1020
0000
0000
0000
0200
0000
0330
0000
,  // measure 38
0202
0000
0300
0000
2003
0000
0000
3000
2200
0000
3000
0000
0310
0000
0100
0000
,  // measure 39
1000
0010
1000
0000
0002
0000
0103
0000
0120
0000
0000
0000
1030
0000
0001
0000
,  // measure 40
0020
0000
0130
1000
1002
0000
0203
0000
,  // measure 41
0310
0000
0000
0000
1000
0000
0100
0000
0120
0000
0000
0000
0031
1000
0002
0000
,  // measure 42
0203
0000
0000
0000
0000
0000
0000
0000
0000
0000
0000
0000
0301
0000
0000
0000
0000
0000
1000
0000
0000
0010
0000
0000
1000
0000
0000
0001
0000
0000
1000
0000
0000
0100
0000
0000
0040
0000
0004
0000
0000
0000
0000
0000
0000
0000
0000
0000
,  // measure 43
0033
0000
0001
1000
0001
0000
1000
0020
2000
0000
0000
0000
0000
0000
0000
0000
,  // measure 44
0000
0000
0000
3030
0110
0000
0000
0000
0102
0000
0000
0000
1003
0000
0100
0000
,  // measure 45
0120
0130
1000
0001
0201
0000
0310
0100
,  // measure 46
0001
0000
1000
0100
0120
0000
0032
0000
,  // measure 47
0103
0000
0010
1000
2100
0000
3002
0000
,  // measure 48
0200
1000
1000
0303
2010
0000
3001
0100
,  // measure 49
0110
0010
1000
0100
0120
0000
0031
0100
,  // measure 50
0010
0000
1000
0001
0021
0000
0230
0000
,  // measure 51
1300
0000
0001
0100
0120
0000
2030
0000
,  // measure 52
3001
0010
0220
0000
,  // measure 53
0000
0000
0000
0000
,  // measure 54
0000
0000
0000
0000
0330
0000
0000
0000
1100
0000
0000
0000
0100
0000
0010
0001
,  // measure 55
1000
1020
0130
0001
2001
3010
0100
0102
,  // measure 56
0020
0033
2002
0000
0010
3003
0001
0100
,  // measure 57
0020
0000
1030
0001
0201
0000
0310
4000
,  // measure 58
0000
3000
0000
0000
0001
0000
0100
0000
0120
0000
0000
0000
2030
0000
0000
0000
,  // measure 59
3002
0000
0023
0030
0210
0000
1300
0001
,  // measure 60
0100
0010
2000
0000
3001
0000
0010
0000
0120
0000
0000
0000
0031
0000
2000
0000
,  // measure 61
3020
0000
0030
0100
0102
0000
2003
0000
,  // measure 62
3040
0000
0000
0030
0000
0000
0100
0000
0102
0000
0000
0000
0013
0000
0100
0000
,  // measure 63
2100
0000
0000
3020
0000
0000
0130
0000
0102
0000
0000
0000
0023
0000
0200
0000
,  // measure 64
0000
0000
0001
0000
1001
0330
0100
1000
,  // measure 65
1020
0000
0130
0001
2001
3010
0100
0004
,  // measure 66
0000
0003
0000
0000
1000
0000
0100
0000
0120
0000
0000
0000
0032
0000
0000
0000
,  // measure 67
2003
0000
0000
0000
3002
0000
0000
0003
0201
0000
0000
0000
0310
0000
1000
0000
,  // measure 68
0100
0010
0001
0000
1000
0000
0002
0003
0201
0000
0000
0000
0320
0000
0000
0000
,  // measure 69
4030
0000
0000
0000
3000
0000
0001
0000
0201
0000
0000
0000
0302
0000
0000
0003
,  // measure 70
1001
0000
1000
0100
0120
0000
0230
0000
,  // measure 71
2300
0000
0000
0000
3002
0000
0103
0010
0200
0000
0000
0000
0301
0000
0000
0000
,  // measure 72
0011
0000
0000
0000
0010
0000
0100
0000
2000
0000
0000
3001
0010
0000
0002
0000
,  // measure 73
2000
0000
0000
3003
1010
0000
0000
0000
0210
0000
0000
0000
0301
0000
0010
0000
,  // measure 74
0210
1300
0001
0100
0120
0000
0130
0001
,  // measure 75
1000
0000
0100
0010
0012
0000
2003
0000
,  // measure 76
3010
0000
0100
0010
2010
0000
3002
0000
,  // measure 77
2000
0010
0010
3003
0012
0000
1003
0010
,  // measure 78
0110
0100
0001
0010
0210
0000
1300
0001
,  // measure 79
0101
0000
0100
0010
2010
0000
3002
0000
,  // measure 80
0013
0000
0100
1000
1002
0000
0023
0030
,  // measure 81
0210
0000
0000
0000
2300
0000
3000
0000
1002
0000
0000
0100
0000
0000
0010
0000
,  // measure 82
0000
0000
0000
0000
1000
0000
0000
0100
0000
0000
0010
0000
0000
0000
0000
0000
,  // measure 83
1003
0000
0000
0000
1100
0000
0000
0000
0011
0000
0000
0000
1001
0000
1000
0010
,  // measure 84
0200
0300
0110
0000
0100
0000
0002
0003
2001
0000
0000
3200
0000
0000
0320
0000
,  // measure 85
0000
0000
0030
0002
,  // measure 86
2003
0000
3100
0020
0000
0031
0040
0000
,  // measure 87
0000
0030
0000
0000
0000
0000
0100
1000
,  // measure 88
0002
0000
0103
0020
0000
1030
0001
0400
,  // measure 89
0000
0000
0300
0000
0000
0000
0001
1000
,  // measure 90
0010
2000
0000
3100
0000
0000
1000
0010
,  // measure 91
0100
0001
0004
0000
0003
0000
1000
0001
,  // measure 92
2000
0000
3001
0200
0000
0310
1000
0004
,  // measure 93
0000
0003
0000
0000
2000
0000
3010
0000
2020
0000
0030
0000
3002
0000
0103
0000
,  // measure 94
0102
1003
0100
0010
0120
0130
2000
0000
,  // measure 95
3001
0000
0000
0000
0100
0000
0010
0000
2010
0000
0000
3002
0000
0000
0013
0000
,  // measure 96
0400
0000
0300
2100
0000
3001
0010
0400
,  // measure 97
0000
0300
1000
0001
0201
0000
0310
1000
,  // measure 98
1200
0000
0310
0001
0101
0001
0020
0000
,  // measure 99
0000
0000
0030
0000
1001
0000
0000
0000
1020
0000
0000
0230
0000
0000
0301
0000
,  // measure 100
4000
0000
0000
0000
3000
0000
0001
0000
0021
0000
0000
0230
0000
0000
1300
0000
,  // measure 101
1002
0000
0000
2003
0000
0000
0200
0000
0011
0000
0000
0011
0000
0000
0011
0000
,  // measure 102
0000
3300
0000
0000
1101
1101
0000
0000
,  // measure 103
1011
1011
0000
0000
1110
1110
0000
0000
,  // measure 104
0111
0111
0000
0000
1011
1011
0000
0000
,  // measure 105
1101
1101
0000
0000
2010
0000
0100
0000
,  // measure 106
3020
0130
0001
0000
1101
1101
0000
0000
,  // measure 107
1110
1110
0000
0000
1111
1111
0000
0000
,  // measure 108
1011
1011
0000
0000
0202
0300
2000
3003
,  // measure 109
2200
0300
0020
3030
0220
0030
0002
0303
,  // measure 110
2002
0000
3003
0000
0021
0000
0000
1000
,  // measure 111
0001
1000
0001
1000
0032
0000
1003
0100
,  // measure 112
0001
0000
0100
1000
1002
0000
0203
0000
,  // measure 113
0310
0000
0100
0001
0021
0000
0032
0000
,  // measure 114
2000
0010
0010
3003
2010
0000
3200
0001
,  // measure 115
1000
0001
1000
0001
2300
0000
3001
0100
,  // measure 116
1000
0000
0100
0001
0021
0000
0230
0300
,  // measure 117
1100
0000
0000
0000
1000
0000
0010
0000
0210
0000
0000
0000
0302
0000
0000
0003
,  // measure 118
0021
0000
0000
0000
0230
0000
0000
0300
2200
0000
0000
0000
0000
0000
0000
0000
,  // measure 119
0000
0000
0000
0000
,  // measure 120
0000
0000
0000
0000
0000
0000
0000
0000
3300
0000
0000
0000
0000
0000
0000
1000
0020
0000
0000
0000
0000
0000
0230
0000
0000
0000
0000
0000
0301
0000
0000
0000
,  // measure 121
1000
1100
0200
0300
0110
0020
0030
0011
,  // measure 122
0000
0000
0000
0000
0001
1000
0020
0030
2002
0000
0000
0000
0000
0000
0000
0000
,  // measure 123
3003
0000
0000
0000
;
