#TITLE:Alice is Sweet;
#SUBTITLE:;
#ARTIST:Iosys;
#TITLETRANSLIT:;
#SUBTITLETRANSLIT:;
#ARTISTTRANSLIT:;
#GENRE:Bubblegum J-Pop;
#CREDIT:Ace Of Hearts;
#BANNER:Alice is Sweet - Bn.png;
#BACKGROUND:Alice is Sweet - Bg.png;
#LYRICSPATH:;
#CDTITLE:Ace Of Hearts.png;
#MUSIC:Alice is Sweet (Cut).ogg;
#OFFSET:-0.012;
#SAMPLESTART:7.480;
#SAMPLELENGTH:15.000;
#SELECTABLE:YES;
#BPMS:0.000=128.000;
#STOPS:215.333=0.020
,215.667=0.020
;
#BGCHANGES:;
#KEYSOUNDS:;

//---------------dance-single - Ace Of Hearts (2008)----------------
#NOTES:
     dance-single:
     Ace Of Hearts (2008):
     Challenge:
     10:
     0.578,0.000,0.053,0.267,0.418: // measure 1
0000
0000
0000
0000
,  // measure 2
0000
0000
0000
0000
,  // measure 3
0000
0000
0000
0000
,  // measure 4
0000
0000
0000
0000
,  // measure 5
1000
0100
0000
0100
0010
0000
0000
0000
0001
1000
0000
1000
0010
0000
0100
0000
,  // measure 6
0001
1000
0000
1000
0100
0000
0000
0000
0100
0010
0000
0010
0100
0000
0000
0000
,  // measure 7
1000
0001
0000
0001
0100
0000
0000
0000
0010
0100
0000
0100
0001
0000
1000
0000
,  // measure 8
0100
0010
0000
0010
0001
0000
0000
0000
0100
0010
0000
0010
0100
0000
0000
0000
,  // measure 9
0001
1000
0000
1000
0010
0000
0000
0000
1000
0100
0000
0100
0010
0000
0001
0000
,  // measure 10
1000
0010
0000
0010
0100
0000
0000
0000
0001
1000
0000
1000
0001
0000
0000
0000
,  // measure 11
0100
0010
0000
0010
1000
0000
0000
0000
0001
0010
0000
0010
0100
0000
1000
0000
,  // measure 12
0001
0100
0000
0100
0010
0000
0000
0000
1000
0001
0000
0001
1000
0000
0000
0000
,  // measure 13
0001
0010
0100
1000
0001
0010
0100
1000
,  // measure 14
0001
0010
0100
2000
0002
0000
0010
3003
,  // measure 15
1000
0010
0100
0001
1000
0010
0100
0001
,  // measure 16
1000
0010
0100
0001
2000
0010
3020
0030
,  // measure 17
1000
0001
0010
0100
0010
0001
1000
0001
,  // measure 18
0010
0100
1000
0001
1000
0000
0001
0010
,  // measure 19
0001
1000
0001
0100
0010
0100
0001
1000
,  // measure 20
0100
0010
0100
0010
0001
0010
0001
0010
,  // measure 21
0400
0000
0000
0300
,  // measure 22
0000
0000
0000
0000
0110
0000
0000
0100
1000
0000
0000
0000
0000
0000
0000
0000
,  // measure 23
1000
0100
0010
0001
1000
0001
0100
0010
,  // measure 24
2000
0000
0200
0000
0020
0000
3330
1002
,  // measure 25
0000
0103
0010
0100
0001
1000
0100
0010
,  // measure 26
0001
1000
0010
0100
0001
0010
0100
1000
,  // measure 27
0001
0100
0010
1000
0001
0010
0100
1000
,  // measure 28
0002
0000
0200
0000
0020
0000
0333
2001
,  // measure 29
0000
3100
0010
0100
1000
0001
0100
0010
,  // measure 30
0100
0001
1000
0100
0040
0000
0030
0000
,  // measure 31
0100
1000
0001
0100
0010
0100
0001
0010
,  // measure 32
0200
0000
2000
0000
0002
0000
3303
1002
,  // measure 33
0000
0103
0010
1000
0001
0010
0100
1000
,  // measure 34
0100
0010
0001
1000
0010
0100
0001
0000
,  // measure 35
1000
0100
0010
0001
0010
0100
1000
0001
,  // measure 36
2000
0000
0200
0000
0002
0000
3303
2001
,  // measure 37
0000
3010
0100
0001
0010
0100
1000
0001
,  // measure 38
0100
0010
1000
0001
0020
0000
0031
1000
,  // measure 39
0010
1000
0010
1000
0010
0000
0000
0000
0100
0001
0100
0001
0100
0000
0000
0000
,  // measure 40
0010
1000
0010
1000
0001
1000
0001
1000
0100
1000
0100
1000
0001
0000
0000
0000
,  // measure 41
0010
0001
0010
0001
0010
0000
0000
0000
0100
1000
0100
1000
0100
0000
0000
0000
,  // measure 42
0010
0100
0010
0100
1000
0100
1000
0100
0010
0001
0010
0001
1000
0000
0000
0000
,  // measure 43
0010
1000
0010
1000
0001
0000
0000
0000
1000
0100
1000
0100
0010
0000
0000
0000
,  // measure 44
0001
1000
0001
1000
0010
0100
0010
0100
0001
1000
0001
1000
0100
0000
0000
0000
,  // measure 45
1000
0100
0010
0100
1000
0000
0000
0000
0001
0010
0100
0010
0001
0000
0000
0000
,  // measure 46
1000
0100
0010
0001
0010
0100
1000
0100
0010
0001
0010
0100
1000
0000
0000
0000
,  // measure 47
0001
0100
0010
0100
0001
0000
0000
0000
1000
0010
0100
0010
1000
0000
0000
0000
,  // measure 48
0001
0100
0010
1000
0010
0100
0001
0100
0010
1000
0010
0100
0001
0000
0000
0000
,  // measure 49
1000
0100
0010
0001
0100
0000
0000
0000
0001
0010
0100
1000
0010
0000
0000
0000
,  // measure 50
1000
0100
1000
0001
0100
0001
1000
0100
1000
0010
0100
0010
1000
0000
0000
0000
,  // measure 51
0001
1000
0010
0100
0001
0000
0000
0000
1000
0001
0100
0010
1000
0000
0000
0000
,  // measure 52
0001
0010
0001
1000
0010
0100
0001
1000
0100
1000
0001
0100
0010
0000
0000
0000
,  // measure 53
0100
0001
1000
0100
0010
0000
0000
0000
0100
1000
0001
0100
0010
0000
0000
0000
,  // measure 54
1000
0001
0010
0100
0010
0001
1000
0100
1000
0010
0100
0001
1000
0000
0000
0000
,  // measure 55
0001
0100
0000
0100
0010
0000
0000
0000
1000
0001
0000
0001
0010
0000
0100
0000
,  // measure 56
1000
0001
0000
0001
0100
0000
0000
0000
0010
1000
0000
1000
0010
0000
0000
0000
,  // measure 57
0100
0001
0000
0001
1000
0000
0000
0000
0100
0010
0000
0010
0001
0000
1000
0000
,  // measure 58
0010
0100
0000
0100
0001
0000
0000
0000
1000
0100
0000
0100
1000
0000
0000
0000
,  // measure 59
0001
0100
0000
0100
0010
0000
0000
0000
1000
0001
0000
0001
0010
0000
0100
0000
,  // measure 60
0010
0001
0000
0001
1000
0000
0000
0000
0010
0100
0000
0100
0010
0000
0000
0000
,  // measure 61
1000
0100
0000
0100
0010
0000
0000
0000
0100
1000
0000
1000
0001
0000
0100
0000
,  // measure 62
0010
1000
0000
1000
0001
0000
0000
0000
0010
0100
0000
0100
0010
0000
0100
1000
,  // measure 63
0002
0000
0000
0000
0003
0000
1000
0100
0010
0000
0000
0000
0001
0000
0000
0000
,  // measure 64
0200
0000
0000
0000
0000
0000
0000
0000
0300
0000
0000
0000
0000
0000
0010
1000
,  // measure 65
0002
0000
0000
0000
0003
0000
1000
0010
0100
0000
0000
0000
0001
0000
0000
0000
,  // measure 66
2000
0000
0000
0000
0000
0000
0000
0000
0200
0000
0000
0000
3300
0000
1000
0100
,  // measure 67
0020
0000
0000
0000
0030
0000
0100
1000
0001
0000
0000
0000
0100
0000
0000
0000
,  // measure 68
0020
0000
0000
0000
0130
0001
1000
0001
,  // measure 69
0020
0000
0000
0000
0030
0000
0001
1000
0010
0000
0000
0000
0100
0000
0000
0000
,  // measure 70
0001
0100
0010
1000
0001
0010
0100
1000
0001
0000
1000
0000
0010
0000
0000
0000
,  // measure 71
1000
0100
0001
0100
1000
0001
0100
1000
,  // measure 72
0100
0001
1000
0002
0200
0000
0010
0303
,  // measure 73
0001
0010
1000
0010
0001
1000
0001
0100
,  // measure 74
1000
0100
0001
1000
0200
0010
0320
0030
,  // measure 75
0100
1000
0100
0001
0100
1000
0001
0010
,  // measure 76
1000
0010
0001
1000
0100
0000
1000
0001
,  // measure 77
0100
0010
1000
0001
0010
0100
0010
0001
,  // measure 78
1000
0010
1000
0010
0100
0010
0100
0010
,  // measure 79
4000
0000
0000
3000
,  // measure 80
0000
0000
0000
0000
1100
0000
0000
0100
0010
0000
0000
0000
0000
0000
0000
0000
,  // measure 81
0001
0010
1000
0010
0001
1000
0001
0100
,  // measure 82
0020
0000
2000
0000
0002
0000
3033
2100
,  // measure 83
0000
3001
0100
0010
0001
0010
1000
0100
,  // measure 84
0010
0100
1000
0001
0100
0010
0100
0000
,  // measure 85
0100
0010
0001
0010
1000
0100
0010
0100
,  // measure 86
0020
0000
0002
0000
2000
0000
3033
0201
,  // measure 87
0000
0310
1000
0001
0010
0100
1000
0001
,  // measure 88
0100
0010
1000
0001
0040
0000
0030
0000
,  // measure 89
0100
1000
0001
0100
0010
0100
0001
0010
,  // measure 90
0002
0000
0200
0000
0020
0000
0333
2001
,  // measure 91
0000
3010
0100
0001
1000
0100
0010
0100
,  // measure 92
1000
0001
0100
0010
0100
0001
1000
0000
,  // measure 93
0100
0010
0100
1000
0001
0100
0010
1000
,  // measure 94
0200
0000
0020
0000
0002
0000
0333
0102
,  // measure 95
0000
1003
0100
1000
0010
0100
0001
1000
,  // measure 96
0100
0010
0001
1000
0002
0000
1003
0100
,  // measure 97
0040
0000
0000
0030
;

//---------------dance-single - Ace Of Hearts (2008)----------------
#NOTES:
     dance-single:
     Ace Of Hearts (2008):
     Hard:
     8:
     0.477,0.000,0.117,0.197,0.139:
0000
0000
0000
0000
,
0000
0000
0000
0000
,
0000
0000
0000
0000
,
0000
0000
0000
0000
,
1000
0000
0000
0001
0100
0000
0000
0000
0001
0000
0000
1000
0100
0000
1000
0000
,
0001
0000
0000
1000
0010
0000
0000
0000
1000
0000
0000
0000
1100
0000
0000
0000
,
1000
0000
0000
0001
0010
0000
0000
0000
0001
0000
0000
1000
0010
0000
1000
0000
,
0001
0000
0000
0010
0001
0000
0000
0000
1000
0000
0000
0000
1010
0000
0000
0000
,
0010
0000
0000
0100
0001
0000
0000
0000
1000
0000
0000
0100
0010
0000
0100
0000
,
1000
0000
0000
0001
0100
0000
0000
0000
0001
0000
0000
0000
0011
0000
0000
0000
,
0010
0000
0000
0100
1000
0000
0000
0000
0001
0000
0000
1000
0010
0000
1000
0000
,
0001
0000
0000
1000
0100
0000
0000
0000
0010
0000
0000
0000
0011
0000
0000
0000
,
0001
0010
0100
1000
0001
0010
0100
1000
,
0001
0010
0100
1000
0002
0000
0003
0000
,
1000
0010
0100
0001
1000
0010
0100
0001
,
1000
0010
0100
0001
2000
0000
3000
0000
,
0001
0010
0100
1000
0100
0010
0001
0010
,
0100
1000
0100
0010
0001
0000
1000
0010
,
0100
0001
1000
0001
0010
0100
1000
0001
,
1000
0010
1000
0010
1000
0010
1000
0010
,
0200
0000
0300
0000
,
0000
0200
0310
0000
,
1000
0100
0010
0001
1000
0100
0010
0001
,
1000
0000
1010
0000
0200
0000
0300
0002
,
0000
1003
0100
0010
0001
0010
0100
1000
,
0001
1000
0010
0100
0001
0010
0100
0000
,
1000
0100
0010
0001
1000
0100
0010
0001
,
0100
0000
0110
0000
2000
0000
3000
0020
,
0000
0130
0001
1000
0100
1000
0001
0100
,
0001
1000
0100
0010
0002
0000
0003
0000
,
1000
0100
0010
0001
1000
0010
0100
0001
,
1000
0000
1100
0000
0020
0000
0030
0200
,
0000
1300
0001
0100
0010
0100
0001
1000
,
0100
0010
0100
1000
0001
1000
0100
0000
,
1000
0100
0010
0001
0010
0100
1000
0001
,
0100
0000
0110
0000
0002
0000
0003
2000
,
0000
3100
0010
0100
1000
0001
0100
0010
,
0100
0001
1000
0100
0010
0000
0001
1000
,
0010
1000
0010
0000
0100
0000
0000
0000
0001
0100
0001
0000
1000
0000
0000
0000
,
0001
0010
0001
0000
1000
0000
0100
0000
1000
0001
1000
0000
0010
0000
0000
0000
,
1000
0010
1000
0000
0001
0000
0000
0000
0100
0001
0100
0000
0010
0000
0000
0000
,
1000
0010
1000
0000
0001
0000
0010
0000
0001
1000
0001
0000
0100
0000
0000
0000
,
0010
0010
0110
0000
0100
0100
0101
0000
,
0001
1000
0100
0010
0100
1000
1001
0000
,
0001
0100
0110
0000
0010
1000
1100
0000
,
0100
0010
0100
1000
0001
0100
0110
0000
,
0010
1000
0010
0000
0100
0000
0000
0000
0001
1000
0001
0000
0010
0000
0000
0000
,
0100
1000
0100
0000
0010
0000
0001
0000
1000
0010
1000
0000
0001
0000
0000
0000
,
0100
0001
0100
0000
0010
0000
0000
0000
1000
0001
1000
0000
0100
0000
0000
0000
,
0010
0001
0010
0000
0100
0000
1000
0000
0001
1000
0001
0000
0010
0000
0000
0000
,
0004
0040
0000
0000
0033
0000
0000
0000
4000
0400
0000
0000
3300
0000
0000
0000
,
0040
0400
0000
0000
0000
0000
0000
0000
0000
0000
0000
0000
0330
0000
0000
0000
,
4000
0040
0000
0000
3030
0000
0000
0000
0004
0400
0000
0000
0303
0000
0000
0000
,
4000
0004
0000
0000
0000
0000
0000
0000
0000
0000
0000
0000
3003
0000
0000
0000
,
1000
0000
0000
0001
0100
0000
0000
0000
0001
0000
0000
0010
0100
0000
1000
0000
,
0001
0000
0000
0100
0010
0000
0000
0000
1000
0000
0000
0000
1100
0000
0000
0000
,
0100
0000
0000
0010
0001
0000
0000
0000
1000
0000
0000
0010
1000
0000
0001
0000
,
0100
0000
0000
0010
1000
0000
0000
0000
0001
0000
0000
0000
0011
0000
0000
0000
,
0010
0000
0000
0100
1000
0000
0000
0000
0001
0000
0000
0100
0010
0000
1000
0000
,
0001
0000
0000
1000
0100
0000
0000
0000
1000
0000
0000
0000
1010
0000
0000
0000
,
0010
0000
0000
1000
0001
0000
0000
0000
0010
0000
0000
0100
1000
0000
0001
0000
,
1000
0000
0000
0100
0010
0000
0000
0000
0001
0000
0000
0000
0101
0000
0000
0000
,
0020
0000
0000
0000
0030
0000
1000
0001
1000
0000
0000
0000
0010
0000
0000
0000
,
0200
0000
0000
0000
0000
0000
0000
0000
0300
0000
0000
0000
0000
0000
0001
0100
,
0002
0000
0000
0000
0003
0000
1000
0100
1000
0000
0000
0000
0010
0000
0000
0000
,
0200
0000
0002
0303
,
2000
0000
0000
0000
3000
0000
0001
0010
0001
0000
0000
0000
1000
0000
0000
0000
,
0200
0000
0300
0000
0010
0001
0010
0100
,
0020
0000
0000
0000
0030
0000
0001
1000
0001
0000
0000
0000
0010
0000
0000
0000
,
0001
1000
0001
0000
0100
0000
0001
0000
1000
0000
0100
0000
0010
0000
0000
0000
,
0001
0010
0100
1000
0010
0100
0001
1000
,
0001
0010
0100
1000
0020
0000
0130
0000
,
0001
1000
0100
0010
0100
1000
0001
0100
,
0010
0100
0001
1000
0002
0013
0200
0300
,
1000
0001
1000
0010
0100
0001
1000
0100
,
0010
0100
1000
0001
0010
0000
0001
1000
,
0010
0100
0001
1000
0100
0010
0001
1000
,
0100
0010
0100
0010
0100
0010
0100
0010
,
0002
0000
0003
0000
,
0000
0020
0130
0000
,
1000
0100
0010
0001
0100
0010
1000
0001
,
1000
0000
1010
0000
0200
0000
0300
0002
,
0000
1003
0100
0010
0001
1000
0001
0100
,
0010
0100
0001
1000
0010
0100
0001
0000
,
1000
0100
0010
0001
0100
0010
1000
0001
,
0010
0000
0110
0000
2000
0000
3000
0020
,
0000
0130
0001
1000
0100
0010
0100
1000
,
0001
0100
0010
0100
0002
0000
0003
0000
,
1000
0100
0010
0001
1000
0100
0010
0001
,
1000
0000
1010
0000
0200
0000
0300
0002
,
0000
1003
0010
0100
0001
1000
0100
0010
,
0001
1000
0010
1000
0001
0010
0100
0000
,
1000
0100
0010
0001
0100
0010
1000
0001
,
1000
0000
1001
0000
0002
0000
0003
0020
,
0000
0130
1000
0001
0100
0010
0100
0001
,
1000
0100
0010
0001
2000
0000
3100
0010
,
0002
0000
0000
0003
;

//---------------dance-single - Ace Of Hearts (2008)----------------
#NOTES:
     dance-single:
     Ace Of Hearts (2008):
     Medium:
     6:
     0.318,0.000,0.043,0.149,0.000:
0000
0000
0000
0000
,
0000
0000
0000
0000
,
0000
0000
0000
0000
,
0000
0000
0000
0000
,
1000
0000
1000
0000
0001
0000
1000
0010
,
1000
0001
0010
0010
,
0001
0000
0100
0000
0010
0000
1000
0010
,
1000
0001
0010
0010
,
0001
0000
0001
0000
1000
0000
0001
0010
,
0001
1000
0100
0100
,
1000
0000
1000
0000
0001
0000
1000
0010
,
1000
0001
0100
0100
,
0001
0100
0001
0000
1000
0100
1000
0000
,
0001
0100
0001
0000
2000
0000
3000
0000
,
0001
0010
0001
0000
1000
0010
1000
0000
,
0001
0010
0001
0000
0200
0000
0300
0000
,
0010
1000
0010
0000
0100
0001
0100
0000
,
0010
0100
0010
0000
1000
0000
0001
0000
,
1000
0100
1000
0001
,
0400
0000
0000
0300
,
0200
0000
0300
0000
,
0000
2002
3003
0000
,
1000
0010
1000
0000
0001
0010
0001
0000
,
1000
0010
0200
0300
,
0001
0100
0001
0000
1000
0100
1000
0000
,
0001
1000
0100
0010
,
0001
1000
0001
0000
1000
0010
1000
0000
,
0001
0010
0200
0300
,
1000
0100
1000
0000
0001
0010
0001
0000
,
1000
0010
1000
0000
0002
0000
0003
0000
,
1000
0010
1000
0000
0001
0100
0001
0000
,
1000
0100
0020
0030
,
0100
1000
0100
0000
0010
0001
0010
0000
,
0001
1000
0010
0100
,
0001
1000
0001
0000
1000
0100
1000
0000
,
0001
0100
0020
0030
,
1000
0001
1000
0000
0001
0010
0001
0000
,
1000
0010
0100
0000
,
0001
0100
0001
0000
1000
0100
1000
0000
,
0001
0000
0001
0000
0100
0001
0100
0000
,
0010
1000
0010
0000
1000
0001
1000
0000
,
0010
0000
0010
0000
1000
0010
1000
0000
,
0001
0101
0100
0110
,
0010
0010
1000
1001
,
0001
0011
0010
0110
,
0100
0100
1000
1001
,
0001
0100
0001
0000
1000
0010
1000
0000
,
0001
0000
0001
0000
0010
0001
0010
0000
,
0100
1000
0100
0000
0010
0001
0010
0000
,
0100
0000
0100
0000
0010
0100
0010
0000
,
0004
0003
4000
3000
,
0040
0000
0000
0030
,
0400
0300
0004
0003
,
4000
0000
0000
3000
,
0001
0000
1000
0000
0010
0000
1000
0001
,
1000
0100
0010
0010
,
0100
0000
1000
0000
0001
0000
0100
0001
,
0100
0010
1000
1000
,
0100
0000
0010
0000
0001
0000
1000
0010
,
1000
0001
0010
0010
,
0001
0000
0001
0000
1000
0000
0010
1000
,
0010
0100
0001
0001
,
2000
3000
0001
0010
,
0200
0000
0300
0000
,
0020
0030
0001
1000
,
0200
0000
0300
0000
,
0020
0030
0001
1000
,
0200
0000
0300
0000
,
2000
3000
0001
1000
,
0400
0000
0300
0000
,
1000
0100
0010
0000
0001
1000
0001
0000
,
1000
0100
0010
0000
0002
0000
0003
0000
,
1000
0010
0100
0000
0001
1000
0001
0000
,
0100
0001
1000
0000
0200
0000
0300
0000
,
0010
0001
1000
0000
0010
1000
0010
0000
,
1000
0001
0010
0000
0100
0000
1000
0000
,
0001
1000
0100
0010
,
0004
0000
0000
0003
,
0002
0000
0003
0000
,
0000
2002
3003
0000
,
1000
0100
0010
0000
0100
0010
0001
0000
,
1000
0010
0200
0300
,
0010
0001
1000
0000
0010
1000
0001
0000
,
1000
0100
0010
0001
,
1000
0010
0100
0000
0010
0100
0001
0000
,
1000
0100
0020
0030
,
0001
0010
0100
0000
0010
0100
1000
0000
,
0001
1000
0020
0030
,
1000
0001
0100
0000
0001
0100
0010
0000
,
1000
0001
0200
0300
,
0010
0100
0001
0000
0100
0001
1000
0000
,
0100
1000
0001
0100
,
0001
1000
0100
0000
1000
0100
0010
0000
,
0001
1000
0020
0030
,
1000
0100
0010
0000
0100
1000
0001
0000
,
1000
0001
1000
0100
,
0020
0000
0030
0000
;

//---------------dance-single - Ace Of Hearts (2008)----------------
#NOTES:
     dance-single:
     Ace Of Hearts (2008):
     Easy:
     4:
     0.211,0.000,0.032,0.187,0.000:
0000
0000
0000
0000
,
0000
0000
0000
0000
,
0000
0000
0000
0000
,
0000
0000
0000
0000
,
1000
0000
1000
1000
,
1000
0000
0020
0030
,
0100
0000
0100
0100
,
0100
0000
0002
0003
,
0010
0000
0010
0010
,
0010
0000
0200
0300
,
1000
0000
1000
1000
,
1000
0000
0020
0030
,
1000
1000
1000
1000
,
2000
0000
3000
0000
,
0100
0100
0100
0100
,
0200
0000
0300
0000
,
0010
0010
0010
0010
,
0020
0000
0030
0000
,
0001
0001
0001
0000
,
0040
0000
0000
0000
,
0030
0000
0000
0000
,
0000
0200
0300
0000
,
1000
1000
1000
0000
,
0010
0010
0010
0000
,
0100
0100
0100
0000
,
0001
0001
0001
0000
,
0100
0100
0100
0000
,
0010
0010
0010
0000
,
1000
1000
1000
0000
,
0100
0100
0100
0000
,
1000
1000
1000
0000
,
0010
0010
0010
0000
,
0100
0100
0100
0000
,
0001
0001
0001
0000
,
1000
1000
1000
0000
,
0010
0010
0010
0000
,
0100
0100
0100
0000
,
0001
0001
0001
0000
,
0020
0000
0000
0000
,
0030
0000
0000
0000
,
0001
0001
1000
1000
,
0010
0010
0010
0000
,
0100
0100
0001
0001
,
1000
1000
1000
0000
,
0010
0010
0100
0100
,
0001
0001
0001
0000
,
0022
0033
2200
3300
,
2002
0000
3003
0000
,
2020
3030
0202
0303
,
0220
0000
0330
0000
,
0010
0010
1000
1000
,
0001
0001
0001
0000
,
0010
0010
0001
0001
,
1000
1000
1000
0000
,
0001
0000
1000
1000
,
1000
0000
0020
0030
,
0100
0100
0100
0000
,
0001
0000
2000
3000
,
0100
0100
0100
0000
,
0010
0000
0002
0003
,
0100
0100
0100
0000
,
0010
0000
2000
3000
,
0002
0000
0103
0100
,
0200
0000
0300
0000
,
0020
0000
1030
1000
,
2000
0000
3000
0000
,
0002
0000
0013
0010
,
0020
0000
0030
0000
,
0200
0000
1300
1000
,
2000
0000
3000
0000
,
0001
0001
0001
0001
,
0004
0000
0003
0000
,
0100
0100
0100
0100
,
0400
0000
0300
0000
,
0010
0010
0010
0010
,
0040
0000
0030
0000
,
1000
1000
0001
0001
,
0400
0000
0000
0000
,
0300
0000
0000
0000
,
0000
0020
0030
0000
,
1000
1000
1000
0000
,
0001
0010
0001
0000
,
0100
0100
0100
0000
,
0010
1000
0010
0000
,
0100
0100
0100
0000
,
0001
0100
0001
0000
,
0010
0010
0010
0000
,
0100
1000
0100
0000
,
1000
1000
1000
0000
,
0001
0010
0001
0000
,
0100
0100
0100
0000
,
0010
1000
0010
0000
,
0100
0100
0100
0000
,
0001
1000
0001
0000
,
1000
1000
1000
0000
,
0001
0100
0001
0000
,
0020
0000
0030
0000
;

//---------------dance-single - Ace Of Hearts (2008)----------------
#NOTES:
     dance-single:
     Ace Of Hearts (2008):
     Beginner:
     2:
     0.107,0.000,0.032,0.117,0.000:
0000
0000
0000
0000
,
0000
0000
0000
0000
,
0000
0000
0000
0000
,
0000
0000
0000
0000
,
1000
0000
0000
0000
,
1000
0000
0000
0000
,
0001
0000
0000
0000
,
0001
0000
0000
0000
,
0100
0000
0000
0000
,
0100
0000
0000
0000
,
0010
0000
0000
0000
,
0010
0000
0000
0000
,
2000
0000
0000
0000
,
3000
0000
0000
0000
,
0002
0000
0000
0000
,
0003
0000
0000
0000
,
0200
0000
0000
0000
,
0300
0000
0000
0000
,
0002
0000
0000
0000
,
2000
0000
0000
0000
,
3003
0000
0000
0000
,
0000
0000
0000
0000
,
1000
0000
1000
0000
,
1000
0000
0000
0000
,
0001
0000
0001
0000
,
0001
0000
0000
0000
,
0010
0000
0010
0000
,
0010
0000
0000
0000
,
0100
0000
0100
0000
,
0100
0000
0000
0000
,
1000
0000
1000
0000
,
1000
0000
0000
0000
,
0100
0000
0100
0000
,
0100
0000
0000
0000
,
0010
0000
0010
0000
,
0010
0000
0000
0000
,
0001
0000
0001
0000
,
0001
0000
0000
0000
,
2000
0000
0000
0000
,
3000
0000
0000
0000
,
0010
0000
0010
0000
,
0020
0000
0030
0000
,
0100
0000
0100
0000
,
0200
0000
0300
0000
,
0001
0000
0001
0000
,
0002
0000
0003
0000
,
1000
0000
0001
0000
,
2002
0000
3003
0000
,
0100
0000
0010
0000
,
0220
0000
0330
0000
,
1000
0000
1000
0000
,
0001
0001
0001
0000
,
0100
0000
0100
0000
,
0010
0010
0010
0000
,
1000
0000
0000
0000
,
1000
0000
0000
0000
,
0001
0000
0000
0000
,
0001
0000
0000
0000
,
0010
0000
0000
0000
,
0010
0000
0000
0000
,
0100
0000
0000
0000
,
0100
0000
0000
0000
,
0220
0000
0000
0000
,
0330
0000
0000
0000
,
2002
0000
0000
0000
,
3003
0000
0000
0000
,
2020
0000
0000
0000
,
3030
0000
0000
0000
,
0202
0000
0000
0000
,
0303
0000
0000
0000
,
1000
0000
1000
0000
,
1000
0000
0000
0000
,
0010
0000
0010
0000
,
0010
0000
0000
0000
,
0100
0000
0100
0000
,
0100
0000
0000
0000
,
0001
0000
0001
0000
,
0040
0000
0000
0000
,
0030
0000
0000
0000
,
0000
0000
0000
0000
,
0001
0000
0001
0000
,
0001
0000
0000
0000
,
0100
0000
0100
0000
,
0100
0000
0000
0000
,
0010
0000
0010
0000
,
0010
0000
0000
0000
,
1000
0000
1000
0000
,
1000
0000
0000
0000
,
0001
0000
0001
0000
,
0001
0000
0000
0000
,
0100
0000
0100
0000
,
0100
0000
0000
0000
,
0001
0000
0001
0000
,
0001
0000
0000
0000
,
1000
0000
1000
0000
,
1000
0000
0000
0000
,
0020
0000
0030
0000
;
