#TITLE:White Destiny;
#SUBTITLE:;
#ARTIST:Yoko Ishida;
#TITLETRANSLIT:;
#SUBTITLETRANSLIT:;
#ARTISTTRANSLIT:;
#GENRE:;
#CREDIT:Ace Of Hearts;
#BANNER:White Destiny - bn.png;
#BACKGROUND:White Destiny - bg.jpg;
#LYRICSPATH:;
#CDTITLE:Ace Of Hearts.png;
#MUSIC:White Destiny -Long Version-.ogg;
#OFFSET:-0.710;
#SAMPLESTART:68.600;
#SAMPLELENGTH:12.000;
#SELECTABLE:YES;
#BPMS:0.000=70.000,16.000=140.000,216.000=70.000,232.000=140.000,424.000=70.000,440.000=140.000;
#STOPS:;
#BGCHANGES:;
#FGCHANGES:;
#KEYSOUNDS:;

//---------------dance-single - Easy----------------
#NOTES:
     dance-single:
     Ace Of Hearts (2008):
     Easy:
     3:
     0.179,0.128,0.013,0.220,0.000:
0000
0000
0001
0001
,
0001
0000
1000
1000
,
1000
0000
0010
0010
,
0010
0000
0100
0000
,
0002
0000
0000
0003
,
2000
0000
0000
3000
,
0010
0000
0010
0010
,
0020
0000
0000
0030
,
0100
0000
0100
0100
,
0200
0000
0000
0300
,
2002
0000
0000
0000
,
0000
0000
0000
0000
,
3003
0000
1000
1000
,
1000
0000
0000
0000
,
0010
0000
0100
0100
,
0100
0000
0100
0000
,
0000
0000
0010
0010
,
0010
0000
0010
0000
,
0020
0000
0000
0000
,
0030
0000
0000
0000
,
0000
1000
1000
0000
,
2000
0000
3000
0001
,
0001
0000
0001
0001
,
0002
0003
0100
0000
,
0000
0010
0010
0000
,
0010
0000
0100
0100
,
0200
0000
0000
0000
,
0300
0000
0000
0000
,
0000
0001
0001
0000
,
0001
0000
0001
0000
,
0001
0000
1000
0000
,
1000
0000
1000
0000
,
0000
0010
0010
0000
,
0000
0100
0100
0000
,
0020
0000
0000
0000
,
0030
0000
0000
0000
,
1000
0000
1000
0000
,
1000
0000
0010
0010
,
0010
0000
0100
0000
,
0200
0000
0300
0000
,
0001
0000
0001
0000
,
0001
0000
0100
0100
,
0100
0000
0010
0000
,
0020
0000
0030
0000
,
0100
0000
0100
0000
,
0100
0000
0010
0010
,
0010
0000
1000
1000
,
1000
0000
0002
0003
,
0010
0000
0010
0000
,
0010
0000
0100
0100
,
0200
0000
0000
0000
,
0300
0000
0010
0010
,
0020
0000
0000
0000
,
0000
0000
0030
0000
,
0002
0003
2000
3000
,
0002
0003
0020
0030
,
0200
0300
2000
3000
,
2000
3200
0320
0032
,
2003
0000
0000
3000
,
0002
0000
0000
0003
,
0100
0000
0100
0100
,
0200
0000
0000
0300
,
0010
0000
0010
0010
,
0020
0000
0000
0030
,
0220
0000
0000
0000
,
0000
0000
0000
0000
,
0330
1000
1000
0000
,
2000
0000
0000
3000
0000
0000
0100
0000
,
0100
0000
0010
0010
,
0010
0000
0001
0001
,
0000
1000
1000
0000
,
1000
0000
1000
0000
,
2000
0000
0000
0000
,
3000
0000
0000
0000
,
0000
0001
0001
0000
,
0001
0000
0001
0000
,
0001
0000
0100
0100
,
0100
0000
0001
0001
,
0000
1000
1000
0000
,
0000
0001
0001
0000
,
0020
0000
0000
0000
,
0030
0000
0000
0000
,
0000
0001
0001
0000
,
1000
0000
1000
0000
,
1000
0000
0010
0000
,
0010
0000
0010
0000
,
0000
0100
0100
0000
,
0000
0001
0001
0000
,
0002
0000
0000
0000
,
0003
0000
0000
0000
,
1000
0000
0001
0000
,
1000
0000
0010
0010
,
0020
0030
0100
0100
,
0200
0300
0002
0003
,
1000
0000
0100
0000
,
1000
0000
0001
0001
,
0001
0000
0100
0100
,
0200
0000
0300
0000
,
0010
0000
0100
0000
,
0010
0000
1000
1000
,
2000
3000
0010
0010
,
0010
0000
0100
0000
,
0001
0000
0010
0000
,
0001
0000
1000
1000
,
2000
0000
0000
3000
,
0020
0000
0000
0000
,
1030
0000
1000
1000
1000
0000
0001
0001
,
0001
0000
0100
0000
0010
0010
0010
0000
,
1000
0000
0100
0100
0100
0000
0010
0010
,
0010
0002
2000
3003
,
0001
0000
0010
0000
,
0100
0000
1000
1000
,
1000
0000
0001
0001
,
0002
0000
0003
0000
,
1000
0000
0100
0000
,
0010
0000
0001
2000
,
0002
0000
0000
0000
,
3003
0000
1000
0002
,
0200
0000
0000
0000
0000
0000
0000
0303
,
0001
0010
0100
1000
,
2002
0000
0000
0000
,
3003
0000
0000
0000
;

//---------------dance-single - Novice----------------
#NOTES:
     dance-single:
     Ace Of Hearts (2008):
     Beginner:
     1:
     0.099,0.102,0.004,0.131,0.000:
0000
0000
1000
0000
,
1000
0000
0001
0000
,
0001
0000
0100
0000
,
0100
0000
0010
0000
,
2000
0000
0000
3000
,
0002
0000
0000
0003
,
1000
0000
0000
0000
,
2000
0000
0000
3000
,
0001
0000
0000
0000
,
0002
0000
0000
0003
,
0200
0000
0000
0000
,
0000
0000
0000
0000
,
0300
0000
0000
0000
,
0001
0000
0000
0000
,
0001
0000
0000
0000
,
0001
0000
0000
0000
,
0000
0000
0000
0000
,
1000
0000
0000
0000
,
2000
0000
3000
0000
,
0000
0000
0000
0000
,
0000
0000
0000
0000
,
0010
0000
0000
0000
,
0010
0000
0000
0000
,
0010
0000
0000
0000
,
0000
0000
0100
0000
,
0000
0000
0200
0000
,
0300
0000
0000
0000
,
0000
0000
0000
0000
,
1000
0000
0000
0000
,
1000
0000
0000
0000
,
1000
0000
0000
0000
,
1000
0000
0000
0000
,
0001
0000
0000
0000
,
0001
0000
0000
0000
,
0002
0000
0000
0000
,
0003
0000
0000
0000
,
1000
0000
0000
0000
,
1000
0000
0000
0000
,
1000
0000
0000
0000
,
0000
0000
0000
0000
,
0001
0000
0000
0000
,
0001
0000
0000
0000
,
0001
0000
0000
0000
,
0200
0000
0300
0000
,
0010
0000
0000
0000
,
0010
0000
0000
0000
,
0010
0000
0000
0000
,
0010
0000
0000
0000
,
1000
0000
0000
0000
,
1000
0000
0000
0000
,
2000
0000
3000
0000
,
0000
0000
0000
0000
,
0002
0000
0000
0000
,
0003
0000
0000
0000
,
1000
0000
0001
0000
,
1000
0000
0001
0000
,
0200
0300
0020
0030
,
2000
0000
0002
3003
,
2000
0000
0000
3000
,
0002
0000
0000
0003
,
0100
0000
0000
0000
,
0200
0000
0000
0300
,
0010
0000
0000
0000
,
0020
0000
0000
0030
,
0200
0000
0000
0000
,
0000
0000
0000
0000
,
0300
0000
0000
0000
,
0001
0000
0000
0000
,
0001
0000
0000
0000
,
0001
0000
0000
0000
,
1000
0000
0000
0000
,
1000
0000
0000
0000
,
2000
0000
3000
0000
,
0000
0000
0000
0000
,
0001
0000
0000
0000
,
0001
0000
0000
0000
,
0001
0000
0000
0000
,
0100
0000
0000
0000
,
0100
0000
0000
0000
,
0100
0000
0000
0000
,
0002
0000
0003
0000
,
0020
0000
0030
0000
,
0001
0000
0000
0000
,
0001
0000
0000
0000
,
0001
0000
0000
0000
,
1000
0000
0000
0000
,
0010
0000
0000
0000
,
0100
0000
0000
0000
,
0020
0000
0000
0000
,
0030
0000
0000
0000
,
1000
0000
1000
0000
,
1000
0000
0000
0000
,
0001
0000
0000
0000
,
0002
0000
0003
0000
,
0010
0000
0010
0000
,
0010
0000
0000
0000
,
0100
0000
0000
0000
,
0200
0000
0300
0000
,
1000
0000
1000
0000
,
1000
0000
0000
0000
,
0001
0000
0000
0000
,
0001
0000
0000
0000
,
0100
0000
0100
0000
,
0100
0000
0000
0000
,
0020
0000
0000
0030
,
0010
0010
0010
0000
,
1000
1000
1000
0000
,
0001
0000
0010
0010
,
0010
0000
0100
0000
,
1000
1000
2000
3000
,
0001
0000
0001
0000
,
0001
0000
0000
0000
,
0100
0000
0000
0000
,
0002
0000
0003
0000
,
0010
0000
0010
0000
,
0010
0000
0100
0100
,
0200
0000
0000
0000
,
0300
0000
1000
1000
,
2000
0000
0000
0000
,
3001
0000
1000
0000
,
1001
0000
0000
0000
;

//---------------dance-single - Medium----------------
#NOTES:
     dance-single:
     Ace Of Hearts (2008):
     Medium:
     6:
     0.335,0.310,0.000,0.314,0.081:
0000
0000
0000
0000
1000
0100
1000
0000
,
0001
0000
1000
0010
1000
0000
0001
0010
,
0002
0000
0103
0000
0010
1000
0020
0000
,
0130
0000
0001
0100
0002
0000
0000
0000
,
1003
0000
0000
1000
0000
0000
1000
0000
0000
0000
0001
0000
0001
0000
0000
0000
,
0010
0000
0000
0010
0000
0000
0010
0000
0000
0000
0001
0000
0001
0000
0000
0000
,
1000
0000
0001
0010
0000
0001
0100
0001
,
2000
0000
0000
3000
,
0010
0000
1000
0001
0000
1000
0100
1000
,
0002
0000
0000
0003
,
4000
0400
0000
0000
0000
0000
0000
0000
0000
0000
0000
0000
0000
0000
0000
0000
,
0000
0000
0000
0000
0000
0000
0000
3300
,
0000
0001
1000
0001
0100
0000
0001
0000
,
2000
0000
3001
0100
0000
0002
0000
1003
,
0100
0000
0000
1000
0001
0000
0100
0000
,
0002
0000
1003
0010
0000
1000
0001
0000
,
0000
1000
0020
0000
1030
0000
0001
0100
,
0000
0000
0010
1000
0000
0001
0000
0200
,
0000
0000
0000
0000
,
0300
0000
0000
0000
,
0000
0001
0010
0000
0001
0000
1000
0000
,
0020
0000
0130
0001
0000
2000
0000
3001
,
0100
0000
0000
0001
1000
0000
0100
0000
,
2000
0000
3001
0010
0000
0001
0100
0000
,
0000
0010
1000
0000
0001
0000
1000
0010
,
0000
1000
0001
0000
0100
0000
0001
0000
,
0020
0000
0000
0000
,
0030
0000
0000
0000
,
0000
0001
0001
0000
0200
0000
0301
0000
,
2000
0000
3001
0100
0000
0001
0000
1000
,
0000
0000
0000
0001
1000
0002
0000
0013
,
0000
0001
0100
0002
0000
1003
0010
1000
,
0000
0000
0010
0000
0010
0000
0000
0200
0000
0000
0301
0000
0000
0000
0000
0000
,
0000
0000
1000
0000
2000
0000
0000
3001
0000
0000
0000
0000
1000
0000
0001
0000
,
0020
0000
0000
0000
,
0030
0000
0000
0000
0000
0001
1000
0001
,
1000
0000
0000
0010
0000
0000
1000
0000
0020
0000
0000
0000
1030
0000
0000
0000
,
0100
0000
0000
0100
0000
0000
0000
0000
1000
0000
0001
0000
1000
0000
0000
0000
,
0100
0000
0000
1000
0100
0000
1000
0000
,
0002
0000
0000
1003
0000
0000
0100
0000
0100
0000
0000
0000
0000
0000
1000
0000
,
0001
0000
0000
0100
0000
0000
0001
0000
1000
0000
0000
0000
0200
0000
0000
0000
,
1300
0000
0000
1000
0000
0000
0000
0000
0001
0000
0100
0000
0002
0000
0000
0000
,
1003
0000
0000
0000
0000
0000
0001
0000
0100
0000
0000
0010
0000
0000
0100
0000
,
0002
0000
0000
0000
0003
1000
1000
0000
,
0010
0000
0000
1000
0000
0000
0001
0000
2000
0000
0000
0000
3001
0000
0000
0000
,
0100
0000
0000
0100
0000
0000
0000
0000
0001
0000
0000
0000
1000
0000
0010
0000
,
1000
0000
0000
0001
2000
0000
3100
0000
,
0010
0000
0000
0010
0000
0000
0010
0000
0010
0000
0000
0000
0000
0000
0001
0000
,
1000
0000
0000
0010
0000
0000
1000
0000
0002
0000
0000
0000
0103
0000
0000
0000
,
0010
0000
0000
0010
0000
0000
0000
0000
1000
0000
0001
0000
1000
0000
0000
0000
,
0001
1000
0020
0000
0000
0000
0000
0000
,
0030
0000
0000
0000
1000
0001
0100
0001
,
2000
3200
0000
0000
,
0000
0000
0000
0300
,
2000
0000
0000
3000
0002
0000
0000
0003
,
2000
0000
0000
3000
0020
0000
0000
0030
,
0200
0000
0000
0300
0002
0000
2003
0000
,
3020
0230
0302
2003
,
3001
0000
0000
0001
0000
0000
0001
0000
0000
0000
0100
0000
0100
0000
0000
0000
,
0010
0000
0000
0010
0000
0000
0010
0000
0000
0000
1000
0000
1000
0000
0000
0000
,
0001
0000
1000
0010
0000
1000
0001
1000
,
0200
0000
0000
0300
,
1000
0000
0001
0010
0000
0001
1000
0001
,
0020
0000
0000
0030
,
0004
0040
0000
0000
0000
0000
0000
0000
0000
0000
0000
0000
0000
0000
0000
0000
,
0000
0000
0000
0000
0000
0000
0000
0033
,
0000
0001
1000
0000
0010
0000
1000
0000
,
0001
0000
1000
0100
0000
2000
0000
3001
,
0100
0000
0000
0001
0010
0000
0001
0000
,
2000
0000
3001
0100
0000
0010
0100
0000
,
0000
0001
1000
0000
0001
1000
0010
1000
,
0000
0000
0001
1000
0000
0010
0000
0200
,
0000
0000
0000
0000
,
0300
0000
0000
0000
,
0000
0001
1000
0000
0010
1000
0010
0000
,
0100
0000
0001
0100
0000
0020
0000
1030
,
0001
0000
0000
1000
0010
0000
0100
0000
,
0002
0000
1003
0010
0000
1000
0100
0000
,
0000
1000
0001
0000
0100
0000
0001
0010
,
0000
0001
1000
0000
0010
0000
1000
0000
,
0200
0000
0000
0000
,
0300
0000
0000
0000
,
0000
1000
1000
0000
0001
0000
0100
0000
,
0010
0000
1000
0001
0000
1000
0000
0100
,
0000
0000
0000
1000
0001
2000
0000
3020
,
0000
1030
0001
2000
0000
3001
0100
0010
,
0000
0000
1000
0000
1000
0000
0000
0002
0000
0000
0013
0000
0000
0000
0000
0000
,
0000
0000
0001
0000
0001
0000
0000
1000
0000
0000
0001
0000
0100
0000
0000
0000
,
0020
0000
0000
0000
,
0030
0000
0000
0000
0000
1000
0100
1000
,
0001
0000
0000
0100
0000
0000
0001
0000
2000
0000
0000
0000
3001
0000
0000
0000
,
0010
0000
0000
0001
0000
0000
0000
0000
1000
0000
0010
0000
2000
0000
0000
0000
,
3100
0000
0000
0010
0010
0000
0001
0000
,
0100
0000
0000
0100
0000
0000
0100
0000
0100
0000
0000
0000
0000
0000
0001
0000
,
0001
0000
0000
1000
0000
0000
0100
0000
0200
0000
0000
0000
1300
0000
0000
0000
,
0001
0000
0000
0001
0000
0000
0000
0000
1000
0000
0100
0000
2000
0000
0000
0000
,
3001
0000
0000
0000
0000
0000
1000
0000
1000
0000
0000
0010
0000
0000
1000
0000
,
0200
0000
0000
0000
0300
1000
1000
0000
,
0001
0000
0000
0100
0000
0000
0001
0000
2000
0000
0000
0000
3100
0000
0000
0000
,
0010
0000
0000
0010
0000
0000
0000
0000
0001
0000
1000
0000
0002
0000
0000
0000
,
0103
0000
0000
0001
2000
0000
3100
0000
,
1000
0000
0000
1000
0000
0000
1000
0000
1000
0000
0000
0000
0000
0000
0001
0000
,
0100
0000
0000
0100
0000
0000
0010
0000
2000
0000
0000
0000
3001
0000
0000
0000
,
1000
0000
0000
0010
0000
0000
0000
0000
1000
0000
0001
0000
1000
0000
0000
0000
,
0001
0100
0002
0000
0000
0000
0003
0000
,
0010
0000
0000
0010
0000
0000
0010
0000
0000
0000
0100
0000
0100
0000
0000
0000
,
1000
0001
1000
0010
1000
0000
0001
0100
,
0001
0000
1000
0010
1000
0001
1000
0000
,
0001
0100
0001
1000
0001
0010
0001
1000
,
0001
0000
1000
0000
0200
0000
0300
1000
,
1000
0000
0000
0001
0000
0000
1000
0000
2000
0000
0000
0000
3010
0000
0000
0000
,
0100
0000
0000
0100
0000
0000
0000
0000
0001
0000
0000
0000
1000
0000
0010
0000
,
1000
0000
0000
0001
1000
0000
0100
0000
,
0010
0000
0000
0010
0000
0000
0010
0000
0010
0000
0000
0000
0000
0000
0001
0000
,
0001
0000
0000
1000
0000
0000
0001
0000
0200
0000
0000
0000
0310
0000
0000
0000
,
1000
0000
0000
1000
0000
0000
0000
0000
0001
0000
0100
0000
0001
0000
1000
0000
,
0001
2000
0200
0000
0000
0000
0000
0000
,
3300
0000
0000
0000
1000
0001
0100
0001
,
0020
0002
0000
0033
,
0001
1000
0001
0000
1000
0001
0100
0001
,
2000
0000
0000
0000
,
0000
0000
0000
0000
,
3000
0000
0000
0000
;

//---------------dance-single - Hard----------------
#NOTES:
     dance-single:
     Ace Of Hearts (2008):
     Hard:
     9:
     0.657,0.828,0.237,0.653,0.456: // measure 1
0000
0000
0000
0000
0000
0000
0000
0000
0000
0000
1000
0000
0100
0000
1000
0000
0001
0000
1000
0200
0000
0000
1300
0000
0001
0000
0100
0000
0001
0000
0010
0000
,  // measure 2
0001
0000
1000
0020
0000
0000
0030
0000
1000
0000
0100
0000
1000
0000
0010
0000
0200
0000
0000
0000
0300
0000
0001
0000
1000
0000
0100
0000
0010
0000
0001
0000
,  // measure 3
2000
0000
0000
3020
0000
0000
0130
0000
0002
0000
0000
0000
0003
0000
1000
0100
2000
0000
3001
0100
0000
0000
0001
0000
0010
0000
0100
0000
1000
0000
0001
0000
,  // measure 4
0200
0000
0301
0010
0000
0000
0000
0000
0001
0000
1000
0000
0010
0000
0100
0001
0100
0000
0002
0000
2000
0000
0000
0000
0000
0000
0000
0000
0000
0000
3003
0000
,  // measure 5
1000
0010
0000
1000
0010
0000
1000
0010
0000
1000
0010
0000
1000
0001
1000
0100
,  // measure 6
0010
0001
0000
0010
0001
0000
0010
0001
0000
0010
0001
0000
0010
0001
1000
0010
,  // measure 7
0100
0000
0001
1000
0000
0010
0100
0010
,  // measure 8
0100
0001
0100
0000
0001
0000
1000
0100
1000
0100
1000
0000
0001
0000
0100
0000
,  // measure 9
0010
0000
1000
0010
0000
1000
0100
1000
,  // measure 10
0001
0100
0001
0100
0001
0000
1000
0000
0100
0000
0010
0000
0001
0000
1000
0000
,  // measure 11
0040
4000
0000
0000
0000
0000
0000
0000
0000
0000
0000
0000
0000
0000
0000
0000
0000
0000
0000
0000
0000
3030
0000
0000
,  // measure 12
0004
0400
0000
0000
0000
0000
0000
0000
0000
0000
0000
0000
0000
0000
0000
0000
0000
0000
0000
0000
0000
0000
0000
0000
,  // measure 13
0303
0001
1000
0010
0100
0001
1000
0100
,  // measure 14
0120
0000
0031
1000
0000
0020
0000
0130
,  // measure 15
0101
0000
0000
1000
0100
0010
0001
1000
,  // measure 16
1002
0000
0013
0200
0000
1300
0010
0000
,  // measure 17
0000
0000
1000
0000
0002
0000
0013
0200
0000
0000
1300
0000
0001
0000
0021
0000
,  // measure 18
0000
0030
0100
1000
0000
0010
0000
0102
,  // measure 19
0000
1003
0100
0010
0001
1000
0001
0100
,  // measure 20
0010
1000
0100
0010
0100
1000
0001
0100
,  // measure 21
0110
0000
0010
0000
1000
0000
0100
0010
0000
0000
0100
0000
1000
0000
0001
0000
,  // measure 22
0020
0000
0031
0100
0000
0020
0000
1030
,  // measure 23
1100
0000
0000
1000
0001
0100
0010
1000
,  // measure 24
0002
0000
0013
0200
0000
1300
1010
0000
,  // measure 25
0000
0000
0010
0000
0200
0000
0301
2000
0000
0000
3010
0000
0100
0000
0101
0000
,  // measure 26
0000
0000
0001
0000
0010
0000
0100
0000
2000
0000
3001
0000
0200
0000
0310
2000
,  // measure 27
0000
3001
0100
0010
1000
0001
0010
0100
,  // measure 28
0010
0001
0010
0001
1000
0001
1000
0001
0100
0001
0100
0001
1000
0010
1000
0010
,  // measure 29
1000
0000
0100
0000
1000
0000
0001
0200
0000
0000
0310
0000
1000
0000
0001
0000
,  // measure 30
0201
0000
0301
0020
0000
0130
0000
2200
,  // measure 31
0000
3300
0000
1000
0001
0200
0000
0320
,  // measure 32
0000
1030
0001
0200
0000
0301
1000
0010
,  // measure 33
0000
0000
1000
0001
0020
0000
0130
2000
0000
3000
1010
0000
0000
0000
0000
0000
,  // measure 34
0000
0000
0010
0000
2000
0000
3100
0010
0000
0000
0001
0000
1000
0000
0100
0000
,  // measure 35
0020
0000
0000
0030
,  // measure 36
0001
0100
0001
0100
0010
1000
0010
1000
0100
0000
1000
0000
0100
0000
0010
0000
,  // measure 37
0011
0000
0001
0200
0000
0000
0310
0000
1000
0000
0001
0000
1000
0000
0100
0000
,  // measure 38
1100
0000
1000
0002
0000
0000
0003
0000
1000
0000
0010
0000
0100
0000
0001
0000
,  // measure 39
0200
0000
0300
0001
0020
0130
1000
0001
,  // measure 40
0201
0000
0000
0320
0000
0000
2030
0000
3200
0000
0000
0000
0300
0000
1000
0010
,  // measure 41
0200
0000
0301
2000
0000
0000
3100
0000
0010
0000
0001
0000
0100
0000
0010
0000
,  // measure 42
1010
0000
1000
0100
0000
0000
0000
0000
0010
0000
0001
0000
1000
0000
0010
0000
,  // measure 43
0200
0000
0000
0000
0300
0000
0001
0010
0100
0000
0000
0010
0000
0000
0001
0000
,  // measure 44
2000
0000
0000
0000
3001
0100
0001
0100
0010
1000
0010
1000
0001
0100
0001
0100
,  // measure 45
0010
0000
1000
0001
0000
0000
0100
0000
0010
0000
0100
0000
0001
0000
1000
0000
,  // measure 46
1100
0000
0100
0010
0000
0000
0000
0000
0001
0000
1000
0000
0100
0000
0010
0000
,  // measure 47
0200
0000
0300
1000
0001
0100
0010
1000
,  // measure 48
0002
0000
0000
0013
0000
0000
0100
0000
2200
0000
0000
0000
3300
0000
1000
0001
,  // measure 49
0020
0000
0031
1000
0000
0000
0010
0000
0100
0000
0001
0000
1000
0000
0100
0000
,  // measure 50
0110
0000
0100
1000
0000
0000
0000
0000
0001
0000
1000
0000
0100
0000
0010
0001
,  // measure 51
2000
3020
0200
0000
0000
0000
0000
0000
,  // measure 52
0330
0000
0000
0000
0001
1000
0100
0010
,  // measure 53
0002
2000
0000
3003
,  // measure 54
1000
0001
0100
0010
1000
0001
0100
0010
1000
0100
0010
0001
1000
0010
0100
0002
,  // measure 55
2000
0000
0000
0000
0000
0000
0000
3003
2200
0000
0000
0000
0001
0000
0010
3300
,  // measure 56
2002
0000
0000
0000
0000
0000
0000
3003
0202
0000
0000
0000
0010
0000
0000
0303
,  // measure 57
2020
0000
0000
0000
0000
0000
0000
3030
2002
0000
0000
0000
0020
0000
0030
3003
,  // measure 58
0002
0000
0000
0023
0000
0000
0130
0000
0020
0000
0000
0230
0000
0000
1300
0000
0002
0000
0000
0023
0000
0000
0130
0000
2000
0000
0000
3002
0000
0000
0013
0000
,  // measure 59
0001
0100
0000
0001
0100
0000
0001
0100
0000
0001
0100
0000
0001
1000
0001
0010
,  // measure 60
0001
1000
0000
0100
1000
0000
0100
1000
0000
0100
1000
0000
0100
1000
0001
1000
,  // measure 61
0010
0000
0100
0101
0000
0001
1001
1000
,  // measure 62
0001
0100
0010
0000
1000
0000
0001
0010
0100
0010
0001
0000
1000
0000
0010
0000
,  // measure 63
0110
0000
0100
0101
0000
0001
1001
1000
,  // measure 64
0001
0010
0001
0010
0001
0000
1000
0001
0100
0000
0010
0000
1000
0000
0100
0000
,  // measure 65
4000
0400
0000
0000
0000
0000
0000
0000
0000
0000
0000
0000
0000
0000
0000
0000
0000
0000
0000
0000
0000
3300
0000
0000
,  // measure 66
0040
0004
0000
0000
0000
0000
0000
0000
0000
0000
0000
0000
0000
0000
0000
0000
0000
0000
0000
0000
0000
0000
0000
0000
,  // measure 67
0033
0000
0001
0000
2000
0000
3010
0200
0000
0000
0301
0000
0010
0000
0100
0000
,  // measure 68
2100
0000
3001
0200
0000
0320
0000
1030
,  // measure 69
2200
0000
0000
0000
3300
0000
0100
0010
0001
0000
0000
0000
0000
0000
0001
0000
,  // measure 70
0201
0000
0310
2010
0000
3001
0100
0000
,  // measure 71
0000
0000
0010
0000
0100
0000
0001
1000
0000
0000
0100
0000
0010
0000
0012
0000
,  // measure 72
0003
0000
0001
0020
0000
0230
0000
2300
,  // measure 73
0000
3001
0100
0010
1000
0100
0001
0100
,  // measure 74
1000
0010
0100
0001
1000
0010
0001
0010
,  // measure 75
1010
0000
1000
0000
0100
0000
0010
0002
0000
0000
1003
0000
0010
0000
0100
0000
,  // measure 76
0102
0000
1003
0100
0000
2000
0000
3001
,  // measure 77
0022
0000
0033
0001
1000
0010
0100
0001
,  // measure 78
2001
0000
3010
0200
0000
0301
1001
0000
,  // measure 79
0000
0000
1000
0000
0100
0000
0010
0002
0000
0000
1003
0000
0001
0000
0010
0000
,  // measure 80
0000
0000
0001
0000
1000
0000
0010
0200
0000
0000
0301
0000
0010
0000
0100
2000
,  // measure 81
0000
3001
0100
0010
0001
0010
1000
0100
,  // measure 82
0010
0100
0010
0100
1000
0100
1000
0100
0010
0001
0010
0001
1000
0001
1000
0001
,  // measure 83
0100
0000
0001
0000
0100
0000
0010
2000
0000
0000
3002
0000
0000
0000
1003
0000
,  // measure 84
1020
0000
0130
0002
0000
1003
0000
2200
,  // measure 85
0000
0000
3300
0000
0000
0000
1000
0000
0001
0000
0200
0000
0000
0300
0120
0000
,  // measure 86
0000
1030
0001
0200
0000
0301
2000
3100
,  // measure 87
0000
0000
0010
0001
0100
0000
0001
2000
0000
0000
3010
0000
0000
0000
0000
0000
,  // measure 88
0000
0000
0100
0000
0001
0000
1000
0200
0000
0000
0310
0000
0001
0000
1000
0000
,  // measure 89
0020
0000
0000
0030
,  // measure 90
0100
0001
0100
0001
1000
0100
1000
0100
0010
0000
0002
0000
0000
0000
1003
0000
,  // measure 91
1010
0000
0010
0100
0000
0000
0001
0000
0010
0000
1000
0000
0010
0000
0001
0000
,  // measure 92
0101
0000
0100
0010
0000
0000
0000
0000
1000
0000
0100
0000
0001
0000
0100
0000
,  // measure 93
1000
0000
0000
0010
0100
0001
1000
0100
,  // measure 94
0120
0000
0000
0032
0000
0000
2003
0000
3200
0000
0000
0000
0300
0000
1000
0010
,  // measure 95
0200
0000
0301
1000
0000
0000
0100
0000
0010
0000
0100
0000
1000
0000
0001
0000
,  // measure 96
0101
0000
0001
1000
0000
0000
0000
0000
0100
0000
0010
0000
0001
0000
1000
0000
,  // measure 97
0010
0000
0000
0000
0000
0000
0100
0000
0002
0000
0000
0013
0000
0000
0100
0000
,  // measure 98
2000
0000
0000
0000
3001
0010
0001
0010
0001
1000
0001
1000
0100
0010
0100
0010
,  // measure 99
0001
0000
1000
0001
0000
0000
0100
0000
0010
0000
0001
0000
0010
0000
1000
0000
,  // measure 100
1100
0000
0100
0010
0000
0000
0000
0000
0001
0000
0100
0000
1000
0000
0100
0000
,  // measure 101
0001
0000
0000
1000
0010
0001
0010
1000
,  // measure 102
2100
0000
0000
3020
0000
0000
0230
0000
0302
0000
0000
0000
0003
0000
1000
0100
,  // measure 103
0010
0000
0100
1000
0000
0000
0001
0000
0100
0000
1000
0000
0100
0000
0001
0000
,  // measure 104
1001
0000
1000
0100
0000
0000
0000
0000
1000
0000
0010
0000
0100
0000
0001
0000
,  // measure 105
1000
0020
0200
0000
0000
0000
0330
0000
,  // measure 106
0010
0100
0000
0001
0100
0000
0010
1000
0000
0001
1000
0000
0020
0000
0130
0000
,  // measure 107
0001
0000
1000
0200
0000
0000
1300
0000
0010
0000
0100
0000
0001
0000
1000
0000
1001
0000
0001
0200
0000
0300
0000
0000
0010
0000
1000
0000
0100
0000
0010
0000
,  // measure 108
0002
0000
0000
0000
0003
0000
1000
0000
0010
0000
0100
0000
0001
0000
1000
0000
1200
0000
0000
0320
0000
0000
0031
0000
0200
0000
0000
0000
0300
0000
0010
1000
,  // measure 109
0020
0000
1030
0100
0000
0000
1000
0000
0001
0000
0010
0000
0100
0000
1000
0000
1010
0000
0010
0200
0000
0300
0000
0000
0001
0000
1000
0000
0100
0000
0010
0000
,  // measure 110
0200
0000
0000
0000
0300
0000
1000
0100
1000
0000
0000
0010
0000
0000
2000
0000
0002
0000
0000
0000
0010
0000
0000
0000
3003
0000
0001
0000
1000
0000
0100
0000
,  // measure 111
0110
0000
0010
0001
0000
0000
1000
0000
0010
0000
0100
0000
0001
0000
1000
0000
,  // measure 112
1100
0000
0100
0010
0000
0000
0000
0000
0001
0000
0010
0000
1000
0000
0010
0000
,  // measure 113
0001
0000
0000
0100
0001
0100
1000
0100
,  // measure 114
0102
0000
0000
0023
0000
0000
0230
0000
2300
0000
0000
0000
3000
0000
0010
0100
,  // measure 115
0002
0000
0103
0010
0000
0000
1000
0000
0001
0000
0010
0000
1000
0000
0010
0000
,  // measure 116
0011
0000
0001
1000
0000
0000
0000
0000
0001
0000
1000
0000
0100
0000
0010
0001
,  // measure 117
1000
0020
0200
0000
0000
0000
0000
0000
,  // measure 118
0000
0000
0330
0000
0001
0010
0100
1000
,  // measure 119
0002
0200
0000
0303
,  // measure 120
0001
0010
0001
0010
0001
0000
1000
0100
1000
0100
1000
0000
0001
1000
0100
0010
,  // measure 121
0002
0000
0000
0000
,  // measure 122
0000
0000
0000
0000
,  // measure 123
0003
0000
0000
0000
;

//---------------dance-single - Expert----------------
#NOTES:
     dance-single:
     Ace Of Hearts (2008):
     Challenge:
     12:
     0.907,1.000,0.471,0.827,0.948: // measure 1
0000
0000
0000
0000
0000
0000
0000
0000
0000
0000
0001
0000
0100
0000
0001
0000
0021
0000
0130
1000
0000
0000
0001
0000
1000
0000
0010
0000
0100
0000
0001
0000
,  // measure 2
2001
0000
3100
0010
0000
0000
0000
0000
0002
0000
1003
0000
0010
0000
0100
0000
0202
0000
0303
0000
0000
0000
0002
0000
0013
0000
0100
0000
1000
0000
0010
0000
,  // measure 3
0210
0000
0000
0302
0000
0000
1003
0000
2200
0000
0000
0000
3300
0000
0010
0001
0201
0000
0310
1000
0000
0000
0001
0000
0010
0000
0100
0000
1000
0000
0010
0000
,  // measure 4
0210
0000
0301
0020
0000
0030
0000
0000
0001
0000
1000
0000
0010
0000
0100
0001
0102
0000
2003
0000
0400
0000
0000
0000
0000
0000
0000
0000
0000
0000
3300
0000
,  // measure 5
1000
0010
00M0
0010
0100
0M00
0100
0001
000M
0001
1000
0000
M100
0010
0M01
10M0
,  // measure 6
0010
100M
M000
1000
0100
0M00
0100
0010
00M0
0010
0001
000M
0001
1000
0010
0100
,  // measure 7
0102
0000
0000
0M00
1003
0000
1020
0000
0000
M000
0130
0000
0102
0000
0M13
0000
,  // measure 8
0100
1000
0001
0100
1000
0100
0001
0010
0100
1000
0010
0001
0010
1000
0100
0010
,  // measure 9
0012
0000
0000
00M0
1003
0000
2100
0000
0000
0M00
3010
0000
0210
0000
03M1
0000
,  // measure 10
1000
0100
0010
0001
0100
1000
0100
0001
0010
0100
1000
0010
0001
0010
1000
0001
,  // measure 11
1000
0100
1000
0100
1000
0100
0010
0100
0010
0100
0010
0100
0010
0001
0010
0001
0010
0001
0010
0100
0010
0100
0010
0100
,  // measure 12
1000
0001
1000
0001
1000
0001
0100
0001
0100
0001
0100
0001
0100
0010
0100
0010
0100
0010
0100
0001
0100
0001
0100
0001
,  // measure 13
1000
0100
0010
0001
0100
1000
0100
0001
,  // measure 14
0021
0130
1000
0001
0000
0201
0310
1000
,  // measure 15
1200
0000
0310
0002
1003
0010
0100
0001
,  // measure 16
2001
3100
0010
0012
1003
0010
0100
0001
,  // measure 17
1001
0000
1000
0000
0010
0000
0100
0002
0000
0000
1003
0000
0100
0000
0210
0000
,  // measure 18
0000
0310
0100
2000
3001
0200
0310
2000
,  // measure 19
0000
3100
0010
0001
0010
1000
0010
0001
,  // measure 20
1000
0010
0100
1000
0100
0001
0010
0100
,  // measure 21
1100
0000
1000
0000
0001
0000
0100
0020
0000
0000
1030
0000
0100
0000
0010
0000
,  // measure 22
0012
1003
0001
0100
0000
0020
0130
0001
,  // measure 23
0101
0000
0001
0010
0100
1000
0001
0100
,  // measure 24
0020
0130
0002
0023
0130
0010
0011
0001
,  // measure 25
1000
0000
0100
0000
0010
0000
0001
2000
0000
0000
3010
0000
0100
0000
0101
0000
,  // measure 26
0001
0000
0010
0000
0200
0000
1300
0002
0000
0000
0103
0000
0010
0000
1000
0002
,  // measure 27
0000
1003
0100
0010
1000
0010
0001
1000
,  // measure 28
0010
0100
0001
1000
0100
0010
0001
1000
0010
0001
0010
1000
0100
0010
0001
1000
,  // measure 29
1M10
0000
0010
0000
010M
0000
0001
0020
0000
0000
013M
0000
1000
0000
0M01
0000
,  // measure 30
0020
0000
000M
0000
2M00
0030
0002
00M0
3000
0000
M200
0000
0003
0000
230M
0000
,  // measure 31
0M00
0000
00M0
0000
000M
0000
0M20
3000
0002
M030
2000
00M0
0003
0000
020M
0000
,  // measure 32
30M0
0000
0002
M300
0020
0M03
2000
000M
0030
0M00
3020
0000
M032
0000
0103
0000
,  // measure 33
0000
0000
0010
1000
0002
0000
1003
1200
0000
0000
0310
0000
0000
0000
M0M0
0000
,  // measure 34
0000
0000
0001
0000
2000
0000
3100
0120
0000
0000
0031
0000
1000
0000
0200
0000
,  // measure 35
0040
0000
0000
0300
0031
1000
0010
0100
,  // measure 36
0001
0000
1000
0000
0100
0000
1000
0000
0010
0100
0001
1000
0100
0010
0001
1000
,  // measure 37
0010
0000
0100
0001
0000
1000
0100
0000
0010
0001
1000
0000
0010
0000
0100
0000
,  // measure 38
0102
0000
1003
0100
0000
1000
0001
0000
0100
0010
1000
0000
0001
0000
0010
0000
,  // measure 39
0210
0000
1300
0001
0000
0100
0010
0000
1000
0010
0100
0000
0001
0000
0100
0000
,  // measure 40
0120
0000
1030
0100
0000
1000
0010
0000
0200
0000
0301
0010
0100
1000
0010
0100
,  // measure 41
0102
0000
1003
0010
0000
0100
0001
0000
0010
0100
1000
0000
0001
0000
0100
0000
,  // measure 42
0210
0000
0301
1000
0000
0010
0100
0000
0001
1000
0100
0000
0010
0000
0001
0000
,  // measure 43
2001
0000
3010
0100
0000
0001
0010
0100
2000
0000
3000
1010
0000
0000
0100
0000
,  // measure 44
0001
1000
0100
0001
0100
1000
0010
0100
0001
1000
0010
0001
0010
1000
0100
0010
,  // measure 45
0012
0000
1003
0010
0000
0100
0001
0000
1000
0100
0010
0000
0001
0000
0100
0000
,  // measure 46
0210
0000
0301
1000
0000
0010
0100
0000
0001
1000
0010
0000
0100
0000
0001
0000
,  // measure 47
0021
0000
0130
1000
0000
0001
0100
0000
0010
1000
0100
0000
1000
0000
0001
0000
,  // measure 48
0201
0000
0310
1000
0000
0100
0010
0000
0021
0000
0130
1000
0001
1000
0010
0100
,  // measure 49
0201
0000
0310
1000
0000
0001
0100
0000
0001
0010
0100
0000
1000
0000
0001
0000
,  // measure 50
0201
0000
0310
1000
0000
0001
0010
0000
0100
1000
0001
0000
0100
0000
0010
1000
,  // measure 51
0002
0023
0400
0000
0000
0000
0000
0000
,  // measure 52
0000
0000
0330
0000
2000
3020
0230
0301
,  // measure 53
0010
0100
1000
0001
0100
1000
0100
0001
0010
0100
1000
0001
0010
1000
0010
0001
,  // measure 54
1000
0010
0100
0001
1000
0010
0100
0001
0100
1000
0100
0001
1000
0001
0010
0100
,  // measure 55
2200
0000
0000
0000
0000
0000
0000
0000
0000
0000
0000
0000
0000
0000
3300
0000
0202
0000
0000
0000
0000
0000
0000
0000
2000
0000
0000
3000
0020
0000
0333
0000
,  // measure 56
2020
0000
0000
0000
0000
0000
0000
0000
0000
0000
0000
0000
0000
0000
3030
0000
2200
0000
0000
0000
0000
0000
0000
0000
0010
0000
0000
0010
0000
0000
3310
0000
,  // measure 57
2002
0000
0000
0000
0000
0000
0000
0000
0000
0000
0000
0000
0000
0000
3003
0000
0202
0000
0000
0000
0000
0000
0000
0000
0020
0000
0000
0000
0000
0030
0303
0000
,  // measure 58
2001
0000
0000
3020
0000
0000
0130
0000
0102
0000
0000
2003
0000
0000
3100
0000
0120
0000
0000
0032
0000
0000
1003
0000
1020
0000
0000
0230
0000
0000
0301
0000
,  // measure 59
1000
0100
0000
1M00
0010
0000
01M0
0001
0000
100M
0100
0000
0M10
0001
1000
0010
,  // measure 60
0100
0001
0000
1M00
0100
0000
1M00
0010
0000
01M0
0001
0000
100M
0100
1000
0001
,  // measure 61
M021
0000
0000
000M
0130
0000
21M0
0000
0000
0M00
3010
0000
0210
0000
03M1
0000
,  // measure 62
1000
0010
0100
0001
1000
0100
0001
0100
1000
0010
0100
0001
1000
0010
0001
0010
,  // measure 63
2M10
0000
0000
00M0
3001
0000
M021
0000
0000
000M
0130
0000
2100
0000
3M01
0000
,  // measure 64
0100
0010
1000
0010
0001
0010
1000
0100
0010
0001
1000
0100
0001
0100
1000
0001
,  // measure 65
0100
0001
0100
0001
0100
0001
0100
0010
0100
0010
0100
0010
1000
0010
1000
0010
1000
0010
0100
0010
0100
0010
0100
0010
,  // measure 66
0100
0001
0100
0001
0100
0001
1000
0001
1000
0001
1000
0001
1000
0100
1000
0100
1000
0100
1000
0001
1000
0001
1000
0001
,  // measure 67
0010
0000
0100
0000
2000
0000
3001
0200
0000
0000
0310
0000
1000
0000
0100
0000
,  // measure 68
0210
1300
0001
0100
0000
0010
1000
0001
,  // measure 69
0201
0000
0310
0000
1000
0000
0001
0010
0110
0000
0000
MMMM
0000
0000
0100
0000
,  // measure 70
2100
3001
0100
0120
1030
0001
0101
0000
,  // measure 71
1010
0000
0010
0000
0100
0000
0001
2000
0000
0000
3100
0000
0010
0000
0M21
0000
,  // measure 72
0000
000M
0000
0000
2000
0030
0002
0000
3000
0000
0200
M000
0003
0000
2000
000M
,  // measure 73
0300
3M01
0100
0010
1000
0100
0010
0001
,  // measure 74
1000
0010
0100
0001
0100
0010
1000
0100
,  // measure 75
0011
0000
0010
0000
0100
0000
1000
1020
0000
0000
0031
0000
0010
0000
1000
0000
,  // measure 76
1200
0310
0001
0100
0000
0010
2010
3001
,  // measure 77
0100
0001
0010
0100
1000
0001
1000
0010
,  // measure 78
0MM2
0000
M000
0000
2M00
0003
02M0
0000
300M
0000
M302
0000
0M13
0000
0100
0000
,  // measure 79
2100
0000
3001
0000
0100
0000
0010
2010
0000
0000
3001
0000
0100
0000
0010
0000
,  // measure 80
00M0
0000
0010
0000
1000
0000
0001
0200
0000
0000
0310
0000
1000
0000
0001
0200
,  // measure 81
0000
0310
1000
0100
0001
0100
1000
0001
,  // measure 82
0100
0010
1000
0100
0001
0100
1000
0001
0100
0010
0001
0010
1000
0100
0010
0001
,  // measure 83
0101
0000
M010
0000
1M00
0000
0001
0020
0000
000M
0200
M000
0030
0000
20M0
0300
,  // measure 84
002M
0000
3M00
0000
M002
0030
2000
00M0
0003
0000
0200
000M
3000
0000
0302
M000
,  // measure 85
0000
0M00
0003
0000
0000
0000
1000
0000
0100
0000
0020
0000
0000
0030
0012
0000
,  // measure 86
0000
1003
0010
0002
0000
0013
2010
3100
,  // measure 87
0000
0000
0010
0001
0201
0000
0310
0200
0000
0000
1300
0000
0000
0000
0000
0000
,  // measure 88
0000
0000
0200
0000
0301
0000
1000
0100
0000
0M00
0100
0000
1000
0000
0002
0000
,  // measure 89
0040
0000
0000
0003
0130
1000
0010
0100
,  // measure 90
0001
0000
1000
0000
0010
0000
0100
0000
0001
0010
0100
1000
0010
0001
0010
1000
,  // measure 91
1200
0000
0310
0001
0000
0001
0100
0000
0010
1000
0100
0000
0010
0000
0100
0000
,  // measure 92
2100
0000
3010
0100
0000
0001
0010
0000
0100
1000
0010
0000
0100
0000
0001
0000
,  // measure 93
0201
0000
0310
1000
0000
1000
0100
0000
0010
0001
1000
0000
0010
0000
0100
0000
,  // measure 94
0102
0000
0013
0100
0000
0100
1000
0000
0010
0100
0001
1000
0100
0010
0001
1000
,  // measure 95
1020
0000
0130
0001
0000
1000
0100
0000
0010
0001
0100
0000
0010
0000
0100
0000
,  // measure 96
0102
0000
0013
0100
0000
1000
0010
0000
0100
0001
1000
0000
0100
0000
0010
0000
,  // measure 97
0021
0000
0130
1000
0000
0001
1000
0010
0100
0000
0100
0001
0000
0001
1000
0000
,  // measure 98
0200
0000
1300
0010
1000
0001
0100
1000
0100
0001
0010
0100
1000
0010
0001
0010
,  // measure 99
2010
0000
3001
0100
0000
0010
1000
0000
0100
0010
0001
0000
1000
0000
0010
0000
,  // measure 100
0210
0000
0301
1000
0000
1000
0010
0000
0010
0100
0001
0000
1000
0000
0100
0000
,  // measure 101
0120
0000
0130
1000
0000
0010
0100
0000
0001
0010
0100
0000
1000
0000
0010
0000
,  // measure 102
0210
0000
0301
1000
0000
1000
0010
0000
0200
0000
0301
0010
0100
1000
0010
0100
,  // measure 103
0102
0000
0013
0100
0000
1000
0001
0000
0100
0010
1000
0000
0001
0000
0010
0000
,  // measure 104
2100
0000
3010
0100
0000
0001
1000
0000
0100
0010
0001
0000
1000
0000
0010
0000
,  // measure 105
0210
0302
0020
0000
0003
0031
1000
0010
,  // measure 106
01M0
0001
0000
010M
1000
0000
M100
0001
0000
100M
0100
0000
M010
0001
1000
0010
,  // measure 107
0210
0000
0301
1000
000M
0100
00M1
0000
010M
1000
0001
0000
0100
0000
0M10
0000
2010
0000
31M0
0001
0000
010M
1000
0000
M010
0100
0001
0000
100M
0M00
0010
0000
,  // measure 108
0210
0000
0301
0010
0000
01M0
1000
0000
1000
0010
0001
0M00
0010
0000
100M
0000
1200
0000
00M0
M002
0000
0300
2003
0000
0M20
000M
3031
0000
0101
M000
0100
001M
,  // measure 109
2010
0000
3001
01M0
0000
100M
0100
0000
00M1
1000
0100
0000
M010
0000
0M01
0000
20M1
0000
301M
0100
0000
0001
10M0
0000
0100
M010
0001
0000
1M00
0000
001M
0000
,  // measure 110
0210
0000
03M1
0000
1M00
000M
0100
00M1
M200
0000
0300
011M
0000
0000
02M0
0000
2000
0000
0000
0000
0011
0000
0000
0000
3300
0000
1000
0000
0002
0000
0103
0000
,  // measure 111
0120
0000
1030
0001
0000
1000
0100
0000
0010
0001
0100
0000
0010
0000
0100
0000
,  // measure 112
0102
0000
0013
0100
0000
1000
0010
0000
0100
0010
1000
0000
0001
0000
1000
0000
,  // measure 113
1200
0000
0310
0001
0000
0100
0010
0000
1000
0100
0010
0000
0001
0000
1000
0000
,  // measure 114
2010
0000
3100
0010
0000
0001
1000
0000
0010
0100
0001
0010
0100
1000
0001
0100
,  // measure 115
0210
0000
0301
1000
0000
1000
0100
0000
0010
0001
1000
0000
0010
0000
0100
0000
,  // measure 116
0102
0000
0013
0100
0000
1000
0001
0000
1000
0010
0100
0000
0102
0000
0013
0100
,  // measure 117
2100
3002
0400
0000
0000
0000
0000
0000
,  // measure 118
0000
0000
0303
0000
0120
1030
0100
0010
,  // measure 119
2001
0000
0000
0000
0040
0000
3000
0000
0130
0001
0010
0100
1000
0010
0001
0010
,  // measure 120
1000
0100
0010
0001
0100
1000
0100
0001
0010
1000
0010
0001
0010
0100
1000
0002
,  // measure 121
0200
0000
0000
0000
,  // measure 122
0000
0000
0000
0000
,  // measure 123
0303
0000
0000
0000
;
