#TITLE:Walkie Talkie Man;
#SUBTITLE:;
#ARTIST:Steriogram;
#TITLETRANSLIT:;
#SUBTITLETRANSLIT:;
#ARTISTTRANSLIT:;
#GENRE:Rock;
#CREDIT:Ace Of Hearts;
#BANNER:Walkie Talkie Man - Bn.png;
#BACKGROUND:Walkie Talkie Man - Bg.jpg;
#LYRICSPATH:;
#CDTITLE:Ace Of Hearts.png;
#MUSIC:Walkie Talkie Man.ogg;
#OFFSET:-0.470;
#SAMPLESTART:29.693;
#SAMPLELENGTH:12.000;
#SELECTABLE:YES;
#BPMS:0.000=141.000;
#STOPS:;
#BGCHANGES:;
#KEYSOUNDS:;

//---------------dance-single - AceOfHearts----------------
#NOTES:
     dance-single:
     Ace Of Hearts (2008):
     Hard:
     9:
     0.827,0.299,0.114,0.829,0.271:
0000
0000
0000
0000
,
1000
1000
0100
0010
0001
0001
0010
0100
,
1000
1000
0100
0010
0001
0001
0010
0100
,
1000
1000
0100
0010
0001
0001
0010
0100
,
1000
1000
0100
0010
0001
0001
0001
0001
,
1000
1000
0010
0100
0001
0001
0010
0100
,
1000
1000
0010
0100
0001
0001
0010
0100
,
1000
1000
0010
0100
0001
0001
0010
0100
,
1000
1000
0010
0100
0001
0001
0010
0100
,
1000
1000
1000
0010
0010
0100
0100
0001
,
0001
0010
0010
0001
0001
1000
0100
1000
,
1000
0100
1000
0100
2000
0000
3010
0000
0100
0001
0100
0001
0200
0000
0000
0310
,
0100
0010
0100
0010
0000
1000
0001
0000
0010
0000
0100
1000
0100
0000
0000
0000
,
0010
0001
0010
0000
0200
0000
0310
0000
0100
1000
0100
0000
0020
0000
0130
0000
,
1000
0010
1000
0000
0200
0000
0310
0000
0001
0100
0001
0000
0200
0000
0310
0000
,
0100
0010
0100
0000
0002
0000
1003
0000
0001
1000
0001
0000
0020
0000
0230
0000
,
2300
0000
3020
0000
0230
0000
0301
0011
,
0000
0000
2100
0000
0002
3003
0001
0010
,
0200
2300
3020
0230
,
0300
0000
0001
0010
0100
1000
0010
0200
,
0000
0010
0000
1000
1000
0010
0010
0001
,
0301
0000
2010
0000
3001
0000
0010
0100
,
2000
3002
0023
0230
,
0300
0000
1000
0010
0100
0001
0010
2100
,
0000
0001
0000
0001
0000
3001
0000
0001
,
0010
0100
1000
0010
0100
0001
0010
0010
,
0100
1000
0100
0010
0001
0100
0010
1000
,
0100
0100
0010
0001
0100
0010
1000
0100
,
0020
0000
0000
0000
0030
0000
0000
1000
,
1000
0000
0100
0010
0100
0000
0010
0000
0001
0000
0100
0001
0100
0000
0010
0000
,
1000
0000
0100
0010
0100
0000
1000
0000
0100
0000
0010
0001
0010
0000
0100
0000
,
1000
0000
0010
0000
0100
0000
0001
0100
0002
0000
1000
0000
1003
0000
1000
0100
,
1000
0000
0010
0000
0100
0000
0001
0100
0001
0000
0010
0000
0100
0000
1000
0100
,
1000
0000
0010
0000
0100
0000
0001
0100
0001
0000
1000
0000
1000
0000
0100
0000
,
1000
0010
1000
0010
2000
0000
3100
0000
0010
0001
0010
0001
0020
0000
0130
0000
,
1000
0100
1000
0000
0010
0000
0100
0000
0001
0010
0002
0000
0203
0000
0320
0000
,
2030
0000
3200
0000
0320
0000
0031
0101
,
0000
0000
2010
0000
3200
0000
0310
0001
,
0200
0310
0020
0130
,
0000
0000
0001
0010
0100
0010
0100
2000
,
0000
3020
0000
0001
0001
0100
0100
1000
,
1030
0000
2010
0000
0200
3300
0010
0001
,
0200
0320
2030
3200
,
0300
0000
0010
0001
0100
0010
1000
0200
,
0000
0010
0000
0010
0000
0010
0000
0310
,
0001
0100
0010
1000
0100
0010
0001
0100
,
0010
1000
0100
0010
0001
0100
0010
1000
,
0100
0010
0100
1000
0010
0100
0001
1000
,
0020
0000
0000
0000
,
0030
0000
2000
0000
3200
0000
0310
0001
,
0020
0030
0020
0000
0230
0000
2300
0000
,
3000
0000
1000
0100
0010
0010
0001
0200
,
0000
0300
0000
0000
0000
0000
0000
0000
,
0000
0000
0200
0000
0320
0000
1030
0100
,
2000
3020
0230
0302
,
0003
0000
1000
1000
0010
0100
0001
0002
,
0000
0000
0010
0010
0100
0100
1000
1003
,
0001
0010
0001
0000
1000
0100
1000
0000
0010
0100
0010
0000
0100
0001
0100
0000
,
0010
1000
0010
0000
1000
0100
1000
0000
0010
0100
0010
0000
0100
0001
0100
0000
,
0010
1000
0010
1000
0020
0000
0030
0000
0100
0001
0100
0001
0200
0000
0300
0010
,
0100
0010
0100
0010
0000
1000
0001
0000
0100
0000
0001
0100
0002
0000
0003
0000
,
0000
0000
2200
3300
0202
0303
0010
1000
,
0200
0320
0032
0203
,
0300
0000
0010
0010
1000
0100
0010
0002
,
0000
0010
0000
1000
0000
0100
0000
0013
,
0100
0100
1000
0010
0100
0100
0010
1000
,
0100
0100
0010
0001
0100
0100
0010
1000
,
0100
0100
0010
0100
1000
1000
0010
0100
,
0002
0000
0013
0100
2000
0000
3000
0000
,
1000
1000
0010
0100
0001
0001
0010
0100
,
1000
1000
0010
0100
0001
0001
0010
0001
,
0100
0100
0010
1000
0100
0100
0010
0001
,
0202
0000
0000
0000
,
0303
0000
0000
0000
0000
0000
0000
0001
0000
0000
0000
0010
0000
0000
0000
0100
0000
0000
0000
1000
0000
0000
0000
0010
,
0000
0000
0000
0100
0000
0000
0000
0001
0000
0000
0000
0010
0000
0000
0000
0100
0000
0000
0000
2000
0000
0000
0000
0000
,
0000
0000
0000
0000
0000
0000
0000
0000
0000
0000
0000
3010
0000
0000
0000
0200
0000
0000
0000
0000
0000
0000
0000
0000
,
0000
0000
0000
0000
0000
0301
0000
0020
0000
0200
0000
0000
0000
0000
0000
0000
0000
0000
0000
0000
0000
0000
0000
0000
,
0000
0000
0000
0000
0330
2002
3003
2002
,
0000
0000
3003
0000
;

//---------------dance-single - AceOfHearts----------------
#NOTES:
     dance-single:
     Ace Of Hearts (2008):
     Challenge:
     11:
     1.000,0.449,0.867,1.000,0.576: // measure 1
0000
0000
0000
0000
,  // measure 2
2100
3100
0010
0001
0102
0013
0100
1000
,  // measure 3
1020
0130
0001
0010
0120
0130
1000
0010
,  // measure 4
0120
0130
0001
0010
0120
0130
1000
0100
,  // measure 5
0012
0103
0010
1000
2100
0001
0001
3001
,  // measure 6
0201
0310
1000
0100
0012
0103
0010
1000
,  // measure 7
2100
3010
0100
0001
0021
0130
1000
0010
,  // measure 8
0120
0130
0001
0010
0120
0130
1000
0010
,  // measure 9
0120
0000
0130
0000
0001
0000
0010
0000
0021
0000
0130
0000
1000
0000
1000
0100
,  // measure 10
1000
0100
0010
0001
0010
0001
1000
0100
1000
0100
0010
0001
0010
0001
0100
0001
,  // measure 11
0100
0001
0100
0010
0100
0010
0200
0000
0310
1000
0010
1000
0020
0000
1030
0000
,  // measure 12
0100
0010
0100
0010
0200
0000
0300
0010
0001
0010
0001
0010
0002
0000
0003
0100
,  // measure 13
0010
1000
0100
0020
0000
0031
0100
0000
0210
0000
0310
1000
0200
0000
0300
0000
,  // measure 14
0010
0001
0100
0010
2000
0000
3100
0000
0100
1000
0010
0100
0002
0000
0013
0000
,  // measure 15
0120
0000
0130
1000
0100
0010
0001
0100
0010
1000
0100
0010
0002
0000
0003
0000
,  // measure 16
1000
0010
0100
0000
0002
0000
0013
0000
0100
1000
0010
0000
0200
0000
0320
0000
,  // measure 17
0230
0000
0302
0000
0023
0000
0130
2200
,  // measure 18
3300
0000
2100
0000
3020
0000
0130
0001
,  // measure 19
0022
0033
0220
0330
2200
3300
2020
3030
,  // measure 20
0000
0000
0000
0000
2010
0000
3100
0000
0020
0000
0031
0000
0200
0300
0110
0000
,  // measure 21
0000
2200
0000
0010
0001
0010
0001
0010
,  // measure 22
0011
3300
2200
3300
0202
0303
0010
1000
,  // measure 23
2200
3300
0220
0330
0022
0033
0202
0303
,  // measure 24
0000
0000
2000
3020
0032
0023
2030
0002
,  // measure 25
0000
0000
0010
0000
0000
0000
0010
0000
0000
0000
0010
0000
0000
0000
0010
3003
,  // measure 26
2001
3010
0100
0001
0102
0013
0100
1000
,  // measure 27
1020
0130
0001
0010
0021
0130
1000
0010
,  // measure 28
0120
0130
0001
0010
2100
3010
0100
0001
,  // measure 29
0020
0000
0100
0000
0100
0000
0130
0000
0002
0000
1000
0000
1000
0000
1003
0100
,  // measure 30
0010
0001
0100
0010
1000
0100
0010
0001
1000
0010
0100
0001
1000
0100
0010
0001
,  // measure 31
1000
0010
0100
0001
0010
0100
1000
0010
0100
0001
0010
0100
1000
0100
0010
0001
,  // measure 32
1000
0010
0100
0001
0200
0000
0310
1000
0200
0000
0010
0000
0310
0000
0001
0100
,  // measure 33
0002
0000
0013
0200
0000
0300
1000
0100
2000
0000
3010
0000
0200
0000
0301
0100
,  // measure 34
0002
0000
0023
0000
0230
0000
2300
0000
3020
0000
0130
0001
0200
0000
0301
0000
,  // measure 35
0010
0100
1000
0010
0200
0000
0310
1000
0100
0010
0001
0100
0020
0000
0030
0000
,  // measure 36
1000
0100
1000
0000
0001
0010
0001
0000
0010
0001
0100
0000
0020
0000
1030
0000
,  // measure 37
0200
0000
0320
0000
0032
0000
0203
0020
,  // measure 38
0330
0000
2200
3300
0022
0033
0001
0010
,  // measure 39
2200
3300
2020
3030
0202
0303
0022
0033
,  // measure 40
0000
0000
0000
0000
1000
0000
0100
0000
0020
0000
0031
0000
0200
0300
0110
0000
,  // measure 41
0000
0202
0000
0010
1000
0010
1000
0010
,  // measure 42
1010
0303
0202
0303
0022
0033
0010
0100
,  // measure 43
2200
3300
2020
3030
0022
0033
0202
0303
,  // measure 44
0000
0000
0002
0013
0100
0010
0002
2000
,  // measure 45
0000
0000
0010
0000
0000
0000
0010
0000
0000
0000
0010
0000
0000
0000
0010
3003
,  // measure 46
2001
3100
0010
0001
0012
0103
0010
1000
,  // measure 47
2100
3010
0100
0001
0021
0130
1000
0010
,  // measure 48
0210
0310
1000
0100
1200
0310
0001
0100
,  // measure 49
2020
0000
0000
0000
,  // measure 50
3030
0000
0020
0000
0200
0030
0302
0023
,  // measure 51
2000
0030
0002
3000
0200
0003
0320
0000
,  // measure 52
0000
0000
0032
0203
2300
3002
0023
2030
,  // measure 53
0000
0000
0000
0000
,  // measure 54
0000
0000
0200
3000
0002
0300
2003
3020
,  // measure 55
0002
0030
0200
0003
0020
0300
0032
0000
,  // measure 56
0000
0000
0013
1000
0100
0010
0002
0200
,  // measure 57
0000
0000
0010
0010
1000
0010
1000
0313
,  // measure 58
0001
0010
0100
1000
0010
0100
0001
0010
0100
1000
0010
0100
0001
0100
0010
1000
,  // measure 59
0100
0010
0001
0100
0010
1000
0100
0010
0001
0010
0100
1000
0010
0100
0001
0010
,  // measure 60
0100
1000
0010
0100
0002
0000
0013
0000
0100
1000
0010
0100
0002
0000
0003
0100
,  // measure 61
0001
0010
0100
2000
0000
3010
0100
0000
0210
0000
0301
0010
0200
0000
0300
0000
,  // measure 62
0010
0001
0100
0010
2000
0000
3100
0000
0100
0010
0001
0100
0020
0000
1030
0000
,  // measure 63
1000
0100
0010
0001
1000
0010
0100
0001
0010
0100
1000
0010
0100
0001
0010
0100
,  // measure 64
1000
0010
0100
0001
0010
0100
1000
0010
0100
0001
0010
0100
2000
0000
0002
0000
,  // measure 65
0000
0000
0010
0000
0000
0000
0010
0000
0000
0000
0010
0000
0000
0000
0010
3003
,  // measure 66
2001
3010
0100
0001
0012
0103
0010
0100
,  // measure 67
2100
3010
0100
0001
0102
0013
0100
1000
,  // measure 68
1020
0130
0001
0010
0120
0130
1000
0010
,  // measure 69
0120
0130
0001
0010
0120
0130
1000
0010
,  // measure 70
0102
0013
0100
1000
0012
0103
0010
1000
,  // measure 71
0102
0013
0100
1000
2010
3100
0010
0001
,  // measure 72
0012
0103
0010
1000
2100
3001
0010
0100
,  // measure 73
0220
0000
0000
0000
,  // measure 74
0000
0000
0000
0330
0000
0000
0000
1100
0000
0000
0000
0110
0000
0000
0000
0011
0000
0000
0000
0101
0000
0000
0000
1010
,  // measure 75
0000
0000
0000
1100
0000
0000
0000
0011
0000
0000
0000
0110
0000
0000
0000
1010
0000
0000
0000
0202
0000
0000
0000
0000
,  // measure 76
0000
0000
0000
0000
0000
0000
0000
0000
0000
0303
0000
0010
0000
0000
0000
2200
0000
0000
0000
0000
0000
0000
0000
0000
,  // measure 77
0000
0000
0000
3300
0000
0010
0000
0002
0000
0200
0000
0000
0000
0000
0000
0000
0000
0000
0000
0000
0000
0000
0000
0000
,  // measure 78
0000
0000
0303
0000
0000
2200
0000
0022
,  // measure 79
0000
0000
3333
0000
;

//---------------dance-single - AceOfHearts----------------
#NOTES:
     dance-single:
     Ace Of Hearts (2008):
     Medium:
     6:
     0.527,0.149,0.029,0.752,0.052:
0000
0000
0000
0000
,
1000
1000
1000
1000
,
0001
0001
0001
0001
,
0010
0010
0010
0010
,
0100
0100
0100
0100
,
1000
0100
1000
0100
,
0010
0001
0010
0001
,
1000
0100
0010
0001
,
0002
0000
0000
0003
,
1000
0100
1000
0100
,
0010
0001
0010
0001
,
1000
0000
0100
0000
2000
0000
0000
3000
0001
0000
0100
0000
0002
0000
0000
0003
,
1000
0000
0000
0100
0000
0000
0000
0000
0010
0000
0001
0000
0100
0000
0000
0000
,
0010
0000
1000
0000
0020
0000
0000
0030
0100
0000
0001
0000
0200
0000
0000
0300
,
0010
1000
0010
0000
0100
0001
0100
0000
,
0010
1000
0010
0000
1000
0100
1000
0000
,
0020
0030
0200
0300
0002
0003
1000
1010
,
0000
0000
2000
3000
0200
0300
1000
0100
,
2000
3000
0200
0300
0020
0030
0002
0003
,
0000
0000
0001
0010
0001
0010
0001
2000
,
0000
0200
0000
0000
0000
0000
0000
0000
,
3300
0000
0020
0030
0200
0300
1000
0010
,
2000
3000
0020
0030
0200
0300
0002
0003
,
0000
0000
1000
0100
1000
0100
1000
0200
,
0000
0300
0000
0000
0000
0000
0000
0000
,
1000
0010
0100
0001
,
1000
0010
0100
0001
,
1000
0100
0010
0001
,
0200
0000
0000
0300
,
1000
0100
0010
0001
,
1000
0010
0100
0001
,
1000
0100
2000
3000
0001
0100
0002
0003
,
1000
0010
2000
3000
0001
0100
0002
0003
,
1000
0010
2000
3000
0001
0100
0002
0003
,
1000
0100
2000
3000
0100
0010
0200
0300
,
0010
0001
0020
0030
0001
0010
0100
1000
,
0200
0000
0320
0000
0032
0000
0203
0020
,
0330
0000
2000
3000
0200
0300
0010
0001
,
0200
0000
0320
0000
2030
0000
3200
0300
,
0000
0000
0010
0100
0010
0100
0010
0200
,
0000
2000
0000
0000
0000
0000
0000
0000
,
3300
0000
0020
0000
2030
0000
3100
0010
,
0002
0023
0230
2300
,
3000
0000
0001
0100
0001
0100
0001
0020
,
0000
0000
0000
0000
0000
0030
0000
0000
,
1000
0100
1000
0100
,
0010
0001
0010
0001
,
1000
0010
1000
0010
,
0200
0000
0000
0000
,
0300
0000
0002
0003
2000
3000
0001
0100
,
0002
0023
0230
2300
,
3000
0000
1000
0010
1000
0010
1000
0100
,
0000
0000
0000
0000
,
0000
0000
0010
0000
0001
0000
0100
0010
,
0100
0001
0010
0100
,
0000
0000
1000
0010
1000
0010
1000
0020
,
0000
0030
0000
0000
,
1000
0100
0010
0001
,
0100
0010
1000
0100
,
0010
0001
0020
0030
0100
1000
0200
0300
,
0020
0000
0000
0031
0000
0000
0000
0000
0100
0000
0010
0000
0100
0000
0000
0000
,
0000
0000
0002
0000
0023
0000
0130
1000
,
0200
0320
0032
0203
,
0300
0000
0001
1000
0001
1000
0001
0200
,
0000
0000
0000
0300
0000
0000
0000
0000
,
0010
1000
0010
1000
,
0001
0100
0001
0100
,
0010
1000
0100
0010
,
0001
0010
0100
1000
,
0100
0010
0001
0100
,
0010
1000
0100
0010
,
0001
0010
0100
1000
,
0020
0000
0000
0000
,
0030
0000
0000
0000
0000
0000
0000
0001
0000
0000
0000
0100
0000
0000
0000
0001
0000
0000
0000
1000
0000
0000
0000
0010
,
0000
0000
0000
1000
0000
0000
0000
0100
0000
0000
0000
1000
0000
0000
0000
0100
0000
0000
0000
0020
0000
0000
0000
0000
,
0000
0000
0000
0000
0000
0000
0000
0000
0000
0000
0000
0130
0000
0000
0000
2000
0000
0000
0000
0000
0000
0000
0000
0000
,
0000
0000
0000
3000
0000
0001
0000
0000
0000
0200
0000
0000
0000
0000
0000
0000
0000
0000
0000
0000
0000
0000
0000
0000
,
0000
0000
0000
0000
0300
0220
0330
0220
,
0000
0330
0000
0000
;

//---------------dance-single - AceOfHearts----------------
#NOTES:
     dance-single:
     Ace Of Hearts (2008):
     Easy:
     4:
     0.352,0.075,0.048,0.743,0.019:
0000
0000
0000
0000
,
1000
0000
1000
0000
,
0001
0000
0001
0000
,
0010
0000
0010
0000
,
0100
0000
0100
0000
,
1000
0000
1000
0000
,
0001
0000
0001
0000
,
0010
0000
0010
0000
,
0100
0000
0100
0000
,
1000
0000
2000
3000
,
0001
0000
0002
0003
,
2000
3001
0002
1003
,
0020
0000
0200
0330
,
0002
0003
2000
3000
,
0010
0010
0010
0100
,
0100
0100
0001
1000
,
1001
0000
0000
0000
0110
0000
0000
1001
,
0000
2000
3001
1000
,
0002
0003
0020
0030
0002
0003
0020
0030
,
0000
0000
0200
0300
2000
3000
0000
0020
,
0000
0030
0000
0000
,
0000
2000
3001
0001
,
2000
3000
0200
0300
2000
3000
0200
0300
,
0000
0000
1000
0000
0001
0000
0000
0200
,
0000
0300
0000
0000
,
0001
0000
1000
0000
,
0001
0000
1000
0000
,
0010
0000
0100
0000
,
0020
0000
0030
0000
,
1000
0000
0001
0000
,
0010
0000
0100
0000
,
0001
0001
1000
1000
,
0020
0030
0200
0300
,
0002
0003
0020
0030
,
0002
0003
2000
3000
,
0200
0300
0020
0030
,
0002
0000
2003
0000
3002
0000
1003
0001
,
0000
0020
0230
0300
,
2000
3000
0200
0300
0020
0030
0002
0003
,
0000
0000
2000
0000
3002
0000
0003
0200
,
0000
0000
0000
0300
0000
0000
0000
0000
,
0000
0000
0020
0030
0200
0300
0000
0000
,
0002
0003
0020
0030
0200
0300
2000
3000
,
0000
0000
0002
0000
1003
0000
0000
0020
,
0000
0000
0000
0030
0000
0000
0000
0000
,
1000
0000
1000
0000
,
0001
0000
0001
0000
,
0100
0000
0100
0000
,
0020
0000
0030
0000
,
0000
2000
3001
0000
,
0020
0130
0200
0310
,
0000
0000
0002
0000
0023
0000
0000
0130
,
0000
0000
0000
0000
,
0000
2000
3001
0001
,
0020
0030
0100
0000
0100
0000
0100
0000
,
0000
0000
2000
0000
3100
0000
0000
0020
,
0000
0030
0000
0000
,
0000
0002
1003
2000
,
3001
0001
0001
0001
,
0000
0000
0100
0000
0100
0000
0000
0200
,
0000
0300
0000
0000
,
0000
0000
0002
0003
0001
0000
2000
3000
,
2000
3000
0200
0300
0020
0030
0002
0003
,
0000
0000
0020
0000
0130
0000
0000
2000
,
0000
3000
0000
0000
,
1000
0000
0001
0000
,
1000
0000
0001
0000
,
0100
0000
0010
0000
,
0100
0000
0010
0000
,
1000
0000
0001
0000
,
1000
0000
0001
0000
,
0010
0000
0100
0000
,
0020
0000
0000
0000
,
0030
0000
0000
0000
0000
0000
0000
1000
0000
0000
0000
0000
0000
0000
0000
1000
0000
0000
0000
0000
0000
0000
0000
0001
,
0000
0000
0000
0000
0000
0000
0000
0001
0000
0000
0000
0000
0000
0000
0000
0010
0000
0000
0000
0020
0000
0000
0000
0000
,
0000
0000
0000
0000
0000
0000
0000
0000
0000
0000
0000
0030
0000
0000
0000
0200
0000
0000
0000
0000
0000
0000
0000
0000
,
0300
0000
0000
2000
0000
0000
0000
0000
,
0000
0000
3000
0000
0000
1001
0000
2002
,
0000
3003
0000
0000
;

//---------------dance-single - Novice----------------
#NOTES:
     dance-single:
     Ace Of Hearts (2008):
     Beginner:
     1:
     0.147,0.075,0.038,0.095,0.000:
0000
0000
0000
0000
,
0002
0000
0000
0000
,
0003
0000
0000
0000
,
2000
0000
0000
0000
,
3000
0000
0000
0000
,
0001
0000
0000
0000
,
0001
0000
0000
0000
,
1000
0000
0000
0000
,
1000
0000
0000
0000
,
0100
0000
0000
0000
,
0100
0000
0000
0000
,
0010
0000
0010
0000
,
0010
0000
0000
0000
,
0001
0000
0000
0000
,
0001
0000
0000
0000
,
1000
0000
0000
0000
,
1000
0000
0000
0000
,
0000
0000
0001
0000
,
0001
0000
0001
0000
,
0000
0000
0010
0000
,
0010
0000
0010
0000
,
0000
0000
0001
0000
,
0001
0000
0001
0000
,
0000
0000
0000
0000
,
1001
0000
0000
0000
,
1000
0000
1000
0000
,
1000
0000
0000
0000
,
0010
0000
0010
0000
,
0020
0000
0030
0000
,
1000
0000
0000
0000
,
1000
0000
0000
0000
,
0001
0000
0001
0000
,
0001
0000
0000
0000
,
0100
0000
0100
0000
,
0100
0000
0000
0000
,
0001
0000
0001
0000
,
0001
0000
0000
0000
,
0000
0000
1000
0000
,
1000
0000
1000
0000
,
0000
0000
0010
0000
,
0010
0000
0010
0000
,
0000
0000
1000
0000
,
1000
0000
1000
0000
,
0000
0000
0000
0000
,
1001
0000
0000
0000
,
0001
0000
0001
0000
,
0001
0000
0000
0000
,
1000
0000
1000
0000
,
2000
0000
3000
0000
,
0000
0000
0001
0000
,
0001
0000
0001
0000
,
0000
0000
0200
0000
,
0300
0000
0000
0000
,
0000
0000
0010
0000
,
0010
0000
0010
0000
,
0000
0000
2000
0000
,
3000
0000
1001
0000
,
0000
0000
0001
0000
,
0001
0000
0001
0000
,
0000
0000
0100
0000
,
0100
0000
0000
0000
,
0000
0000
0001
0000
,
0001
0000
0001
0000
,
0000
0000
1000
0000
,
2000
0000
0000
0000
,
3001
0000
0001
0000
,
0001
0000
0000
0000
,
1000
0000
1000
0000
,
1000
0000
0000
0000
,
0100
0000
0100
0000
,
0100
0000
0000
0000
,
0010
0000
0010
0000
,
0020
0000
0000
0000
,
0030
0000
0000
0000
0000
0001
0000
0000
,
0000
0000
0000
0000
0000
1000
0000
0000
,
0000
0000
0000
0000
0000
0010
0000
0000
,
0000
0000
0000
0100
0000
0000
0000
0000
,
0000
0000
0000
0000
0000
2002
0000
0000
,
0000
3003
0000
0000
;
