#TITLE:Toreador Song;
#SUBTITLE:;
#ARTIST:Georges Bizet;
#TITLETRANSLIT:;
#SUBTITLETRANSLIT:;
#ARTISTTRANSLIT:;
#GENRE:Opera;
#CREDIT:Ace Of Hearts;
#BANNER:Toreador Song - bn.png;
#BACKGROUND:Toreador Song - bg.png;
#LYRICSPATH:;
#CDTITLE:;
#MUSIC:Toreador Song.mp3;
#OFFSET:-0.140;
#SAMPLESTART:72.380;
#SAMPLELENGTH:12.000;
#SELECTABLE:YES;
#BPMS:0.000=116.940;
#STOPS:;
#BGCHANGES:;
#KEYSOUNDS:;

//---------------dance-single - Expert----------------
#NOTES:
     dance-single:
     Ace Of Hearts (2008):
     Challenge:
     9:
     0.685,0.478,0.603,0.734,0.436: // measure 1
0000
0000
0000
0000
0012
0000
1003
0100
1000
0000
0001
0000
0101
0000
0000
0000
,  // measure 2
0001
0000
1000
0000
2100
0000
3001
0100
0001
0000
1000
0000
1010
0000
0000
0000
,  // measure 3
0010
0000
0100
0000
0201
0000
0310
1000
0001
0000
1000
0000
1100
0000
1000
0000
,  // measure 4
0001
0100
0010
1000
0200
0000
0300
1000
,  // measure 5
0100
0010
0001
1000
0010
0000
0020
0000
0000
0030
0010
0000
1000
0001
0100
0000
,  // measure 6
0201
0000
0310
0000
1000
0000
2000
0000
0000
3000
1000
0000
0001
0010
0100
0000
,  // measure 7
2100
0000
0000
3001
0000
0000
0101
0000
0000
0001
1000
0001
1000
0000
0000
0010
1000
0010
1000
0000
0000
0001
0100
0001
,  // measure 8
1000
0100
1000
0001
0010
0001
1000
0000
0000
0000
0000
0000
1000
0000
0010
0000
0100
0000
0101
0000
0000
0000
0000
0000
,  // measure 9
0000
0000
0000
0000
0201
0000
0310
1000
0100
0000
1000
0000
0010
0000
0000
0000
,  // measure 10
0100
0000
0001
0000
0021
0000
0130
1000
0001
0000
0100
0000
0010
0000
0000
0000
,  // measure 11
1000
0000
0001
0000
0201
0000
0310
1000
0001
0000
0010
0000
0100
0000
0000
0000
,  // measure 12
1000
0000
0010
0000
0120
0000
1030
0001
0100
0000
0001
0000
1000
0000
0100
0010
,  // measure 13
0001
1000
0001
0100
0010
0000
0020
0000
0000
0000
1030
0000
0001
0010
0100
0000
,  // measure 14
2100
0000
3001
0000
0100
0000
0200
0000
0000
0000
0301
0000
1000
0010
0100
0000
,  // measure 15
0102
0000
0000
0013
0000
0000
0110
0000
0000
0100
1000
0100
1000
0000
0000
0001
0010
0001
0010
0000
0000
0001
1000
0001
,  // measure 16
0100
0000
0010
0000
0100
0000
0001
0000
1000
0000
0001
0000
0010
0000
0000
0000
0000
0000
0000
0000
0000
0000
0000
0000
1100
0000
0000
0000
0000
0000
0000
0000
0000
0100
0000
0000
0010
0000
0000
0000
0000
0000
0000
0000
0000
0000
0000
0000
,  // measure 17
0110
0000
0000
0000
1002
0000
1003
0010
0100
0000
0001
0000
0102
0000
1003
0000
,  // measure 18
0010
0000
0100
0000
0120
0000
1030
0100
0010
0000
0001
0000
1001
0000
0000
0000
,  // measure 19
1000
0000
0000
0000
1020
0000
0130
0001
1000
0000
0100
0000
0110
0000
0010
0000
,  // measure 20
0001
0000
1000
0000
1200
0000
1300
0001
0010
0000
0100
0000
1000
0000
0001
1000
,  // measure 21
0010
0100
0001
1000
0100
0000
0200
0000
0000
0000
1300
0000
0001
0010
0100
0000
,  // measure 22
0120
0000
0031
0000
1000
0000
2000
0000
0000
0000
3010
0000
0100
0001
1000
0000
,  // measure 23
2100
0000
0000
3001
0000
0000
0201
0000
0000
0310
1000
0010
1000
0000
0000
0001
0100
0001
0100
0000
0000
0010
0100
0010
,  // measure 24
1000
0000
0010
0000
0100
0000
0010
0000
1000
0000
0010
0000
0100
0000
0000
0000
0000
0000
0000
0000
0000
0000
0000
0000
0101
0000
0000
0000
0000
0000
0000
0000
0001
0000
0000
0000
0020
0000
0000
0000
0000
0000
0000
0000
0000
0030
0000
0000
,  // measure 25
0110
0000
2100
3001
0020
0000
0030
0200
,  // measure 26
2300
0000
0000
3001
0100
0000
0001
0000
0020
0000
0000
0000
0000
0000
0130
0000
,  // measure 27
1000
0001
0100
0010
2000
0000
3000
0001
,  // measure 28
0010
0000
0100
0000
0020
0000
0000
0031
0200
0000
0000
0000
0000
0000
0300
0000
,  // measure 29
0000
0000
1010
0000
2000
0000
0000
3001
,  // measure 30
0020
0000
0000
0130
2000
0000
0000
3001
0020
0000
0000
0000
0000
0000
0030
0000
,  // measure 31
0000
0000
0110
0000
0200
0000
1300
0010
,  // measure 32
0200
0000
0000
0301
2000
0000
0000
0000
3000
0000
0000
0000
2002
0000
3003
0000
,  // measure 33
0000
0000
0001
0010
0200
0000
0300
0000
1000
0020
0000
0000
,  // measure 34
0030
0000
0010
1010
0000
1000
1001
0000
0001
0011
0000
0010
,  // measure 35
0110
0000
0100
1100
1000
0010
0100
0001
1000
1010
0000
0000
,  // measure 36
1001
0000
0000
1200
0000
0000
1300
0000
0010
0210
0000
0000
,  // measure 37
0301
0000
0000
1002
0000
1003
0020
0000
0000
0230
0000
0000
,  // measure 38
0300
0000
0000
0000
0000
0000
0102
0000
0000
0000
0000
0000
2003
0000
0000
0000
3020
0000
0230
0000
0000
0000
0301
0100
,  // measure 39
0001
0000
0000
0021
0000
0000
0230
0000
1300
0002
0000
0000
,  // measure 40
0003
0000
0201
0000
0310
0000
1000
0001
,  // measure 41
0010
0100
1000
0001
0100
0010
1000
0001
,  // measure 42
0010
0000
0120
0000
0031
0000
1000
0001
,  // measure 43
0100
0010
1000
0001
0010
0100
1000
0000
,  // measure 44
1001
0000
2100
0000
3010
0000
0100
0001
,  // measure 45
1000
0000
0000
0100
0000
0000
0010
0000
0000
0001
0000
0000
1000
0000
0000
0010
0000
0000
0100
0000
0000
0001
1000
0001
,  // measure 46
0100
0010
1010
0001
2000
3010
0210
0000
,  // measure 47
0301
0000
0000
0000
0000
0000
0102
0000
0000
1003
0010
1000
0001
0100
0001
1000
0001
1000
0010
0000
0100
0000
0001
0000
,  // measure 48
1000
0000
0100
0000
0010
0000
2002
0000
0000
0000
3003
0000
2020
0000
0000
3030
0010
0000
0220
0000
0000
0000
0330
0000
,  // measure 49
0101
0000
0000
0022
0003
0130
2100
0000
3000
2002
0000
3003
,  // measure 50
0101
0000
0000
0000
0000
0000
2020
0000
0000
0000
3030
0000
0202
0000
0000
0303
0001
0000
2002
0000
0000
0000
3003
0000
,  // measure 51
1010
0000
0000
0000
0000
0000
0202
0000
0000
0000
0303
0000
2200
0000
0000
3300
1000
0000
2002
0000
0000
0000
3003
0000
,  // measure 52
0101
0000
0021
0000
0130
0000
1000
0010
,  // measure 53
0100
0001
1000
0100
0010
0001
2000
0000
,  // measure 54
3010
0000
0210
0000
0301
0000
1000
0010
,  // measure 55
0100
0001
1000
0100
0010
0001
2000
0000
,  // measure 56
3010
0000
0000
0010
1000
0100
1000
0001
,  // measure 57
0020
0000
0000
0000
0000
0000
0032
0000
0000
0000
0000
0000
2003
0000
0000
3010
0000
0000
0200
0000
0000
0301
0100
0001
,  // measure 58
1000
0000
0010
0000
0110
0000
0100
0000
0001
0000
1000
0000
0020
0000
0000
0030
,  // measure 59
0110
0000
0000
0101
0000
0000
0001
0100
0001
0010
0100
1000
,  // measure 60
0010
0100
0001
1000
0000
0000
0010
0100
0001
1000
0100
0010
,  // measure 61
0002
0000
0000
4003
0400
0000
0000
0000
0000
0000
0000
0000
0000
0000
0000
0000
0000
0000
3300
0000
0000
0000
0000
0000
,  // measure 62
0000
0202
0040
0000
,  // measure 63
0333
0000
0001
2001
0000
0000
3100
0000
0010
0100
0000
0000
,  // measure 64
1100
0000
0000
0011
0000
0001
0010
0000
0010
0200
0000
0000
,  // measure 65
0300
0000
0000
1010
0000
0000
0101
0000
0001
1000
0000
0000
,  // measure 66
0001
1000
0001
1000
0001
1000
0001
0000
0000
0000
0000
0000
1100
0000
0000
0000
0000
0000
0011
0000
0000
0000
0000
0000
;

//---------------dance-single - Hard----------------
#NOTES:
     dance-single:
     Ace Of Hearts (2008):
     Hard:
     7:
     0.472,0.287,0.051,0.647,0.232: // measure 1
0000
0000
1000
0001
0020
0000
0030
0001
,  // measure 2
0010
0100
1000
0001
2000
0000
3000
0001
,  // measure 3
1000
0100
0010
0100
2000
0000
3000
0001
,  // measure 4
1000
0010
0100
0001
0200
0000
0300
0001
,  // measure 5
1000
0000
0100
0000
0010
0000
0020
0000
0000
0000
0031
0000
1000
0100
1000
0000
,  // measure 6
0001
0000
0010
0000
0100
0000
0200
0000
0000
0000
1300
0000
0001
0010
0001
0000
,  // measure 7
1000
0000
0010
0000
0100
0000
0000
0100
0001
0000
0000
0001
1000
0000
0000
1000
,  // measure 8
0100
0000
0000
0010
0000
0000
0001
0000
0000
0000
0000
0000
1000
0000
0001
0000
0100
0000
0001
0000
0000
0000
0000
0000
,  // measure 9
0000
0000
0000
0000
1000
0000
0000
0001
0200
0000
0000
0000
0300
0000
0001
0000
,  // measure 10
2000
3100
1000
0001
0020
0000
0030
0001
,  // measure 11
2000
0000
0000
3001
0010
0000
0000
0001
0020
0000
0000
0000
0030
0000
0100
0000
,  // measure 12
1000
0001
1000
0010
0200
0000
0000
0000
,  // measure 13
0300
0000
0000
0000
0001
0000
0002
0000
0000
0000
1003
0000
0010
1000
0010
0000
,  // measure 14
0100
0000
0001
0000
1000
0000
2000
0000
0000
0000
3001
0000
0100
0001
0100
0000
,  // measure 15
0010
0000
1000
0000
0001
0000
0000
0001
0010
0000
0000
0010
0100
0000
0000
0100
,  // measure 16
1000
0000
0001
0000
0010
0000
0000
0000
0100
0000
0000
1000
0002
0000
0000
0000
,  // measure 17
0003
0000
1000
0001
0200
0000
0300
0001
,  // measure 18
2000
0000
0000
3001
0100
0000
0000
0001
0200
0000
0000
0000
0000
0000
0000
0000
,  // measure 19
0300
0000
0000
0001
1000
0000
0000
1000
0020
0000
0000
0000
0030
0000
0000
0000
,  // measure 20
0100
0001
1000
0001
0200
0000
0000
0000
,  // measure 21
0300
0000
0000
0000
0010
0000
0020
0000
0000
0000
1030
0000
0001
1000
0001
0000
,  // measure 22
0100
0000
0010
0000
1000
0000
2000
0000
0000
0000
3001
0000
0010
0001
0010
0000
,  // measure 23
0001
0000
1000
0000
0010
0000
0000
0010
0100
0000
0000
0100
0001
0000
0000
0001
,  // measure 24
1000
0000
0000
0100
0000
0000
0010
0000
0000
0000
0000
0000
0001
0000
0000
0000
1000
0000
0020
0000
0000
0000
0000
0000
,  // measure 25
0030
0000
1000
0001
0020
0000
0030
0001
,  // measure 26
1000
0001
0100
0010
2000
0000
3000
0001
,  // measure 27
0010
0100
1000
0001
0200
0000
0300
0001
,  // measure 28
0010
0000
0100
0000
0020
0000
0000
0130
2000
0000
0000
0000
0000
0000
3000
0000
,  // measure 29
0000
0000
0001
0000
0002
0000
0003
1000
,  // measure 30
0020
0000
0000
0130
0001
0000
0000
0001
0200
0000
0000
0000
0000
0000
0300
0000
,  // measure 31
0000
0000
0010
0000
2000
0000
3001
1000
,  // measure 32
0020
0000
0000
0130
0002
0000
0000
0000
0003
0000
0000
0000
2000
0000
3000
0000
,  // measure 33
0000
0000
0001
1000
0001
0000
0000
0000
0100
0020
0000
0000
,  // measure 34
0030
0000
1000
0001
0000
1000
0001
0000
1000
0001
0000
1000
,  // measure 35
0001
0000
1000
0010
1000
0010
1000
0001
1000
0100
0000
0000
,  // measure 36
0010
0000
0000
0001
0000
0000
0002
0000
1003
0200
0000
0000
,  // measure 37
0310
0000
0000
0200
0000
1300
0001
0000
0000
0200
0000
0000
,  // measure 38
0300
0000
0000
0020
0000
0000
2030
0000
3001
0200
0000
0000
,  // measure 39
0300
0000
0000
0002
0000
0000
2003
0000
3010
0200
0000
0000
,  // measure 40
0300
0000
0002
0000
0000
0000
1003
0001
,  // measure 41
1000
0010
0100
0001
0010
0100
2000
0000
,  // measure 42
3000
0020
0230
0302
,  // measure 43
2003
0000
0000
3100
0020
0000
0000
0000
0000
0000
0000
0000
0000
0000
0000
0000
,  // measure 44
0030
0000
0000
0001
1000
0010
0100
0001
,  // measure 45
2000
0000
0000
0000
3000
0000
0001
0000
0200
0000
0310
0000
2000
0000
3001
0100
,  // measure 46
0001
0010
0100
1000
0100
0010
0200
0000
,  // measure 47
2300
0000
0000
0000
3002
0000
1003
0100
1000
0000
0001
0000
0100
0000
0001
0000
,  // measure 48
1000
0000
0000
0010
0000
0000
1020
0000
0000
0000
0000
0000
0230
0000
0000
0000
0301
0000
2000
0000
0000
0000
0000
0000
,  // measure 49
3010
0000
0000
0000
0000
0000
0210
0000
0000
0000
0301
0000
2000
0000
0000
3000
0000
0000
2200
0000
0000
0000
0000
0000
,  // measure 50
3300
0000
0000
0021
0000
0000
0230
0000
1300
0002
0000
0000
,  // measure 51
0003
0000
0000
0201
0000
0000
0320
0000
1030
0002
0000
0000
,  // measure 52
0003
0000
2000
0000
0000
0000
3010
0100
,  // measure 53
0001
1000
0100
0010
0001
1000
0200
0000
,  // measure 54
1300
0001
2000
0000
3002
0000
0203
0000
,  // measure 55
0301
1000
0020
0000
0000
0000
0000
0000
,  // measure 56
0030
0000
0000
1000
0001
0010
0100
1000
,  // measure 57
0001
0000
1000
0000
0000
0000
0001
0000
0100
0000
0001
0000
1000
0000
0010
0100
,  // measure 58
0010
1000
0010
1000
0001
0010
0200
0000
,  // measure 59
2300
0000
0000
3002
0000
0000
1003
0010
1000
0010
0000
0000
,  // measure 60
0100
0001
0100
0001
0000
0000
2000
0000
0000
3002
0000
0000
,  // measure 61
0023
0200
0000
0000
0000
0000
0330
0000
,  // measure 62
0000
2000
0002
0000
,  // measure 63
3003
0000
0001
0020
0000
0000
0130
0000
1000
0001
0000
0000
,  // measure 64
0100
0000
0000
0010
0000
1000
0001
0000
0010
0002
0000
0000
,  // measure 65
0003
0000
0000
1000
0000
0000
0100
0000
0010
0001
0000
0000
,  // measure 66
4000
0004
0000
0000
0000
0000
3003
0000
0000
0000
0000
0000
1001
0000
0000
0000
0000
0000
0110
0000
0000
0000
0000
0000
;

//---------------dance-single - Medium----------------
#NOTES:
     dance-single:
     Ace Of Hearts (2008):
     Medium:
     5:
     0.339,0.263,0.044,0.472,0.073: // measure 1
0000
0000
0001
1000
0002
0000
0003
1000
,  // measure 2
0100
0000
1000
0001
2000
0000
3000
0001
,  // measure 3
0100
0000
0001
1000
0002
0000
0003
1000
,  // measure 4
0010
0000
1000
0001
2000
0000
3000
0000
,  // measure 5
0000
0000
0001
0002
0000
1003
0100
1000
,  // measure 6
0000
0000
1000
2000
0000
3001
0100
0001
,  // measure 7
0000
0000
1000
0020
0030
0020
0030
0020
,  // measure 8
0000
0000
0000
0030
0000
0000
1000
0000
0001
1000
0000
0000
,  // measure 9
0000
0000
0001
0100
0002
0000
0003
1000
,  // measure 10
0010
0000
1000
0001
2000
0000
3000
0000
,  // measure 11
0010
0000
0100
0001
0200
0000
0300
0000
,  // measure 12
0001
0000
1000
0001
2000
0000
0000
0000
,  // measure 13
3000
0000
0001
0002
0000
1003
0010
1000
,  // measure 14
0000
0000
1000
2000
0000
3001
0010
0001
,  // measure 15
0000
0000
1000
0200
0300
0200
0300
0200
,  // measure 16
0000
0000
0000
0300
0000
0000
1000
0000
0001
0010
0000
0000
,  // measure 17
0000
0000
0001
0000
2000
0000
3000
0001
,  // measure 18
0010
0000
0001
1000
0002
0000
0000
0000
,  // measure 19
0003
0000
1000
0100
2000
0000
3000
0000
,  // measure 20
0001
1000
0002
0000
0203
0000
0000
0000
,  // measure 21
0300
0000
0010
0020
0000
0130
0001
0100
,  // measure 22
0000
0000
0010
0020
0000
1030
0100
1000
,  // measure 23
0000
0000
0001
2000
3000
2000
3000
2000
,  // measure 24
0000
0000
0000
3000
0000
0000
0001
0000
1000
0002
0000
0000
,  // measure 25
0003
0000
1000
0010
2000
0000
3000
0001
,  // measure 26
0100
0000
0001
1000
0002
0000
0003
0000
,  // measure 27
1000
0000
0001
0100
0002
0000
0003
0000
,  // measure 28
1000
0000
0010
1000
0020
0000
0000
0000
,  // measure 29
0030
0000
1000
0000
2000
0000
3000
0001
,  // measure 30
0200
0310
2000
0000
,  // measure 31
3000
0000
0001
0000
0001
0000
1000
0100
,  // measure 32
2000
3002
0003
0100
,  // measure 33
0000
0000
0001
1000
0000
0000
0000
0000
0010
1000
0000
0000
,  // measure 34
0000
0000
0001
0200
0000
0000
0010
0000
0000
0010
0000
0000
,  // measure 35
0310
0000
0000
0100
0001
0100
0001
0000
0000
1000
0000
0000
,  // measure 36
1000
0000
0000
0001
0000
0000
2000
0000
3001
0200
0000
0000
,  // measure 37
0301
0000
0000
1000
0000
0001
1000
0000
0000
0200
0000
0000
,  // measure 38
0300
0000
0000
1000
0000
0000
0001
0000
1000
0200
0000
0000
,  // measure 39
0300
0000
0000
0100
0000
0000
1000
0000
0001
0200
0000
0000
,  // measure 40
0300
0000
0002
0000
0000
0000
1003
0010
,  // measure 41
1000
0000
0001
0000
1000
0010
2000
0000
,  // measure 42
3000
0001
0010
0001
,  // measure 43
0010
0100
0020
0000
0000
0000
0000
0000
,  // measure 44
0030
0000
0000
0001
0100
0000
0001
0000
,  // measure 45
1000
0000
0000
0001
1000
0001
1000
0000
,  // measure 46
0000
0000
0000
0001
0100
0001
0200
0000
,  // measure 47
0310
2000
0000
0000
,  // measure 48
3000
0000
0000
1001
0000
0000
0001
0000
1000
0002
0000
0000
,  // measure 49
0103
0000
0000
0110
0000
0010
1000
0000
0000
0200
0000
0000
,  // measure 50
0300
0000
0000
1100
0000
0000
1000
0000
0001
0200
0000
0000
,  // measure 51
0300
0000
0000
0110
0000
0000
0010
0000
1000
0002
0000
0000
,  // measure 52
0003
0000
2000
0000
0000
0000
3001
1000
,  // measure 53
0001
0000
0100
0000
0010
1000
0020
0000
,  // measure 54
1030
0002
1003
0100
,  // measure 55
1000
0001
0020
0000
0000
0000
0000
0000
,  // measure 56
0030
0000
0000
0001
1000
0001
2000
0000
,  // measure 57
3100
0000
0000
0010
0100
0010
0100
0000
,  // measure 58
0000
0000
0000
1000
0001
0000
0200
0000
,  // measure 59
0310
2000
0000
0000
,  // measure 60
0000
3000
0002
1003
,  // measure 61
0020
0000
0000
0030
,  // measure 62
0000
1000
0200
0000
,  // measure 63
0300
0000
1000
0001
0000
0000
1000
0000
0001
0100
0000
0000
,  // measure 64
0001
0000
0000
1000
0000
0001
1000
0000
0000
0200
0000
0000
,  // measure 65
0300
0000
0000
1000
0000
0000
0001
0000
1000
0100
0000
0000
,  // measure 66
0020
0030
0011
1001
;

//---------------dance-single - Easy----------------
#NOTES:
     dance-single:
     Ace Of Hearts (2008):
     Easy:
     3:
     0.241,0.167,0.116,0.334,0.000: // measure 1
0000
0001
0002
0003
,  // measure 2
1000
1000
2000
3000
,  // measure 3
0010
0010
0020
0030
,  // measure 4
0100
0100
0200
0300
,  // measure 5
0000
0002
0000
1003
,  // measure 6
0000
0020
0000
0130
,  // measure 7
0000
0010
0010
0010
,  // measure 8
0010
0010
1000
1001
,  // measure 9
0000
0001
0002
0003
,  // measure 10
1000
1000
2000
3000
,  // measure 11
0001
0001
0002
0003
,  // measure 12
0100
0100
0200
0000
,  // measure 13
0300
0002
0000
0013
,  // measure 14
0000
0002
0000
0103
,  // measure 15
0000
0010
0010
0010
,  // measure 16
0010
1000
0001
1001
,  // measure 17
0000
0001
0002
0003
,  // measure 18
0100
0100
0200
0300
,  // measure 19
0000
0001
0002
0003
,  // measure 20
1000
1000
2000
0000
,  // measure 21
3000
0002
0000
0013
,  // measure 22
0000
0002
0000
0103
,  // measure 23
0000
0010
0010
0010
,  // measure 24
0010
1000
0001
1001
,  // measure 25
0000
1000
2000
3000
,  // measure 26
0001
0001
0002
0003
,  // measure 27
0100
0100
0200
0300
,  // measure 28
0010
0020
0000
0000
,  // measure 29
0030
1000
2000
3000
,  // measure 30
0001
0001
0002
0000
,  // measure 31
0003
1000
1000
0100
,  // measure 32
0100
0200
0300
1000
,  // measure 33
0000
0001
0000
0100
,  // measure 34
0000
0020
1000
1000
,  // measure 35
1030
0001
0001
0001
,  // measure 36
0000
1000
1000
1000
,  // measure 37
0000
0010
0010
0010
,  // measure 38
0000
1000
1000
2000
,  // measure 39
3000
0100
0100
0200
,  // measure 40
0300
2000
3000
0001
,  // measure 41
0001
0002
0000
0003
,  // measure 42
0000
1000
1000
1000
,  // measure 43
0010
0020
0000
0000
,  // measure 44
0030
0000
0100
0100
,  // measure 45
0000
0001
0001
0002
,  // measure 46
0000
0003
0100
0100
,  // measure 47
0000
0200
0000
0300
,  // measure 48
0000
1001
1001
1001
,  // measure 49
0000
0110
0110
0110
,  // measure 50
0000
0110
0110
0220
,  // measure 51
0330
1001
1001
2002
,  // measure 52
3003
2000
3000
0001
,  // measure 53
0001
0002
0000
1003
,  // measure 54
0000
1000
0000
0001
,  // measure 55
0000
0020
0000
0000
,  // measure 56
0030
0000
0001
0001
,  // measure 57
0000
1000
1000
1000
,  // measure 58
0000
0000
0010
0010
,  // measure 59
0000
0200
0000
0000
,  // measure 60
0000
0300
0001
0001
,  // measure 61
0002
0000
0000
0003
,  // measure 62
0000
2000
0200
0000
,  // measure 63
3300
1000
1000
1000
,  // measure 64
1000
0100
0100
0200
,  // measure 65
0300
1000
1000
1000
,  // measure 66
0020
0030
1000
1001
;

//---------------dance-single - Novice----------------
#NOTES:
     dance-single:
     Ace Of Hearts (2008):
     Beginner:
     1:
     0.101,0.048,0.029,0.174,0.000: // measure 1
0000
0001
0000
0000
,  // measure 2
0000
0001
0000
0000
,  // measure 3
0000
0001
0000
0000
,  // measure 4
0000
0001
0000
0000
,  // measure 5
0000
2000
0000
3000
,  // measure 6
0000
0002
0000
0003
,  // measure 7
0000
0020
0000
0000
,  // measure 8
0000
0030
0000
0000
,  // measure 9
0000
0001
0000
0000
,  // measure 10
0000
0001
0000
0000
,  // measure 11
0000
0001
0000
0000
,  // measure 12
0000
0001
0000
0000
,  // measure 13
0000
0020
0000
0030
,  // measure 14
0000
0200
0000
0300
,  // measure 15
0000
2000
0000
0000
,  // measure 16
0000
3000
0000
0000
,  // measure 17
0000
0010
0000
0000
,  // measure 18
0000
0010
0000
0000
,  // measure 19
0000
0010
0000
0000
,  // measure 20
0000
0010
0000
0000
,  // measure 21
0000
2000
0000
3000
,  // measure 22
0000
0002
0000
0003
,  // measure 23
0000
0200
0000
0000
,  // measure 24
0000
0300
0000
0000
,  // measure 25
0000
0010
0000
0000
,  // measure 26
0000
0010
0000
0000
,  // measure 27
0000
0010
0000
0000
,  // measure 28
0000
0010
0000
0000
,  // measure 29
0000
1000
0000
0000
,  // measure 30
0000
1000
0000
0000
,  // measure 31
0000
1000
0000
0000
,  // measure 32
0000
1000
0000
0010
,  // measure 33
0000
0010
0000
0010
,  // measure 34
0000
0020
0000
0000
,  // measure 35
0000
0030
0000
0000
,  // measure 36
0000
1000
0000
1000
,  // measure 37
0000
2000
0000
3000
,  // measure 38
0000
0020
0000
0030
,  // measure 39
0000
0200
0000
0300
,  // measure 40
0000
0001
0000
0000
,  // measure 41
0000
0001
0000
0000
,  // measure 42
0000
0001
0000
0000
,  // measure 43
0000
0001
0000
0000
,  // measure 44
0000
0000
1000
0000
,  // measure 45
0000
0000
1000
0000
,  // measure 46
0000
0000
1000
1000
,  // measure 47
0000
0100
0000
0000
,  // measure 48
0000
2002
0000
3003
,  // measure 49
0000
0220
0000
0330
,  // measure 50
0000
0220
0000
0330
,  // measure 51
0000
2002
0000
3003
,  // measure 52
0000
0001
0000
0000
,  // measure 53
0000
0001
0000
0000
,  // measure 54
0000
0001
0000
0000
,  // measure 55
0000
0010
0000
0000
,  // measure 56
0000
0000
0100
0000
,  // measure 57
0000
0000
1000
0000
,  // measure 58
0000
0000
0001
0001
,  // measure 59
0000
0100
0000
0000
,  // measure 60
0000
0000
0010
0000
,  // measure 61
0020
0000
0000
0030
,  // measure 62
0000
0200
0000
0000
,  // measure 63
0300
0001
0000
0000
,  // measure 64
0000
0001
0000
0000
,  // measure 65
0000
1000
0000
0000
,  // measure 66
0002
0003
1000
0010
;
