#TITLE:Sunny Starry Carnival;
#SUBTITLE:;
#ARTIST:Fether;
#TITLETRANSLIT:;
#SUBTITLETRANSLIT:;
#ARTISTTRANSLIT:;
#GENRE:;
#CREDIT:;
#BANNER:Sunny Starry Carnival - Bn.png;
#BACKGROUND:Sunny Starry Carnival - Bg.jpg;
#LYRICSPATH:;
#CDTITLE:Ace Of Hearts.png;
#MUSIC:Sunny Starry Carnival.ogg;
#OFFSET:0.102;
#SAMPLESTART:64.145;
#SAMPLELENGTH:17.300;
#SELECTABLE:YES;
#BPMS:0.000=110.000;
#STOPS:;
#BGCHANGES:;
#KEYSOUNDS:;

//---------------dance-single - Ace Of Hearts (2008)----------------
#NOTES:
     dance-single:
     Ace Of Hearts (2008):
     Challenge:
     11:
     1.000,0.655,0.106,1.000,1.000: // measure 1
0000
0000
0000
0000
0000
0000
0000
0000
1000
0001
1000
0001
0010
0000
0010
0100
0000
1000
0000
0000
0100
1000
0001
1000
,  // measure 2
0001
0000
0001
0100
0000
0001
0000
0000
1000
0001
0100
0001
2000
0000
3001
0100
0000
0020
0000
0000
0230
0000
0000
0301
,  // measure 3
1000
0000
0000
0000
0010
0100
0001
0000
0000
0000
0000
0000
0000
0000
0000
0000
0010
0000
0100
0000
0000
0000
1000
0000
0010
0000
0000
0000
0100
0000
0001
0000
0000
0000
0010
0000
0100
0000
0000
0000
1000
0000
0010
0000
0000
0000
1000
0000
,  // measure 4
0001
0000
0000
0000
1000
0000
0100
0000
0000
0000
0020
0000
0000
0000
0030
0000
0001
1000
0100
0000
0000
0000
1000
0000
0010
0000
0000
0000
0100
0000
0001
0000
0000
0000
1000
0000
0100
0000
0000
0000
1000
0000
0010
0000
0000
0000
0100
0000
,  // measure 5
0001
0000
0000
0000
0001
0000
0000
0000
0000
0000
0011
0000
0000
0000
0000
0000
0010
0100
1000
0000
0000
0000
1000
0000
0010
0000
0000
0000
0010
0000
1000
0000
0000
0000
0010
0000
0000
0000
0000
0000
1000
0000
0001
0000
0000
0000
0001
0000
,  // measure 6
0010
0000
0010
0100
0000
1000
0000
0000
0001
0100
0000
0100
0010
0000
0010
0100
0000
0001
0000
0000
1000
0000
0000
0001
,  // measure 7
0100
0000
0000
0000
0010
0100
0001
0000
0000
0000
0000
0000
0000
0000
0000
0000
1000
0000
0001
0000
0000
0000
1000
0000
0010
0000
0000
0000
0100
0000
0001
0000
0000
0000
1000
0000
0100
0000
0000
0000
1000
0000
0000
0000
0000
0000
0000
0000
,  // measure 8
0010
0000
0000
0000
0100
0000
0001
0000
0000
0000
1100
0000
0000
0000
0000
0000
1000
0100
0010
0000
0000
0000
0010
0000
0001
0000
0000
0000
0001
0000
1000
0000
0000
0000
1000
0000
0010
0000
0000
0000
0100
0000
0000
0000
0000
0000
0101
0000
,  // measure 9
0000
0000
0000
0000
0000
0000
0000
0000
0001
1000
0000
0010
0100
0000
0001
1000
0000
0010
0100
0010
1000
0001
0000
1000
,  // measure 10
0100
0000
1000
0010
0000
0100
0001
1000
0100
1000
0000
0010
0100
0000
0001
1000
0000
0100
0010
0100
1000
0001
0000
0100
,  // measure 11
0001
0000
1000
0100
0000
0010
0001
1000
0010
0100
0000
0001
1000
0000
0001
0010
0000
0100
1000
0001
0100
0001
0000
1000
,  // measure 12
0010
0000
0100
0001
0000
1000
0100
1000
0010
0100
0000
0001
0010
0000
0000
0001
0000
0000
1000
0000
0000
0100
0000
0000
,  // measure 13
0010
0001
1000
0001
1000
0010
0100
0000
0001
1000
0010
1000
0001
0100
0001
0010
0100
1000
0002
0000
1003
0010
0100
0010
,  // measure 14
2000
0000
3001
0020
0000
0130
0000
0000
1000
0001
0000
0001
1000
0010
0100
0001
1000
0100
2000
0000
3100
0010
0100
1000
,  // measure 15
0002
0000
1003
0020
0000
0130
0000
0000
0001
1000
0001
0100
0001
1000
0100
0010
0001
1000
0001
0010
0100
1000
0001
1000
,  // measure 16
0200
0000
0310
0002
0000
0103
0000
0000
0010
0200
0300
0100
0002
0003
0001
2000
3000
1000
0200
0300
0100
2000
3000
1000
,  // measure 17
0002
0003
0001
0020
0000
0130
0000
0000
1000
0002
0000
0013
0001
1000
0100
0010
0100
1000
0002
0000
1003
0010
1000
0001
,  // measure 18
0200
0000
0301
2000
0000
3100
0000
0000
1000
0001
1000
0010
0100
0001
1000
0010
1000
0100
0020
0000
0130
1000
0001
1000
,  // measure 19
0200
0000
0310
0002
0000
1003
0000
0000
0001
1000
0001
0010
0001
1000
0100
0010
0001
1000
0100
0010
0001
1000
0100
0010
,  // measure 20
0002
0000
0103
0020
0000
1030
0000
0000
0001
0200
0300
0100
0020
0030
0010
2000
3000
1000
0002
0000
0103
0002
0003
0101
,  // measure 21
0000
0000
0000
0000
0000
0000
0000
0000
0001
1000
0001
0100
0020
0000
0130
0001
0000
2000
0000
3000
0001
1000
0000
1000
,  // measure 22
0010
0000
0010
1000
0000
0001
0000
0000
1000
0001
0000
0001
0200
0300
0000
0100
0000
0020
0000
0030
1000
0001
0000
0001
,  // measure 23
0010
0100
1000
0001
1000
0100
2000
0000
3001
0200
0000
0301
0020
0000
0000
0000
0000
0000
0000
0000
0000
0000
0000
0000
,  // measure 24
0000
0000
0000
0030
0000
0001
2000
3000
1000
0002
0003
0001
0200
0000
0000
0000
0000
0000
0000
0000
0000
0300
0000
0002
,  // measure 25
0000
0000
0000
0000
0000
2003
0000
0000
3100
0010
0000
0010
0002
0000
1003
0002
0000
0103
0000
0000
0100
0001
0000
1000
,  // measure 26
0200
0300
0100
2000
0000
3001
0000
0000
1000
0001
0000
0001
0200
0000
0300
0100
0000
0002
0000
0003
0001
1000
0000
0020
,  // measure 27
0000
0000
0130
0001
0000
0020
0000
0000
0130
1000
0000
0020
0000
0000
1030
0001
0000
0020
0000
0000
0031
2000
0000
3001
,  // measure 28
0010
0100
1000
0001
0010
0100
1000
0001
1000
0001
0000
0020
0000
0000
0000
0000
0000
0000
0032
0000
0000
0000
0000
0000
,  // measure 29
2003
0000
0000
0000
0000
0000
3200
0000
0000
0000
0000
0300
1100
0000
1000
0002
0000
0103
0001
1000
0010
0200
0000
0301
,  // measure 30
1000
0000
1000
0020
0000
0130
0001
1000
0001
0020
0000
0031
2000
0000
3001
0100
0000
0001
0000
0000
1000
0001
0000
0001
,  // measure 31
0100
0000
0100
0001
0000
1000
0000
0000
0001
1000
0000
1000
0010
0000
0010
0100
0000
0001
0000
0000
1000
0000
0000
0010
,  // measure 32
0100
0000
0000
0000
0001
1000
0100
0000
0000
0000
0000
0000
0000
0000
0000
0000
1000
0000
0001
0000
0000
0000
0001
0000
0200
0000
0300
0000
0100
0000
0002
0000
0003
0000
0001
0000
0020
0000
0030
0000
0010
0000
0200
0000
0300
0000
0100
0000
,  // measure 33
2000
0000
3000
0000
1000
0000
0001
0000
0000
0000
0020
0000
0000
0000
0030
0000
0001
0010
0100
0000
0000
0000
1000
0000
0001
0000
0000
0000
0001
0000
2000
0000
3000
0000
1000
0000
0200
0000
0300
0000
0100
0000
0020
0000
0030
0000
0010
0000
,  // measure 34
0001
0000
0000
0000
1000
0000
0000
0000
0000
0000
1100
0000
0000
0000
0000
0000
1000
0010
0100
0000
0000
0000
0100
0000
0001
0000
0000
0000
0001
0000
1000
0000
0000
0000
0100
0000
0000
0000
0000
0000
1000
0000
0001
0000
0000
0000
0001
0000
,  // measure 35
0100
0000
0100
0010
0000
1000
0000
0000
1000
0001
0000
0001
0100
0000
0100
0001
0000
0010
0000
0000
0100
0000
0000
1000
,  // measure 36
0001
0000
0000
0000
0010
0100
1000
0000
0000
0000
0000
0000
0000
0000
0000
0000
1000
0000
0001
0000
0000
0000
0001
0000
0200
0000
0300
0000
0100
0000
0002
0000
0003
0000
0001
0000
0020
0000
0030
0000
0001
0000
0000
0000
0000
0000
0000
0000
,  // measure 37
0020
0000
0000
0000
0130
0000
1000
0000
0000
0000
1001
0000
0000
0000
0000
0000
0010
0100
0001
0000
0000
0000
0001
0000
0020
0000
0030
0000
0100
0000
2000
0000
3000
0000
0001
0000
0020
0000
0000
0000
0130
0000
0000
0000
0000
0000
1100
0000
,  // measure 38
0000
0000
0000
0000
0000
0000
0000
0000
1000
0001
0000
1000
0100
0000
0100
0000
0000
0100
0000
0000
1000
0001
0000
0100
,  // measure 39
0010
0000
0010
0000
0000
0010
0000
0000
0100
0001
0000
0001
1000
0000
1000
0001
0000
0010
0000
0000
0100
0000
0000
1000
,  // measure 40
0001
0000
0000
0000
0001
0010
0100
0000
0000
0000
0000
0000
0000
0000
0000
0000
1000
0000
0100
0000
0000
0000
0100
0000
1000
0000
0000
0000
1000
0000
0001
0000
0000
0000
0010
0000
0000
0000
0000
0000
0100
0000
0000
0000
0000
0000
1000
0000
,  // measure 41
0001
0000
0000
0000
1000
0000
0100
0000
0000
0000
0010
0000
0000
0000
0000
0000
0010
0100
1000
0000
0000
0000
1000
0000
0001
0000
0000
0000
0001
0000
0100
0000
0000
0000
0100
0000
0001
0000
0000
0000
0001
0000
1000
0000
0000
0000
1000
0000
,  // measure 42
0010
0000
0010
0000
0000
0100
0000
0000
0001
1000
0001
1000
0010
0000
0010
1000
0000
0001
0000
0000
1000
0100
0000
0100
,  // measure 43
1000
0000
1000
0001
0000
0010
0000
0000
0001
1000
0000
1000
0001
0000
0001
0100
0000
0010
0000
0000
0100
0000
0000
0001
,  // measure 44
1000
0000
0000
0000
1000
0010
0100
0000
0000
0000
0000
0000
0000
0000
0000
0000
0001
0000
1000
0000
0000
0000
1000
0000
0100
0000
0000
0000
0100
0000
0010
0000
0000
0000
0010
0000
0001
0000
0000
0000
0001
0000
1000
0000
0000
0000
1000
0000
,  // measure 45
0010
0000
0100
0001
0000
0010
0000
0000
0001
1000
0000
1000
0010
0000
0010
0100
0000
0100
0000
0000
0001
0000
0000
0020
,  // measure 46
0000
0000
0000
0000
0000
0000
0030
0000
0001
1000
0000
0010
0200
0000
0301
2000
0000
3002
0000
0000
1003
0100
0000
1000
,  // measure 47
0020
0000
0130
0002
0000
2003
0000
0000
3001
1000
0000
0010
0200
0000
0310
2000
0000
3001
2000
0000
3010
0000
0000
0200
,  // measure 48
0000
0000
0000
0000
0000
0000
0000
0000
0000
0300
0000
0000
0020
0000
1030
0002
0003
0001
2000
3000
1000
0020
0030
0010
,  // measure 49
0200
0000
0300
0000
0100
0000
0002
0000
0000
0000
0013
0000
0000
0000
0000
0000
0001
0010
0100
0000
0000
0000
1000
0000
0002
0000
0003
0000
0001
0000
2000
0000
3000
0000
1000
0000
0002
0000
0003
0000
0001
0000
0200
0000
0300
0000
0100
0000
,  // measure 50
0010
0000
0010
0000
0000
1010
0000
0000
1000
0002
0000
1003
0020
0000
1030
0002
0000
0023
0000
0030
0001
2000
0000
3001
,  // measure 51
0020
0000
0130
2000
0000
3002
0000
0000
1003
0020
0000
0130
0002
0000
1003
0200
0000
1300
0002
0000
1003
0000
0000
0020
,  // measure 52
0000
0000
0000
0000
0000
0000
0000
0000
0030
0000
0000
0000
2000
0000
3001
0200
0300
0100
0020
0030
0010
1000
0000
0000
,  // measure 53
0002
0000
0000
0000
0013
0000
0200
0000
0300
0000
1100
0000
0000
0000
0000
0000
1000
0001
0100
0000
0000
0000
0100
0000
0010
0000
0000
0000
0100
0000
0001
0000
0000
0000
0001
0000
0020
0000
0000
0000
0130
0000
0000
0000
0000
0000
1100
0000
,  // measure 54
0000
0000
0000
0000
0000
0000
0000
0000
1000
0001
0000
0100
0020
0000
0130
0002
0000
1003
0020
0000
0130
0000
0000
0000
,  // measure 55
0002
0000
1003
0200
0000
1300
0020
0000
0130
0000
0000
0000
0002
0000
1003
0200
0000
0310
0002
0000
1003
0000
0000
1100
,  // measure 56
0000
0000
1000
0000
0001
0000
0000
0000
0000
0000
1001
0000
0000
0000
0000
0001
0010
0100
0000
0000
0000
0000
0000
0000
0000
0000
0000
0000
0000
0000
0000
0000
0000
0000
0000
0000
0000
0000
0000
0000
0000
0000
0000
0000
0000
0000
0000
0000
;

//---------------dance-single - Ace Of Hearts (2008)----------------
#NOTES:
     dance-single:
     Ace Of Hearts (2008):
     Hard:
     9:
     0.834,0.429,0.057,0.335,1.000:
0000
0000
0000
0000
0000
0000
0000
0000
1000
0001
0000
0001
1000
0000
1000
0000
0000
0000
0000
0000
1000
0100
0000
0100
,
1000
0000
0001
0000
0000
0000
0000
0000
0100
0001
0000
0001
1000
0000
1000
0100
0000
0010
0000
0000
0001
0000
0000
0001
,
1000
0000
1000
0100
0000
0000
0000
0000
1000
0001
0000
0001
0100
0000
0100
0010
0000
0010
1000
0000
1000
0100
0000
0100
,
0010
0000
0010
0100
0000
1000
0000
0000
0001
0100
0000
0100
0001
0000
0001
0010
0000
0010
0001
0000
0001
1000
0000
1000
,
0010
0000
0010
0000
0000
0100
0000
0000
0001
1000
0000
1000
0100
0000
0010
0000
0000
0000
0000
0000
0001
1000
0000
1000
,
0010
0000
0100
0000
0000
0000
0000
0000
0001
1000
0000
1000
0100
0000
0100
0010
0000
0001
0000
0000
0100
0000
0000
0001
,
0100
0000
0010
0100
0000
0000
0000
0000
0001
1000
0000
1000
0100
0000
0100
0010
0000
0010
0001
0000
0001
1000
0000
1000
,
0010
0000
0010
0100
0000
0001
0000
0000
1000
0001
0000
0001
0010
0000
0010
0001
0000
0001
1000
0000
0010
0000
0000
0101
,
0000
0000
0000
0000
0000
0000
0000
0000
0001
1000
0000
1000
0001
0000
0001
0010
0000
0100
1000
0000
1000
0010
0000
0000
,
0100
0000
0100
0001
0000
0001
0100
0000
0001
1000
0000
0000
0100
0000
1000
0001
0000
0001
1000
0000
0010
0100
0000
0000
,
0100
0000
0001
1000
0000
1000
0010
0000
0100
0001
0000
0000
1000
0000
1000
0001
0000
0001
0100
0000
0010
1000
0000
0000
,
0001
0000
0100
0001
0000
0001
1000
0000
0100
0010
0000
0000
0100
0000
0000
1000
0000
0000
0100
0000
0000
0010
0000
0000
,
0002
0000
0000
0000
0000
0000
0000
0000
1003
0100
0000
0100
1000
0000
1000
0001
0000
0001
1000
0000
1000
0010
0000
0010
,
0100
0000
0100
0002
0000
1003
0000
0000
0001
0100
0000
0100
0001
0000
0001
1000
0000
1000
0100
0000
0100
1000
0000
1000
,
0010
0000
0010
0200
0000
0301
0000
0000
0100
0010
0000
0010
1000
0000
1000
0001
0000
0001
0010
0000
0010
0001
0000
0001
,
1000
0000
1000
0020
0000
0130
0000
0000
0001
1000
0000
0100
1000
0000
0001
1000
0000
0010
1000
0000
0001
1000
0000
0100
,
1000
0000
0010
0200
0000
0301
0000
0000
0001
0100
0000
0100
0001
0000
0001
0010
0000
0010
0001
0000
0001
1000
0000
1000
,
0100
0000
0100
2000
0000
3001
0000
0000
0100
0001
0000
0001
1000
0000
1000
0100
0000
0100
0010
0000
0010
0001
0000
0001
,
1000
0000
1000
0002
0000
0103
0000
0000
0010
1000
0000
1000
0001
0000
0001
1000
0000
1000
0100
0000
0100
1000
0000
1000
,
0010
0000
0010
0200
0000
0301
0000
0000
1000
0001
0000
0010
0001
0000
1000
0001
0000
0100
0001
0000
1000
0001
0000
0200
,
0000
0000
0000
0300
0000
0000
0000
0000
0010
1000
0000
0001
2000
0000
0000
3001
0000
0100
0000
0000
0001
1000
0000
1000
,
0100
0000
0010
0002
0000
0103
0000
0000
0010
0100
0000
0100
0001
0000
0000
1000
0000
0020
0000
0000
0000
0030
0000
1000
,
0001
0000
1000
0100
0000
0000
2000
0000
0000
3200
0000
0000
0320
0000
0000
0000
0000
0000
0000
0000
0000
0000
0000
0000
,
0000
0000
0000
0030
0000
0001
2000
0000
3001
0100
0000
0001
2000
0000
0000
0000
0000
0000
0000
0000
0000
3000
0000
0020
,
0000
0000
0000
0000
0000
0230
0000
0000
0301
1000
0000
1000
0001
0000
0001
1000
0000
0200
0000
0000
1300
0001
0000
0001
,
0100
0000
0100
0001
0000
1000
0000
0000
0010
0100
0000
0100
0002
0000
0000
1003
0000
0020
0000
0000
1030
0100
0000
2000
,
0000
0000
3001
0100
0000
0020
0000
0000
0130
0001
0000
2000
0000
0000
3001
0100
0000
0020
0000
0000
0130
0001
0000
0000
,
4000
0004
0000
0000
0000
0000
3003
0000
1000
0001
0000
0020
0000
0000
0000
0000
0000
0000
0230
0000
0000
0000
0000
0000
,
2300
0000
0000
0000
0000
0000
3002
0000
0000
0000
0000
0000
1003
0000
1000
0010
0000
0010
0100
0000
0100
0001
0000
0000
,
0100
0000
0100
0010
0000
0010
1000
0000
1000
0001
0000
0000
1000
0000
1000
0000
0000
0000
0000
0000
0100
1000
0000
1000
,
0001
0000
0100
0000
0000
0000
0000
0000
0100
0001
0000
0001
1000
0000
1000
0100
0000
0010
0000
0000
0100
0000
0000
1000
,
0001
0000
0001
0100
0000
0000
0000
0000
0100
0001
0000
0001
1000
0000
1000
0100
0000
0100
0010
0000
0010
0001
0000
0001
,
1000
0000
1000
0100
0000
0010
0000
0000
0010
0100
0000
0100
1000
0000
1000
0001
0000
0001
0100
0000
0100
0001
0000
0001
,
0010
0000
0010
0000
0000
0100
0000
0000
1000
0001
0000
0001
0100
0000
0100
0000
0000
0000
0000
0000
0001
1000
0000
1000
,
0100
0000
0100
0000
0000
0000
0000
0000
1000
0001
0000
0001
0100
0000
0100
0001
0000
1000
0000
0000
0100
0000
0000
1000
,
0001
0000
0001
0100
0000
0000
0000
0000
0100
0001
0000
0001
1000
0000
1000
0100
0000
0100
0010
0000
0010
0000
0000
0000
,
0001
0000
1000
0002
0000
0103
0000
0000
0001
1000
0000
1000
0010
0000
0010
0100
0000
0100
0001
0000
1000
0000
0000
1100
,
0000
0000
0000
0000
0000
0000
0000
0000
1000
0001
0000
0001
0100
0000
0100
0000
0000
0010
0000
0000
0100
0001
0000
0001
,
0010
0000
0010
0000
0000
0100
0000
0000
0100
1000
0000
1000
0001
0000
0001
0100
0000
0001
0000
0000
0010
0000
0000
0001
,
1000
0000
1000
0100
0000
0000
0000
0000
1000
0001
0000
0001
1000
0000
1000
0100
0000
0010
0000
0000
0100
0000
0000
0100
,
1000
0000
1000
0001
0000
0010
0000
0000
0010
0100
0000
0100
1000
0000
1000
0001
0000
0001
1000
0000
1000
0100
0000
0100
,
0010
0000
0010
0000
0000
0100
0000
0000
1000
0001
0000
0001
0100
0000
0001
0000
0000
0010
0000
0000
0001
0100
0000
0100
,
0001
0000
0010
0000
0000
0100
0000
0000
1000
0001
0000
0001
1000
0000
1000
0010
0000
0100
0000
0000
0001
0000
0000
1000
,
0001
0000
0001
0100
0000
0000
0000
0000
0100
0001
0000
0001
1000
0000
1000
0100
0000
0100
0010
0000
0010
0100
0000
0100
,
1000
0000
1000
0001
0000
0010
0000
0000
0100
1000
0000
1000
0001
0000
0001
0010
0000
0100
0000
0000
1000
0000
0000
0020
,
0000
0000
0000
0000
0000
0030
0000
0000
0100
0001
0000
1000
0001
0000
0100
0010
0000
2000
0000
0000
3001
0010
0000
0001
,
0100
0000
0001
1000
0000
0020
0000
0000
0130
0001
0000
1000
0100
0000
1000
0010
0000
0100
0001
0000
1000
0000
0000
0200
,
0000
0000
0000
0000
0000
0000
0000
0000
0000
0300
0000
0000
1000
0000
0001
0100
0000
0100
0010
0000
0010
0100
0000
0100
,
0001
0000
0001
1000
0000
0010
0000
0000
0100
0001
0000
0001
1000
0000
1000
0100
0000
0100
0010
0000
0010
0100
0000
0100
,
1000
0000
1000
0000
0000
1010
0000
0000
1000
0001
0000
0001
0100
0000
0100
0001
0000
0020
0000
0000
0031
0100
0000
0100
,
0001
0000
0001
1000
0000
0020
0000
0000
1030
0100
0000
0100
1000
0000
1000
0001
0000
0001
1000
0000
0100
0000
0000
0020
,
0000
0000
0000
0000
0000
0000
0000
0000
0030
0000
0000
0000
0100
0000
0100
1000
0000
1000
0001
0000
0001
0100
0000
0000
,
0001
0000
0001
1000
0000
0100
0000
0000
0100
1000
0000
1000
0001
0000
0001
1000
0000
1000
0010
0000
0100
0000
0000
0101
,
0000
0000
0000
0000
0000
0000
0000
0000
0001
1000
0000
1000
0010
0000
0010
0100
0000
0100
0002
0000
1003
0000
0000
0000
,
0010
0000
0010
0100
0000
0001
0020
0000
0130
0000
0000
0000
1000
0000
1000
0100
0000
0100
0020
0000
0031
0000
0000
0101
,
0000
0000
0001
0000
1000
0000
0000
0000
0000
0000
1010
0000
0000
0000
0000
0000
0000
0101
0000
0000
0000
0000
0000
0000
0000
0000
0000
0000
0000
0000
0000
0000
0000
0000
0000
0000
0000
0000
0000
0000
0000
0000
0000
0000
0000
0000
0000
0000
;

//---------------dance-single - Ace Of Hearts (2008)----------------
#NOTES:
     dance-single:
     Ace Of Hearts (2008):
     Medium:
     6:
     0.376,0.158,0.016,0.237,0.171:
0000
0000
0000
0001
0100
0000
0000
0001
,
0010
0000
0000
0000
0000
0000
0000
0000
0000
0001
0000
0000
1000
0000
0000
0000
0000
0010
0000
0000
0000
0000
0000
0000
,
1000
0100
0000
1000
0001
0100
0010
0000
,
1000
0000
0000
0000
0000
0010
0000
0000
0000
0100
0000
0000
0001
0000
0000
1000
0000
0000
0001
0000
0000
0000
0000
0000
,
0010
0000
0000
0000
0000
0100
0000
0000
0000
1000
0000
0000
0010
0000
0000
0000
0000
0000
0000
0000
0000
1000
0000
0000
,
0100
0000
0000
0000
0000
0000
0000
0000
0000
1000
0000
0000
0010
0000
0000
0000
0000
1000
0000
0000
0000
0000
0000
0000
,
0001
0100
0000
0001
1000
0001
0100
0000
,
0010
0000
0000
0000
0000
0100
0000
0000
0000
0001
0000
0000
1000
0000
0000
0001
0000
0000
0010
0000
0000
0000
0000
0100
,
0000
0000
0000
0000
1000
0001
0100
0000
,
0001
1000
0010
0000
1000
0100
0010
0000
,
0001
1000
0100
0000
1000
0001
0100
0000
,
0001
1000
0010
0000
1000
0001
0100
0001
,
0020
0000
0030
0001
1000
0001
1000
0010
,
0200
0000
0000
0000
0000
0300
0000
0000
0000
0001
0000
0000
0010
0000
0000
0001
0000
0000
1000
0000
0000
0001
0000
0000
,
0200
0000
0000
0000
0000
0300
0000
0000
0000
0010
0000
0000
1000
0000
0000
0001
0000
0000
1000
0000
0000
0010
0000
0000
,
2000
0000
0000
0000
0000
3000
0000
0000
0000
0001
0000
0000
1000
0000
0000
0010
0000
0000
1000
0000
0000
0100
0000
0000
,
0020
0000
0000
0000
0000
0030
0000
0000
0000
0100
0000
0000
1000
0000
0000
0001
0000
0000
1000
0000
0000
0010
0000
0000
,
0200
0000
0000
0000
0000
0300
0000
0000
0000
0001
0000
0000
1000
0000
0000
0100
0000
0000
0010
0000
0000
0001
0000
0000
,
2000
0000
0000
0000
0000
3000
0000
0000
0000
0001
0000
0000
1000
0000
0000
0010
0000
0000
1000
0000
0000
0001
0000
0000
,
0200
0000
0000
0000
0000
0300
0000
0000
0000
0001
0000
0000
1000
0000
0000
0010
0000
0000
1000
0000
0000
0000
0000
1001
,
0000
0000
0000
0000
0001
0001
0100
0000
,
0010
0010
1000
0000
0100
0100
1000
0000
,
0002
0003
2000
0000
,
0000
3000
0001
0010
0002
0000
0003
0000
,
0200
0000
0000
0000
0000
0300
0001
0000
0000
1000
0000
0000
0200
0000
0000
0000
0000
0000
0300
0000
0000
0000
0000
0000
,
2000
0000
0000
0000
0000
0000
3000
0000
0000
0000
0000
0000
0002
0000
0000
0000
0000
0000
0003
0000
0000
0000
0000
1000
,
0000
0000
0000
0000
0000
0010
0000
0000
0000
0000
0000
0100
0000
0000
0000
0000
0000
0001
0000
0000
0000
0000
0000
0000
,
4000
0004
0000
0000
0000
0000
3003
0000
0000
0000
0000
0000
0002
0000
0000
0000
0000
0000
0023
0000
0000
0000
0000
0000
,
0230
0000
2300
0000
3001
0100
0001
0000
,
1000
0010
1000
0001
0100
0000
0000
0001
,
0010
0000
0000
0000
0000
0000
0000
0000
0000
0001
0000
0000
1000
0000
0000
0000
0000
0010
0000
0000
0000
0000
0000
0000
,
1000
0100
0000
1000
0100
0010
0001
0000
,
1000
0000
0000
0000
0000
0010
0000
0000
0000
0100
0000
0000
0001
0000
0000
1000
0000
0000
0001
0000
0000
0000
0000
0000
,
1000
0000
0000
0000
0000
0100
0000
0000
0000
1000
0000
0000
0001
0000
0000
0000
0000
0000
0000
0000
0000
0100
0000
0000
,
0010
0000
0000
0000
0000
0000
0000
0000
0000
0100
0000
0000
0001
0000
0000
0000
0000
1000
0000
0000
0000
0000
0000
0000
,
0001
0100
0000
0001
1000
0100
1000
0001
,
0010
0000
0000
0000
0000
0100
0000
0000
0000
1000
0000
0000
0001
0000
0000
1000
0000
0000
0010
0000
0000
0000
0000
0100
,
0000
0000
0000
0000
0000
0000
0000
0000
0000
0001
0000
0000
0100
0000
0000
0000
0000
0100
0000
0000
0000
0010
0000
0000
,
1000
0000
0000
0000
0000
1000
0000
0000
0000
0001
0000
0000
0010
0000
0000
0000
0000
0001
0000
0000
1000
0000
0000
0000
,
0001
0000
0000
0100
0000
0000
0000
0000
0000
0001
0000
0000
1000
0000
0000
0000
0000
0010
0000
0000
0000
0000
0000
0000
,
0100
0000
0000
0000
0000
0001
0000
0000
0000
1000
0000
0000
0001
0000
0000
1000
0000
0000
0100
0000
0000
0010
0000
0000
,
0001
0000
0000
0000
0000
0100
0000
0000
0000
0001
0000
0000
1000
0000
0000
0000
0000
0010
0000
0000
0000
0100
0000
0000
,
0001
0000
0000
0000
0000
1000
0000
0000
0000
0001
0000
0000
1000
0000
0000
0000
0000
0010
0000
0000
0000
0000
0000
0000
,
1000
0100
0000
1000
0010
0100
0001
0000
,
1000
0000
0000
0000
0000
0010
0000
0000
0000
0000
0000
0000
1000
0000
0000
0001
0000
0000
0100
0000
0000
0000
0000
0002
,
0000
0000
0000
0000
0000
0000
0003
0000
0000
1000
0000
0000
0100
0000
0000
0000
0000
2000
0000
0000
3000
0001
0000
0000
,
0010
0000
0000
0000
0000
0002
0000
0000
0003
0000
0000
0000
1000
0000
0000
0010
0000
0000
1000
0000
0000
0000
0000
0200
,
0000
0000
0300
0000
1000
0001
1000
0001
,
0100
0000
0000
0000
0000
0010
0000
0000
0000
0100
0000
0000
0001
0000
0000
1000
0000
0000
0001
0000
0000
0100
0000
0000
,
0020
0000
0000
0000
0000
0130
0000
0000
0000
0001
0000
0000
1000
0000
0000
0000
0000
0200
0000
0000
0300
1000
0000
0000
,
0001
0000
0000
0000
0000
0020
0000
0000
0030
0001
0000
0000
1000
0000
0000
0001
0000
0000
0100
0000
0000
0000
0000
0020
,
0000
0000
0030
0000
1000
0001
1000
0100
,
0020
0000
0000
0000
0000
0031
0000
0000
0000
1000
0000
0000
0001
0000
0000
0100
0000
0000
0002
0000
0000
0000
0000
1003
,
0000
0000
0000
1000
0010
0100
0001
0000
,
1000
0000
0000
0100
0000
0000
1000
0000
0000
0000
0000
0000
0001
0000
0000
1000
0000
0000
0010
0000
0000
0000
0000
0100
,
0000
0000
0000
0000
0000
1001
0000
0000
0000
0000
0000
0000
0000
0000
0000
0000
0000
0000
0000
0000
0000
0000
0000
0000
;

//---------------dance-single - Ace Of Hearts (2008)----------------
#NOTES:
     dance-single:
     Ace Of Hearts (2008):
     Easy:
     3:
     0.180,0.090,0.008,0.188,0.000:
0000
0000
0001
0000
,
0001
0000
1000
1000
,
1000
0000
0010
0010
,
0010
0000
0100
0000
,
0001
0000
0100
0000
,
0100
0000
0001
0001
,
0001
0000
1000
1000
,
1000
0000
0100
0000
,
0000
0000
2000
3000
,
2000
3000
0002
0003
,
0002
0003
2000
3000
,
2000
3000
0020
0030
,
0020
0030
2000
0000
,
3000
0000
0002
0000
,
0003
0000
0200
0000
,
0300
0000
0010
0010
,
0010
0000
0200
0000
,
0300
0000
0002
0000
,
0003
0000
0020
0000
,
0030
0000
0100
0100
,
0100
0000
1000
0000
,
0001
0000
1000
1000
,
1000
0000
0002
0000
,
0003
1000
2000
0000
,
3000
0001
0001
0000
,
1000
0000
0100
0000
,
1000
1000
1000
0010
,
0200
0300
0020
0000
,
0000
0000
0130
0000
,
0100
0000
0001
0000
,
0001
0000
0100
0100
,
0100
0000
0001
0001
,
0001
0000
1000
1000
,
1000
0000
0010
0000
,
0010
0000
0100
0100
,
0100
0000
0001
0001
,
0001
0000
0010
0010
,
0100
0000
1000
0000
,
0001
0000
0010
0000
,
0100
0000
1000
0000
,
0001
0000
0100
0000
,
0010
0000
1000
0000
,
1000
0000
0001
0000
,
0001
0000
0100
0100
,
0100
0010
1000
1000
,
0002
0003
1000
1000
,
0001
0001
0200
0000
,
0300
0000
0001
0001
,
0001
0000
0010
0010
,
0020
0030
0001
0001
,
1000
1000
0020
0000
,
0030
0000
1000
1000
,
0002
0003
1000
1000
,
0100
0000
1000
1000
,
0010
0010
0100
0100
,
0001
1001
0000
0000
;

//---------------dance-single - Ace Of Hearts (2008)----------------
#NOTES:
     dance-single:
     Ace Of Hearts (2008):
     Beginner:
     1:
     0.118,0.067,0.000,0.212,0.000:
0000
0000
0001
0000
,
0001
0000
0001
0000
,
0000
0000
0010
0000
,
0010
0000
0020
0000
,
0030
0000
0001
0000
,
0001
0000
0001
0000
,
0000
0000
1000
0000
,
1000
0000
2000
0000
,
3000
0000
0010
0000
,
0000
0000
0010
0000
,
0000
0000
0010
0000
,
0000
0000
0020
0000
,
0030
0000
2000
0000
,
3000
0000
0002
0000
,
0003
0000
2000
0000
,
3000
0000
0020
0000
,
0030
0000
2000
0000
,
3000
0000
0002
0000
,
0003
0000
0200
0000
,
0300
0000
0020
0000
,
0030
0000
1000
0000
,
0000
0000
1000
0000
,
0000
0000
0002
0000
,
0000
0003
2000
0000
,
0000
3000
0010
0000
,
0000
0000
0100
0000
,
0001
0000
0001
0000
,
0200
0000
0000
0000
,
0300
0000
0001
0000
,
0001
0000
1000
0000
,
1000
0000
2000
0000
,
3000
0000
0010
0000
,
0010
0000
0020
0000
,
0030
0000
1000
0000
,
1000
0000
2000
0000
,
3000
0000
0001
0000
,
1000
0000
0200
0000
,
0300
0000
0010
0000
,
0010
0000
0010
0000
,
0000
0000
0001
0000
,
0001
0000
0001
0000
,
0000
0000
1000
0000
,
1000
0000
1000
0000
,
0000
0000
0010
0000
,
0010
0000
0020
0000
,
0030
0000
1000
0000
,
1000
0000
2000
0000
,
3000
0000
0001
0000
,
0001
0000
0002
0000
,
0003
0000
0010
0000
,
0010
0000
0020
0000
,
0030
0000
0100
0000
,
0100
0000
0200
0000
,
0300
0000
2000
3000
,
0002
0003
0020
0030
,
0001
0000
0000
0000
;
