#TITLE:Sakura Kiss;
#SUBTITLE:(English Fandub);
#ARTIST:Cristina Vee;
#TITLETRANSLIT:;
#SUBTITLETRANSLIT:;
#ARTISTTRANSLIT:;
#GENRE:J-Pop;
#CREDIT:AceOfHearts;
#BANNER:Sakura Kiss (English Fandub) - Bn.png;
#BACKGROUND:Sakura Kiss (English Fandub) - Bg.jpg;
#LYRICSPATH:Sakura Kiss (English Fandub) Lyrics.lrc;
#CDTITLE:Ace Of Hearts.png;
#MUSIC:Sakura Kiss (English Fandub).ogg;
#OFFSET:-0.490;
#SAMPLESTART:44.160;
#SAMPLELENGTH:14.000;
#SELECTABLE:YES;
#BPMS:0.000=166.000,88.000=83.000,104.000=166.000;
#STOPS:;
#BGCHANGES:-2.000=Sakura Kiss Video.avi=1.000=0=0=1=====,
191.750=Sakura Kiss -English Dub- - bg.jpg=1.000=0=0=1=Centered====,
99999=-nosongbg-=1.000=0=0=0 // don't automatically add -songbackground-
;
#KEYSOUNDS:;

//---------------dance-single - Medium----------------
#NOTES:
     dance-single:
     Ace Of Hearts (2008):
     Medium:
     6:
     0.465,0.175,0.085,0.984,0.091:
0000
0000
0000
0000
,
0001
0000
0001
0000
0002
0000
1003
0010
,
0000
0000
1000
0002
0000
0003
1000
0002
,
0000
0003
1000
0200
0000
0300
1000
0200
,
0000
0300
1001
0000
0000
0000
1001
0000
,
0000
0000
1000
0001
2000
0000
3001
0010
,
0000
0000
0001
2000
0000
3000
0001
2000
,
0000
3000
0010
0200
0000
0300
0010
0200
,
0000
0000
0000
0000
0000
0000
0300
0001
,
0100
0001
1000
0000
0020
0000
0130
0001
,
0000
0000
1000
0002
0000
0003
1000
0002
,
0003
0000
0010
0200
0000
1300
0000
0000
,
0002
0000
0000
0103
0002
0000
0000
0003
,
0010
0001
0000
2000
0000
0200
0000
0000
,
3300
0000
1000
0002
0000
0003
1000
0002
,
0000
0003
0010
0002
0000
0003
1000
0200
,
0000
0000
0300
0000
0000
0000
0000
1000
,
0001
1000
0001
0100
0002
0000
1003
0100
,
0000
0000
0010
0002
0000
0003
1000
0100
,
0000
0000
1000
0002
0000
0103
0000
0001
,
2000
0000
3200
0000
,
1300
0001
0000
0002
0000
0200
0000
0000
,
0303
0000
0000
0000
0002
0000
2003
0000
3200
0000
0000
0020
0300
0032
0000
2003
,
0000
0000
3000
0000
0002
0000
1003
0000
0200
0000
0000
2300
0000
3002
0000
0023
,
0000
0000
0030
0000
0002
0000
2003
0000
3200
0000
1300
0001
0000
0020
0000
0200
,
0000
0000
0000
0000
0000
0000
0330
0000
1000
0000
1000
0000
0002
0000
1003
0010
,
0000
0000
1000
0002
0000
0003
0100
0002
,
0000
0003
1000
0020
0000
0000
0000
0000
,
0030
0000
0100
0020
0000
0030
1000
0002
,
0000
0003
0100
0002
0000
1003
0000
0000
,
0010
2010
3001
0101
,
0000
0000
2000
3001
,
0200
0310
1000
0002
,
0103
0000
0001
0000
2000
0000
3100
0010
,
0000
0000
0001
2000
0000
3000
0001
0200
,
0000
0300
0001
0020
0000
0000
0030
0000
,
0000
0000
0001
2000
0000
3000
0001
0020
,
0000
0030
0001
2000
0000
3020
0000
0030
,
0100
0010
0100
0202
,
0000
0303
0002
0013
,
0200
0320
0032
2000
,
0000
0000
3003
0000
0002
0000
0013
0001
,
0000
0200
0000
0300
0002
0000
1003
0010
,
0000
0200
0000
0300
0002
0000
1003
0010
,
0000
0000
0010
0200
0000
0300
0010
0200
,
0000
0300
0001
0200
0000
0300
0001
0200
,
0000
0300
0110
0000
0000
0000
1001
0000
,
0000
1000
0000
0000
0000
1000
0000
0000
0000
0200
0000
0000
0000
1300
0000
0010
;

//---------------dance-single - Hard----------------
#NOTES:
     dance-single:
     Ace Of Hearts (2008):
     Hard:
     8:
     0.602,0.379,0.328,1.000,0.097: // measure 1
1000
0000
0000
0000
0001
0010
0001
0000
1000
0000
0001
0000
1000
0000
0000
0000
,  // measure 2
0001
0000
0010
0000
0002
0000
0103
0010
,  // measure 3
0000
0000
0010
0210
0000
0300
0010
0210
,  // measure 4
0000
0300
0001
2001
0000
3000
0001
2001
,  // measure 5
0000
3000
1010
0000
0000
0000
0110
0000
,  // measure 6
0000
0000
0101
0001
0010
0100
1000
0010
,  // measure 7
0000
0000
1000
0200
0000
0000
1300
0004
,  // measure 8
0000
0000
1003
0020
0000
0000
1030
0400
,  // measure 9
0000
0000
0000
0000
0000
0000
0300
1000
,  // measure 10
1001
0002
0103
0000
2010
0000
0001
3001
,  // measure 11
0000
0000
0010
0200
0000
0300
1000
0002
,  // measure 12
0003
0000
1000
0200
0000
0020
0330
0000
,  // measure 13
0002
0000
0000
1003
0002
0000
0003
0000
,  // measure 14
0021
0230
0000
2300
0000
3002
1003
0010
,  // measure 15
1010
0000
1000
0200
0000
1300
0001
0200
,  // measure 16
0000
0301
0010
0002
0000
1003
0010
0200
,  // measure 17
0000
0301
1000
0001
0100
0001
1000
0100
,  // measure 18
1000
1000
0010
0010
0200
0000
0301
0010
,  // measure 19
0000
0000
0100
2000
0000
3001
1000
0200
,  // measure 20
0000
1300
0001
0020
0000
0031
0000
1000
,  // measure 21
0020
0100
0200
0030
0302
1000
2000
3003
,  // measure 22
1020
0130
0000
0002
0000
1003
0010
0100
,  // measure 23
0002
0000
0000
0000
2003
0000
3002
0000
2003
0000
0000
3200
0000
0320
0000
0002
,  // measure 24
0000
0000
0033
0000
2000
0000
3002
0000
0203
0000
0000
0302
0000
2003
0000
0020
,  // measure 25
0000
0000
3030
0000
0200
0000
0302
0000
2003
0000
3100
0020
0000
0032
0000
0400
,  // measure 26
0000
0000
0000
0000
0000
0000
0303
0000
0020
0000
1030
0000
0200
0000
1300
0010
,  // measure 27
0000
0000
1000
0002
0000
0013
0100
2000
,  // measure 28
0000
3010
0100
0002
0000
1003
0001
0010
,  // measure 29
0100
0000
1000
0002
0000
1003
0001
0200
,  // measure 30
0000
0301
1000
0020
0000
2030
0000
3000
,  // measure 31
0001
0021
0130
2200
,  // measure 32
3300
1000
0001
0010
0400
0000
0310
0000
,  // measure 33
0002
0013
0100
1100
,  // measure 34
1000
0000
0010
0000
0100
0001
1000
1010
,  // measure 35
0000
0100
0001
2000
0000
3010
0100
0002
,  // measure 36
0000
0013
0100
0020
0000
0031
1000
0010
,  // measure 37
0100
0000
0001
2000
0000
3001
0010
0002
,  // measure 38
0000
1003
0010
2000
0000
0020
3000
0030
,  // measure 39
0110
0020
1030
2200
,  // measure 40
0000
3300
2000
3010
,  // measure 41
0200
0302
0023
0200
,  // measure 42
0000
0000
0330
0000
2000
0000
3010
0110
,  // measure 43
0000
0002
0000
0003
0200
0000
0310
1010
,  // measure 44
0000
2000
0000
3000
0002
0000
1003
1010
,  // measure 45
0000
0000
0010
0210
0000
0300
0001
2001
,  // measure 46
0000
3000
0100
0120
0000
0030
0001
0201
,  // measure 47
0000
0300
0110
0000
0000
0000
1001
0000
,  // measure 48
0000
2000
0000
0000
0000
3010
0000
0000
0000
0200
0000
0000
0000
0301
0000
0010
;

//---------------dance-single - Expert----------------
#NOTES:
     dance-single:
     Ace Of Hearts (2008):
     Challenge:
     10:
     0.821,0.757,0.608,0.887,0.346:
0011
0000
0000
0000
0001
0100
0010
0000
1000
0000
0001
0010
0100
0000
1000
0000
,
2002
0000
3003
0000
0202
0000
0300
0000
1003
0010
0100
0000
0001
0000
0202
0000
,
0303
0100
0001
2001
0000
3001
0010
0210
,
0000
1300
0001
0021
0000
0130
1000
1002
,
0000
1003
1010
0000
0100
0100
0101
0000
,
0001
0001
1001
1000
0010
0100
0001
0010
,
0100
0000
1000
0001
0100
0000
0010
0000
0100
0001
1000
0000
0100
0000
1000
0000
,
0001
0000
0100
0010
1000
0000
0001
0000
1000
0010
0100
0000
0001
0000
1000
0000
,
0100
0000
1000
0001
0010
0000
0100
0000
0010
0001
1000
0000
0010
0000
0100
0000
,
0102
1000
2003
3100
0120
0031
1000
1001
,
0001
0000
0010
0100
1000
0000
0001
0000
0100
0001
1000
0000
0100
0000
0010
0000
,
0100
0000
1000
0010
0100
0000
0001
0000
1000
0100
0010
0000
0001
0000
1000
0000
,
0010
0000
0100
0001
0010
0000
0001
0000
1000
0001
0100
0000
0010
0000
0100
0000
,
0002
0000
0203
0000
0000
0000
0320
0000
0000
0000
1030
0001
1000
0100
1000
0010
,
0100
0001
2000
3200
0310
1000
0020
0032
,
0103
0010
0002
0023
1030
0001
0200
2300
,
3100
0001
1000
0100
0010
0001
1000
0100
,
0110
0010
0001
1000
1040
0000
0130
0101
,
0001
1000
0020
0230
0301
0010
2000
3020
,
0031
1000
0002
0203
0310
1010
0000
1000
,
2001
0100
0100
3001
0102
1000
1000
0013
,
0120
0000
0130
0000
0000
0000
2100
0000
0000
0000
3001
0100
0010
0100
0001
1000
,
0020
0000
0030
0000
0100
0001
0100
0000
0010
0000
1000
0100
0000
0010
0001
1000
,
0100
0000
1000
0001
0000
1000
0010
0100
0001
0000
0001
1000
0000
0010
0100
0001
,
1000
0000
0000
0000
0020
0000
1030
0000
0200
0000
1300
0002
0000
0200
0000
0040
,
0000
0000
0000
0000
0000
0030
0303
0000
1020
0130
0001
0000
0021
0130
1000
1010
,
0000
0000
1000
0102
0000
0013
0100
2100
,
0000
3010
0100
0102
0000
1003
0010
0100
,
0001
0000
1000
2004
0000
3000
1003
4020
,
0000
0030
3001
0204
0300
0013
0000
0000
,
0001
1000
2010
0000
0002
0000
0020
0000
,
0000
0000
0030
0000
3003
0000
0000
0000
1000
0100
0010
0000
0001
0000
1000
0000
,
0010
0000
0100
0001
1000
0000
0010
0000
1000
0000
0010
0000
0100
0001
1000
0000
,
0100
0000
1000
0000
0001
0000
0010
0000
0100
1000
0100
0000
0010
0000
0001
0000
,
0101
0000
0100
0010
1000
0000
0200
0000
0000
0000
0310
0100
1000
0000
0002
0000
,
0000
0000
1003
0100
0010
0000
0200
0000
0000
0000
1000
0000
0010
0000
1300
0000
,
0001
0000
0100
0000
0010
0000
2010
0000
0000
0000
3001
0100
0010
0000
0210
0000
,
0000
0000
0301
1000
0100
0000
0120
0000
0000
0000
0031
0000
1000
0000
0010
0000
,
2020
3030
2200
3300
0202
0000
0020
0000
,
0000
0030
0303
0000
0004
0000
0043
0000
,
0230
0000
0000
0000
0320
0000
0000
0000
0230
0000
0000
0300
4200
0000
0000
0000
,
0000
0000
0000
0000
3300
0000
0000
0000
1000
0010
0100
0000
0001
0000
1001
0000
,
0000
0000
0200
0000
0000
0000
0300
0000
0001
1000
0010
0000
1000
0000
1100
0000
,
0000
0000
0002
0000
0000
0000
0003
0000
1000
0000
0010
0100
0001
0000
0011
0000
,
0000
0001
0010
0210
0000
1300
0010
0201
,
0000
0301
1000
1200
0000
1300
0010
0201
,
0000
0300
1001
0000
1000
1000
1010
0000
,
0000
0010
0000
1000
0010
0100
0000
0001
0000
0010
0100
1000
0000
0001
0000
0011
;

//---------------dance-single - Easy----------------
#NOTES:
     dance-single:
     Ace Of Hearts (2008):
     Easy:
     4:
     0.174,0.146,0.000,0.207,0.030:
0000
0000
0000
0000
,
0001
0000
0001
0000
0002
0000
0000
1003
,
0000
0000
0000
0000
,
0000
0000
0000
0000
,
0000
0010
0000
0010
,
0000
0010
0000
0000
,
0000
0000
0000
1000
0000
0000
0000
1000
,
0000
0000
0000
0100
0000
0000
0000
0200
,
0000
0000
0000
0000
0000
0300
0000
0000
,
2000
0000
0000
0000
3002
0000
0000
1003
,
0000
0000
0000
0100
0000
0000
0000
0100
,
0000
0000
0000
0100
0000
0000
0000
0000
,
0010
0000
0010
0000
,
0020
0000
0000
0000
,
0030
0000
0000
0001
0000
0000
0000
0001
,
0000
0000
0000
0001
0000
0000
0000
0001
,
0000
0000
0000
0000
,
0010
0000
0010
0000
0020
0000
0000
0030
,
0000
0000
0000
0001
0000
0000
0000
0001
,
0000
0000
0000
0001
0000
0000
0000
0000
,
1000
0000
1000
0000
,
2000
0000
0000
0000
,
3000
0001
0002
0000
,
0003
0100
0200
0000
,
0300
0010
0010
0010
,
2000
0000
0000
0000
0000
0000
3000
0000
0001
0000
0001
0000
0001
0000
0000
0010
,
0000
0000
0000
0001
0000
0000
0000
1000
,
0000
0000
0000
0001
0000
0000
0000
0000
,
0000
0000
0000
0100
0000
0000
0000
0001
,
0000
0000
0000
0100
0000
0000
0000
0000
,
0010
0010
0010
0010
,
0000
0000
1000
0000
,
0010
0000
0000
1000
,
0000
0000
0000
0000
0001
0000
0000
0010
,
0000
0000
0000
0001
0000
0000
0000
0001
,
0000
0000
0000
0002
0000
0000
0003
0000
,
0000
0000
0000
1000
0000
0000
0000
1000
,
0000
0000
0000
1000
0000
0000
0000
0000
,
0020
0000
0000
0030
,
0000
0000
1000
0000
,
0200
0000
0000
0300
,
0000
0000
0000
0000
2000
0000
0000
3001
,
0000
0000
0000
0000
2000
0000
0000
3010
,
0000
0000
0000
0000
0100
0000
0000
0010
,
0000
0000
0000
2000
0000
0000
0000
0000
,
3000
0000
0000
0002
0000
0000
0000
0000
,
0003
0010
0000
0010
,
0000
0001
0000
0000
0000
0001
0000
0000
0000
0001
0000
0000
0000
0000
0000
0010
;

//---------------dance-single - Novice----------------
#NOTES:
     dance-single:
     Ace Of Hearts (2008):
     Beginner:
     1:
     0.101,0.058,0.000,0.207,0.006:
0000
0000
0000
0000
,
2000
0000
0000
0000
,
3000
0000
0000
0000
,
0000
0000
0000
0000
,
0000
0010
0000
0010
,
0000
0010
0000
0000
,
0000
0000
0000
1000
0000
0000
0000
0000
,
0000
0000
0000
1000
0000
0000
0000
0000
,
0000
0000
0000
0000
,
2000
0000
0000
0000
0000
0000
0000
3000
,
0000
0000
0000
0001
0000
0000
0000
0000
,
0000
0000
0000
0001
0000
0000
0000
0000
,
0010
0000
0000
0000
,
0020
0000
0030
0000
,
0000
0000
0000
0100
0000
0000
0000
0000
,
0000
0000
0000
0100
0000
0000
0000
0000
,
0000
0000
0000
0000
,
2000
0000
0000
0000
0000
0000
0000
3000
,
0000
0000
0000
0001
0000
0000
0000
0000
,
0000
0000
0000
0001
0000
0000
0000
0000
,
0000
0000
0000
0000
,
0010
0000
0000
0000
,
0000
0002
0000
0000
,
0003
2000
0000
0000
,
3000
0020
0000
0000
,
0030
0000
1000
0000
,
0000
0000
0000
0001
0000
0000
0000
0002
,
0000
0000
0000
0003
0000
0000
0000
0000
,
0000
0000
0000
0100
0000
0000
0000
0200
,
0000
0000
0000
0300
0000
0000
0000
0000
,
0020
0000
0000
0030
,
0000
0000
0000
0000
,
1000
0000
0000
1000
,
0000
0000
1000
0000
,
0000
0000
0000
0020
0000
0000
0000
0000
,
0000
0000
0000
0030
0000
0000
0000
0000
,
0000
0000
0000
0100
0000
0000
0000
0000
,
0000
0000
0000
0100
0000
0000
0000
0000
,
0002
0000
0000
0003
,
0000
0000
1000
0000
,
2000
0000
0000
3000
,
0000
0000
0000
0000
0002
0000
0000
0003
,
0000
0000
0000
0000
0200
0000
0000
0300
,
0000
0000
0000
0000
0020
0000
0000
0030
,
0000
0000
0000
0000
,
0000
0000
0000
0000
,
0000
1000
0000
1000
,
0000
0020
0000
0000
0000
0000
0000
0000
0000
0000
0000
0000
0000
0000
0000
0030
;
