#TITLE:Sailor Moon;
#SUBTITLE:;
#ARTIST:Nicole & Bynne Price;
#TITLETRANSLIT:;
#SUBTITLETRANSLIT:;
#ARTISTTRANSLIT:;
#GENRE:Pop;
#CREDIT:Ace Of Hearts;
#BANNER:Sailor Moon - Bn.png;
#BACKGROUND:Sailor Moon - Bg.jpg;
#LYRICSPATH:Sailor Moon Lyrics.lrc;
#CDTITLE:Ace Of Hearts.png;
#MUSIC:Sailor Moon.ogg;
#OFFSET:-1.742;
#SAMPLESTART:13.633;
#SAMPLELENGTH:12.000;
#SELECTABLE:YES;
#BPMS:0.000=140.220;
#STOPS:;
#BGCHANGES:-1.550=Sailor Moon Video.avi=1.000=0=0=0=====,
99999=-nosongbg-=1.000=0=0=0 // don't automatically add -songbackground-
;
#KEYSOUNDS:;

//---------------dance-single - Ace Of Hearts----------------
#NOTES:
     dance-single:
     Ace Of Hearts (2008):
     Hard:
     8:
     0.505,0.000,0.418,0.589,0.075:
0000
0000
0000
0000
,
0000
0000
0000
0000
,
0000
2000
0000
0000
,
0000
3002
0000
0000
,
0020
0000
0000
0033
,
0100
0000
1000
0000
0000
0000
0001
0010
0001
0000
0000
0000
1000
0000
0010
0000
,
0100
0001
2010
3100
0000
0100
0010
0001
,
0200
0000
0310
2000
0000
3100
0110
0000
,
0020
0000
0031
0000
0100
0010
1010
0000
,
0020
0000
1030
0200
0000
0000
0320
0000
,
0032
0103
1100
0101
,
2010
0000
3100
0020
0000
0031
0100
0010
,
1010
0000
0101
0000
0000
0001
0010
0100
,
1100
0000
0110
0000
0012
1003
0000
2010
,
0000
0000
0010
0000
3010
0010
1000
0200
,
0000
0310
0001
0100
0010
1000
0001
0200
,
0000
0310
0000
0010
0000
0010
1000
0200
,
0000
0300
0010
0001
0000
0100
0010
0000
,
2000
0000
3001
0000
1000
0001
0010
0100
,
1000
0000
0010
0100
0000
0002
0000
0103
,
0020
0000
0130
0000
0000
0010
1000
0100
,
0010
0000
0001
0000
0200
0020
0000
0000
,
0000
0000
0000
0000
0330
0000
1000
0100
,
0010
0001
0000
0000
0000
0000
0001
0010
,
0200
1000
1300
0000
0000
0000
1000
0100
,
0011
0000
0000
0000
0000
0000
0001
0100
,
0020
0000
1000
0000
1030
0000
0000
1000
0000
0010
0100
0000
0110
0000
0000
0000
,
0002
0000
0013
0200
0000
0310
0001
0100
,
0120
1000
1030
0000
0000
1000
0100
0010
,
0011
0000
1100
0000
1010
1010
0000
0201
,
0000
0000
0000
0000
0010
0000
0300
0000
0000
0000
1000
0100
1000
0100
1000
0000
,
0200
0000
0000
0000
,
0320
0000
0000
0032
0000
0000
0203
0000
0320
0000
0000
0000
0000
0000
2030
0000
,
0200
0000
0000
0000
,
3300
0000
1000
0100
1000
0000
0001
0010
0001
0000
0010
0100
0010
0000
0001
0000
,
0002
0000
0000
0000
0000
0000
0000
0003
,
2000
0000
0000
3200
0000
0000
0310
0000
0001
0000
0000
0001
0000
0000
0001
0000
,
2000
3100
0010
0000
0002
1003
0000
1000
,
0100
0010
0002
2000
0000
0000
0010
3003
,
0002
0000
0103
0020
0000
1030
0200
0000
,
0320
0000
0031
0000
0001
0010
1100
0000
,
0102
0000
0013
0200
0000
0000
2300
0000
,
3020
0000
0130
0000
0001
0010
0011
0000
,
2100
0000
3010
0200
0000
0310
0100
0001
,
1001
0000
0110
0000
0000
0001
0010
0100
,
1100
0000
0011
0000
1010
1010
0000
0101
,
0000
0000
0001
0100
0001
0000
0010
0000
0001
0000
1000
0000
0100
0000
0010
0000
,
0011
0000
1100
0000
1010
0101
0000
0110
,
0000
0000
0010
0100
0010
0000
1000
0000
0100
0000
0010
0000
0001
0000
0100
0000
,
0010
1000
0100
0110
0000
0010
0001
1001
,
0000
0202
0000
0000
,
0000
0000
0000
0000
0000
0000
0000
0000
0000
0000
0000
0000
0000
0000
0000
0000
0000
0000
0000
0000
0000
0000
0000
0000
0000
0000
0000
0000
0000
0000
0000
0000
0010
0000
0000
0000
0000
0000
0000
0303
0000
0000
0000
0000
0000
0000
0000
0000
;

//---------------dance-single - Ace Of Hearts----------------
#NOTES:
     dance-single:
     Ace Of Hearts (2008):
     Medium:
     6:
     0.372,0.000,0.107,0.514,0.021:
0000
0000
0000
0000
,
0000
0000
0000
0000
,
0000
2000
0000
3000
,
0000
0002
0000
0003
,
2000
0000
3000
0000
,
0100
0010
0000
0000
0000
0000
0001
0010
,
0001
0010
0100
1000
0000
0000
0000
0000
,
2000
0000
3100
2000
0000
3001
0200
0000
,
0302
1003
0000
0000
,
0002
0000
0103
0002
0000
0000
0203
0000
,
0320
1030
0000
0000
,
2000
0000
3010
2000
0000
3100
0010
0100
,
0020
0000
0031
0000
0000
1000
0100
1000
,
0100
0000
0010
0000
0100
0100
0000
0110
,
0000
0000
0000
0000
0000
0100
1000
0200
,
0000
0310
0001
0010
0001
0010
0001
0020
,
0000
0000
0030
0000
0000
0100
0010
0200
,
0000
0300
1000
0001
0000
1000
0002
0000
,
2000
0000
0000
3003
0000
0100
0001
0100
,
0002
0000
1003
0020
0000
2030
0000
3010
,
2000
0000
3100
0000
0000
1000
0100
0010
,
0001
0000
0010
0000
0200
2000
0000
0000
,
0000
0000
3300
0000
0000
0000
0010
0001
,
0010
0001
0000
0000
0000
0000
1000
0010
,
1000
0010
1000
0000
0000
0000
0001
0100
,
0001
0000
0000
0000
0000
0000
1000
0100
,
1000
0100
1000
0000
0000
0000
0000
0000
,
0002
0000
0103
0020
0000
0130
0001
1000
,
0100
1000
0100
0000
0000
1000
0100
0010
,
0001
0000
0001
0000
0010
0100
0000
0110
,
0000
0000
0000
0000
,
2000
0000
0000
0000
,
3200
0000
0000
2300
0000
0000
3001
0000
0200
0000
0000
0000
0000
0000
0301
0000
,
0020
0000
0000
0000
,
0030
0200
0000
0000
0000
0000
0000
0000
,
2300
0000
0000
0000
,
3100
0000
0000
0100
0000
0000
0100
0000
0010
0000
0000
0010
0000
0000
0010
0000
,
0001
0010
0001
0000
0010
0100
0000
1000
,
0100
1000
0100
0020
0000
0030
0011
0000
,
2000
0000
3010
0200
0000
0301
2000
0000
,
3200
0310
0000
0000
,
0002
0000
0103
0020
0000
0000
2030
0000
,
3200
0310
0000
0000
,
0002
0000
0013
0002
0000
1003
0100
0010
,
0002
0000
0103
0000
0000
0001
0100
0010
,
1000
0000
1100
0000
1000
0100
0000
0011
,
0000
0000
0010
0000
0000
0001
0010
0100
,
1000
0000
1100
0000
0100
0010
0000
0011
,
0000
0000
0001
0000
0000
1000
0100
0010
,
0001
0000
0010
0100
0000
1000
0001
1001
,
0000
0220
0000
0000
,
0000
0000
0000
0000
0000
0000
0330
0000
1001
0000
0000
0000
;

//---------------dance-single - Ace Of Hearts----------------
#NOTES:
     dance-single:
     Ace Of Hearts (2008):
     Easy:
     4:
     0.272,0.000,0.182,0.418,0.000:
0000
0000
0000
0000
,
0000
0000
0000
0000
,
0000
0020
0000
0000
,
0000
0000
0000
0000
,
0000
0000
0000
0030
,
0100
0100
0000
0000
0000
0000
0010
0000
,
0010
0000
0010
0010
0000
0000
0000
0000
,
2000
0000
3000
2000
0000
3000
0000
0000
,
1000
1000
0000
0000
,
0002
0000
0003
0002
0000
0003
0000
0000
,
0001
0001
0000
0000
,
0020
0000
0030
0020
0000
0030
0000
0000
,
0010
0000
0010
0000
0000
0100
0100
0000
,
0100
0000
0000
0000
0010
0000
0000
0110
,
0000
0000
0000
0000
0000
1000
0000
2000
,
0000
3000
0001
0000
0001
0000
0000
0002
,
0000
0000
0003
0000
0000
0010
0000
0020
,
0000
0030
0000
0100
0000
0000
0100
0000
,
0200
0000
0000
0300
0000
0000
0001
0000
,
0001
0000
0000
1000
0000
1000
0000
0000
,
1001
0000
1001
0000
0000
1000
1000
0000
,
0001
1000
0002
0000
,
0000
0000
0003
1100
,
2200
3300
0000
0000
0000
0000
0011
0000
,
0022
0033
0000
0110
,
0220
0330
0000
0000
0000
0000
1001
0000
,
2002
3003
0000
0000
,
0200
0000
0300
0200
0000
0300
0010
0000
,
0010
0010
0000
1000
,
0001
0000
1000
0000
0001
0000
0000
1001
,
0000
0010
0000
0020
,
0200
0000
0000
0330
,
1000
0001
2000
0000
,
0002
0000
3003
0000
,
1000
0001
1000
0001
,
0220
0000
0000
0330
,
0010
0100
0010
0000
,
1000
0001
1000
0000
,
0010
0000
0000
0100
0000
0000
0000
0000
,
2000
0000
3000
0002
0000
0003
0001
0000
,
2000
3001
0000
0000
,
0020
0000
0030
0200
0000
0300
0010
0000
,
0200
0310
0000
0000
,
0002
0000
0003
2000
0000
3000
0001
0000
,
2000
0000
3001
0000
0000
1000
1000
1000
,
1000
0000
1000
0000
1000
1000
0000
1100
,
0000
0000
0000
0000
0000
0001
0001
0001
,
0001
0000
0001
0000
0001
0001
0000
0011
,
0000
0000
0000
0000
0000
0010
0010
0010
,
0010
0000
0000
0000
0000
1000
0001
1001
,
0000
2002
0000
0000
,
0000
0000
0000
0000
0000
0000
0000
0000
0000
0000
0000
0000
0000
0000
0000
0000
0000
3003
0000
0000
0000
0000
0000
0000
;

//---------------dance-single - Copied from AceOfHea----------------
#NOTES:
     dance-single:
     Ace Of Hearts (2008):
     Challenge:
     10:
     0.736,0.000,0.610,0.985,0.353: // measure 1
0000
0000
0000
0000
,  // measure 2
0000
0000
0000
0000
,  // measure 3
0000
0002
0000
0000
,  // measure 4
0000
2003
0000
0000
,  // measure 5
0002
0000
0000
0000
0000
0000
0000
0000
0000
0000
0000
0000
3003
0000
0000
0000
1000
0100
0010
0001
0000
0000
0000
0000
,  // measure 6
1100
0000
0000
0011
0000
0000
0000
1000
0100
0010
0001
0010
0100
0000
0000
0000
0000
0000
2100
0000
0000
3200
0000
0300
,  // measure 7
0020
0000
0032
0003
0102
0000
1003
0000
0000
0000
2100
0000
0001
0000
3010
0000
,  // measure 8
0102
0013
0100
2100
0000
3010
0100
0001
,  // measure 9
0102
1000
0013
0100
1000
0010
0100
0001
,  // measure 10
0021
0130
1000
0120
0130
0002
0023
0030
,  // measure 11
0210
1300
1100
1000
0010
0100
0001
0010
,  // measure 12
0210
1300
0010
0102
0000
0013
0100
1000
,  // measure 13
1020
0130
0101
0000
0000
2010
0001
3010
,  // measure 14
0M02
M0M0
0M23
M00M
M230
20M0
330M
11M0
,  // measure 15
000M
0000
0000
MM00
0000
0000
0010
0000
0000
M001
0000
0000
0010
0000
0000
0M00
0000
0000
0001
0000
0010
0000
0100
0000
100M
0000
0000
0000
0000
0000
1000
0000
0000
0000
0000
0000
0100
0000
0000
0000
0000
0000
0012
0000
0000
0000
0000
0000
,  // measure 16
0000
0103
0010
1000
0010
0100
0001
0102
,  // measure 17
0000
0013
0100
1000
0010
0200
0301
0021
,  // measure 18
0000
0130
1000
2100
0000
3010
0210
0000
,  // measure 19
0301
0010
0100
1000
0001
0010
0100
1000
0010
0100
0001
1000
0010
0100
0001
0010
,  // measure 20
0200
1300
0010
0200
0301
0020
0130
1000
,  // measure 21
1020
0130
0101
0000
0000
0002
0023
0230
,  // measure 22
2300
0000
0000
0000
3020
0000
0000
0000
0230
0000
0002
0000
0000
0300
0203
0302
,  // measure 23
0200
0000
0000
0303
0000
0000
0001
0010
,  // measure 24
0210
0000
1300
0000
M0M0
M0M0
M0M0
M0M0
0M00
0000
0000
0000
1000
0000
0010
0000
,  // measure 25
0102
0000
0013
0000
0100
0000
0M0M
0MMM
0M0M
0M0M
0M0M
0000
1000
0000
0010
0000
,  // measure 26
0202
0000
0303
0000
M0M0
MMM0
M0M0
M0M0
M0M0
0000
0000
0000
1000
0000
0100
0000
,  // measure 27
2100
0000
001M
000M
3M1M
0M0M
00M0
0100
0000
0001
0010
0000
0011
0000
0000
0000
,  // measure 28
0012
0013
0100
2100
0000
3010
0100
0100
,  // measure 29
0002
0010
0013
0000
0000
M0M2
0M23
M13M
,  // measure 30
21M0
0000
000M
0000
3M20
0000
M00M
0000
0230
M000
00M2
0000
0303
0000
M1M2
0000
,  // measure 31
0003
0000
0000
0000
0000
0000
0010
0000
0000
0100
0000
0000
0010
0000
0000
0000
0000
0000
0001
0000
0010
0000
0100
0000
1000
0000
0000
0000
0000
0000
0M01
0000
0000
0010
0000
0000
0100
0000
0000
100M
0000
0000
0100
0000
0000
0010
0000
0000
,  // measure 32
M002
00M0
M010
0M00
01M0
M100
0M10
M000
,  // measure 33
02M3
0000
M000
0320
000M
0000
2M30
0000
32M0
0000
000M
0000
13M0
0000
001M
0000
,  // measure 34
M200
00M0
001M
M000
10M0
100M
M010
00M0
,  // measure 35
M301
0010
0100
100M
0010
0100
0001
M010
0100
1000
001M
0100
M001
0010
0100
0010
,  // measure 36
M20M
00M0
M010
000M
10M0
1000
002M
M300
,  // measure 37
0002
0030
0000
0203
0000
0000
0310
0000
1010
0000
0000
1001
0000
0000
1100
0000
,  // measure 38
1000
0100
0010
0000
0001
0000
0000
0000
0010
0100
1000
0000
0000
0000
0010
0100
,  // measure 39
0010
0100
0010
0000
0200
0000
0002
0000
0000
0000
0000
0000
1010
0000
0303
0000
,  // measure 40
0102
1000
0023
0230
0000
1300
0020
0130
,  // measure 41
0102
0000
0000
0000
0013
0000
0000
0000
0100
0000
1000
0100
1100
0000
0000
0000
,  // measure 42
0010
0001
0010
0000
0100
0000
2000
0000
0000
0000
3010
0000
0100
0001
0100
0000
,  // measure 43
0020
0000
0100
0000
0130
0000
0000
0000
0010
1000
0010
1000
0010
0000
0000
0000
,  // measure 44
1000
0100
2000
0000
3010
0000
0102
0000
0000
0000
0013
0000
0100
0000
1000
0000
,  // measure 45
0010
0100
0001
0000
0101
0000
0000
0000
0000
0000
0002
0000
0023
0000
0130
0000
,  // measure 46
1100
0000
1010
0000
0110
0101
0000
1001
,  // measure 47
0000
0000
0001
0010
0001
0000
0010
0000
0100
0000
2000
0000
3200
0000
0310
0000
,  // measure 48
0011
0000
0101
0000
0110
1010
0000
0101
,  // measure 49
0000
0000
0000
0000
0000
0000
0100
0000
0000
0001
0000
0000
0010
0000
0000
0000
0000
0000
0001
0000
0010
0000
0100
0000
1000
0000
0000
0000
0000
0000
2000
0000
0000
0000
0000
0000
3020
0000
0000
0000
0000
0000
0230
0000
0000
0300
0000
0000
,  // measure 50
0101
0000
0001
0000
0020
0030
1100
0000
0000
0000
2000
0000
3010
0000
0110
0000
,  // measure 51
0000
2002
0000
0000
,  // measure 52
0000
0000
0000
0000
0000
0000
0000
0000
0000
0000
0000
0000
3003
0000
0000
0010
M10M
0010
0000
0000
0000
0000
0000
0000
;

//---------------dance-single - AceOfHearts----------------
#NOTES:
     dance-single:
     Ace Of Hearts (2008):
     Beginner:
     1:
     0.158,0.000,0.064,0.075,0.000:
0000
0000
0000
0000
,
0000
0000
0000
0000
,
0000
0020
0000
0000
,
0000
0030
0000
0000
,
0000
0000
0000
0000
,
0001
0000
0000
1000
,
1000
1000
0000
0000
,
0001
0000
0001
0000
,
0001
0000
0000
0000
,
1000
0000
1000
0000
,
1000
0000
0000
0000
,
0010
0000
0010
0000
,
0010
0000
0000
1000
,
1000
0000
0001
0000
,
1001
0000
0000
0000
,
0010
0010
0010
0000
,
0100
0000
0000
0000
,
0100
0100
0100
0000
,
0010
0000
0000
0000
,
1000
1000
1000
0000
,
0001
0000
0000
0001
,
0001
0000
1001
0000
,
0000
0000
0000
1000
,
1000
0000
0000
0001
,
0001
0000
0000
0010
,
0010
0000
0000
0100
,
0100
0000
0000
0000
,
1000
0000
0001
0000
,
1000
1000
0000
0001
,
0001
0000
1000
0000
,
1001
0000
0000
1000
,
0002
0000
0003
0000
,
0010
0000
2000
0000
,
0002
0000
3003
0000
,
0100
0100
0100
0000
,
0020
0000
0000
0030
,
1000
0000
0001
0000
,
1000
1000
1000
0000
,
0010
0000
0010
0000
,
1000
0000
1000
0000
,
0001
0001
0000
0000
,
0010
0000
0010
0000
,
0100
0100
0000
0000
,
1000
0000
1000
0000
,
0001
0001
0000
1000
,
1000
0000
0001
0000
,
1001
0000
0000
0010
,
0010
0000
0100
0000
,
0110
0000
0000
0010
,
0100
0000
0000
0000
0000
1000
0000
0001
,
0000
2002
0000
0000
,
0000
0000
0000
0000
0000
0000
0000
0000
0000
0000
0000
0000
0000
0000
0000
0000
0000
3003
0000
0000
0000
0000
0000
0000
;
