#TITLE:Rock the Boat;
#SUBTITLE:;
#ARTIST:The Hues Corporation;
#TITLETRANSLIT:;
#SUBTITLETRANSLIT:;
#ARTISTTRANSLIT:;
#GENRE:Pop;
#CREDIT:Ace Of Hearts;
#BANNER:Rock the Boat - bn.png;
#BACKGROUND:Rock the Boat - bg.jpg;
#LYRICSPATH:;
#CDTITLE:Ace Of Hearts.png;
#MUSIC:Rock the Boat.ogg;
#OFFSET:-0.590;
#SAMPLESTART:18.500;
#SAMPLELENGTH:14.000;
#SELECTABLE:YES;
#BPMS:0.000=106.500,108.000=105.700,115.000=106.800,147.000=107.500,210.000=106.500,220.000=108.000,244.000=109.000,262.000=106.500,278.000=108.400;
#STOPS:;
#BGCHANGES:;
#KEYSOUNDS:;

//---------------dance-single - Ace Of Hearts (2008)----------------
#NOTES:
     dance-single:
     Ace Of Hearts (2008):
     Challenge:
     9:
     0.517,0.000,0.402,0.481,0.539: // measure 1
0000
0000
0000
0000
,  // measure 2
0000
0000
0000
0000
,  // measure 3
0000
0000
0000
0000
,  // measure 4
0000
0000
0000
0000
0000
0000
2000
3010
,  // measure 5
0110
0000
0100
0002
0000
0000
1003
0000
0000
0000
0000
0000
0100
0010
0000
0010
,  // measure 6
0200
0000
0000
4000
0000
0000
0000
0000
0000
0000
3300
0000
2000
0000
3010
0000
,  // measure 7
0110
0000
0100
0002
0010
0000
1003
0000
0000
0000
0000
0000
0100
1000
0000
1000
,  // measure 8
0002
0000
0000
0400
0000
0000
0000
0000
0000
0000
0000
0000
0303
0000
0200
0300
,  // measure 9
0110
0000
0010
1000
0000
0000
1000
0001
0000
0001
1MM0
00MM
2MM0
30MM
1MM0
0000
,  // measure 10
1010
0000
0010
0100
0000
0000
0100
0001
0000
1000
0MM1
MM00
0MM2
MM03
0MM1
0000
,  // measure 11
0011
0000
0010
0100
0000
0000
1000
0001
0000
0001
01M0
M00M
02M0
M30M
01M0
0000
,  // measure 12
0110
0000
0010
2000
0000
0000
0000
0000
0000
0000
0000
0000
0000
0000
3001
0100
,  // measure 13
0040
0000
0000
0000
,  // measure 14
0430
0000
0000
0000
0000
0000
0000
0000
0000
0000
0000
0000
0000
0000
0000
0000
0000
0000
0301
0000
0000
1000
0000
0000
0010
0000
0100
0000
0001
0000
4000
0000
0000
0000
0000
0000
0000
0000
0000
0000
0000
0000
3002
0000
0000
0003
0000
0000
,  // measure 15
0011
0020
0000
0130
0000
1000
0000
0001
0010
0000
0100
0000
1000
0000
0010
0400
,  // measure 16
0000
0000
0000
0000
0300
0000
0000
0001
,  // measure 17
0011
0000
0100
0000
1000
0000
0010
0000
0100
0000
0001
0000
1000
0000
0001
1000
,  // measure 18
0020
0000
0000
0000
0000
0000
0000
0000
0030
0000
0000
0000
0000
0100
0001
2000
,  // measure 19
0000
0000
3100
0020
0000
0130
0000
1100
0000
1000
0010
0200
0000
0301
0000
4000
,  // measure 20
0000
0000
0000
0000
0000
0000
0000
0000
3000
0000
0000
0000
0000
0200
0000
0000
,  // measure 21
0000
0310
0000
0001
0000
1000
0100
2000
0000
3010
0000
0200
0000
0300
0000
0001
,  // measure 22
0000
2000
0000
0400
0000
0000
0000
0000
0000
0000
3000
0000
0040
0000
0000
0000
,  // measure 23
0000
0000
0330
0000
0000
0000
0000
0010
,  // measure 24
0021
0000
0001
0030
0001
0000
0100
0000
0120
0000
1000
0030
1000
0000
1004
0000
,  // measure 25
0000
0000
0000
0040
0033
0002
1003
0100
,  // measure 26
0120
0130
1000
0010
0120
0130
0001
0010
,  // measure 27
0000
0100
1000
0001
0102
0000
4000
0000
,  // measure 28
0000
0000
0000
0000
0000
3003
0101
0000
,  // measure 29
1010
0000
0000
0000
1100
0000
0000
0100
2000
0000
3020
0030
0110
0000
0100
0002
,  // measure 30
0000
0000
0013
0000
0000
0000
0000
0000
0100
0010
0000
1000
0020
0000
0000
0400
,  // measure 31
0000
0000
0000
0000
0000
0000
0330
0000
2000
0000
3002
0003
0101
0000
0100
0020
,  // measure 32
1000
0000
0130
0000
0000
0000
0000
0000
0010
0001
0000
0001
0020
0000
0000
0400
,  // measure 33
0000
0000
0000
0000
0000
0000
0000
0000
0330
0000
0020
0030
0110
0000
0100
0001
,  // measure 34
0000
0000
1000
0001
0000
0001
1MM0
00MM
2MM0
30MM
1MM0
0000
1010
0000
0010
0100
,  // measure 35
0000
0000
0100
0001
0000
0100
M01M
0M00
M02M
0M30
M01M
0000
0110
0000
0100
0001
,  // measure 36
0000
0000
1000
0100
0000
1000
0MM1
MM00
0MM2
MM03
0MM1
0000
0101
0000
0100
0002
,  // measure 37
0000
0000
0000
0000
0000
0000
0000
0000
0000
0000
1003
0100
0040
0000
0000
0000
,  // measure 38
0000
0000
0000
0430
,  // measure 39
1300
0000
0000
0000
0000
0000
0001
0000
0000
0000
0000
0000
0001
0000
0010
0000
0100
0000
4000
0000
0000
0000
0000
0000
0000
0000
0000
0000
0000
0000
3010
0000
0000
0000
0000
0000
0010
0000
0000
0100
0000
0000
0000
0000
0000
0001
0000
0000
,  // measure 40
0000
1000
0000
0100
0010
0000
0100
0000
1000
0001
0000
0400
0000
0000
0000
0000
,  // measure 41
0000
0000
0000
0000
0300
0000
0000
0000
0000
0100
0010
0000
0210
0000
0301
0000
,  // measure 42
1000
0000
0010
0000
0100
0001
0000
0010
0000
0000
0000
0100
0010
0001
0000
0200
,  // measure 43
0000
0000
0000
0000
0300
0000
0000
0000
0000
0100
0001
0000
0002
0000
1003
0000
,  // measure 44
0100
0010
0000
0100
0000
0000
0010
0000
0100
0000
0000
1000
0000
0004
0000
0000
,  // measure 45
0000
0000
0000
0000
0000
0000
0003
0000
0000
2000
0000
0000
3010
0100
0000
0001
,  // measure 46
0000
1000
0000
0020
0000
0000
0130
0000
0002
0000
0000
0000
1003
0000
0010
0000
,  // measure 47
0100
0001
0010
0400
0000
0000
0000
0000
,  // measure 48
0000
0000
0000
0000
0300
1000
1020
0100
,  // measure 49
0100
0030
0001
0000
0102
0000
0010
0003
0010
0000
0410
0000
0000
0000
0000
0000
,  // measure 50
0000
4000
0300
3002
0103
0010
0120
0130
,  // measure 51
0001
0010
0120
0130
1000
0010
0000
1010
,  // measure 52
1000
0001
0021
0000
0400
0000
0000
0000
,  // measure 53
0000
0330
1100
0011
,  // measure 54
1001
0000
0000
1000
0200
0000
2300
3000
1001
0000
0001
0200
0000
0300
0110
0000
,  // measure 55
0000
0000
0000
0000
0100
0001
0000
0001
2000
0000
0000
0400
0000
0000
0000
0000
,  // measure 56
0000
0000
3300
0000
0120
0000
0032
0003
0101
0000
0100
0020
1000
0030
0110
0000
,  // measure 57
0000
0000
0000
0000
0010
1000
0000
0010
0200
0000
0000
0004
0000
0000
0000
0000
,  // measure 58
0000
0000
0303
0000
2001
0000
3200
0300
0110
0000
0010
0002
0000
0003
0101
0000
,  // measure 59
0000
0000
0000
0000
0100
0010
0000
0010
2000
0000
0000
0400
0000
0000
0000
0000
,  // measure 60
0000
0000
3300
0000
0120
0000
0032
0003
1001
0000
1000
0002
0010
0003
1001
0000
,  // measure 61
0000
0000
0000
0000
1000
0001
0000
0001
0020
0000
0000
0400
0000
0000
0000
0000
,  // measure 62
0000
0000
0330
0000
0000
0000
0110
0000
1001
0000
0001
1000
0000
0001
0000
0010
,  // measure 63
0000
0010
M10M
00M0
M20M
03M0
M10M
0000
1100
0000
1000
0001
0000
0100
0000
0010
,  // measure 64
0000
1000
0M10
M00M
0M20
M03M
0M10
0000
0110
0000
0100
0001
0000
1000
0000
0100
,  // measure 65
0000
0010
0M01
M0M0
0M02
M0M3
0M01
0000
0101
0000
0100
0010
0000
1000
0000
0001
,  // measure 66
0000
0001
10M0
0M0M
20M0
3M0M
10M0
0000
1010
0000
0010
0100
0000
0000
1020
0000
,  // measure 67
0000
2000
0030
0000
3200
0000
0300
0000
0110
0000
0010
0100
0000
1000
0000
1004
,  // measure 68
0000
0000
0103
0010
4000
0000
3100
0000
0110
0000
0010
0001
0000
1001
0000
4000
,  // measure 69
0000
0000
3001
0010
0400
0000
1300
0000
1010
0000
0010
0100
0000
0000
0001
0021
,  // measure 70
0000
0000
0130
1000
0004
0000
0103
0000
0110
0000
0100
0001
0000
0000
2000
3000
,  // measure 71
2020
0000
3030
0000
0020
0030
0220
0330
0101
0000
0001
0010
0000
0000
0100
0000
,  // measure 72
2200
0000
3300
0000
1000
0000
2002
3003
0011
0000
0010
0100
0000
0100
1000
0001
,  // measure 73
0100
0010
0100
0001
4000
0000
3010
0000
0110
0000
0100
0001
0000
0001
1000
0010
,  // measure 74
0100
0010
1000
0010
0100
0001
0002
0003
0011
0000
0010
0100
0000
0100
1000
0001
,  // measure 75
0100
0010
0100
0001
0400
0000
0310
0000
1010
0000
1000
0001
0000
0001
0010
0100
,  // measure 76
0010
0001
0100
0010
1000
1000
0001
0000
0101
0000
0100
0010
0000
0010
1000
0001
,  // measure 77
0010
0001
1000
0001
0040
0000
0130
0000
1100
0000
1000
0001
0000
0100
0010
0100
,  // measure 78
0001
0002
0000
0000
0013
0100
2000
3000
1001
0000
0001
0010
0000
0010
0100
1000
,  // measure 79
0010
0100
0001
1000
0400
0000
0310
0000
0110
0000
0100
1000
0000
0010
0000
0000
,  // measure 80
0210
0000
0000
0301
0000
0000
1000
0000
1100
0000
0100
0010
0000
0010
0001
0100
,  // measure 81
0010
0100
0001
1000
0200
0000
0310
0000
1001
0000
0000
0000
0000
0000
0000
0000
;

//---------------dance-single - Ace Of Hearts (2008)----------------
#NOTES:
     dance-single:
     Ace Of Hearts (2008):
     Hard:
     8:
     0.429,0.000,0.011,0.507,0.452:
0000
0000
0000
0000
,
0000
0000
0000
0000
,
0000
0000
0000
0000
,
0000
0000
0000
0000
0000
0000
0001
0200
,
0310
0000
0100
0002
0000
0000
1003
0000
0000
0000
0000
0000
0001
1000
0000
0001
,
0020
0000
0000
0430
0000
0000
0000
0000
0000
0000
0300
0000
1000
0000
0020
0000
,
0130
0000
0001
2000
0000
0000
3100
0000
0000
0000
0000
0000
1000
0001
0000
0100
,
0020
0000
0000
4030
0000
0000
0000
0000
0000
0000
3000
0000
0000
0000
0002
0000
,
0013
0000
0001
0010
0000
0000
0001
1000
000M
M001
1000
000M
0002
M000
1003
0000
,
0010
0000
1000
0001
0000
0000
0100
0001
0M00
010M
0001
0M00
0200
000M
0310
0000
,
1000
0000
0001
0100
0000
0000
0010
1000
00M0
M010
1000
00M0
0020
M000
0130
0000
,
0001
0000
0100
0020
0000
0000
0000
0000
0000
0000
0000
0000
0000
0000
1030
0001
,
2000
0000
0000
0000
,
3200
0000
0000
1300
0001
0200
0000
0301
,
1000
0010
0000
0100
0000
0001
0000
1000
0000
0000
0010
0000
0100
0000
0001
0200
,
0000
0000
0000
0000
0300
0000
0000
0001
,
0010
0000
0100
0000
1000
0000
0001
0000
0100
0000
0001
0000
1000
0000
0001
0100
,
0002
0000
0000
0000
0000
0000
0000
0000
0003
0000
0000
0000
0000
1000
0010
2000
,
0000
0000
3001
0100
0000
0001
0000
1000
0000
0001
0010
0002
0000
1003
0000
0200
,
0000
0000
0000
0000
0000
0000
0000
0000
0300
0000
0000
0000
0000
2000
0000
3000
,
0000
0001
0000
0100
0000
0010
1000
0010
0000
0100
0000
0001
0000
0000
0000
1000
,
0000
0010
0000
0200
0000
0000
0000
0000
0000
0000
0000
0000
0000
0000
0000
0000
,
0000
0000
0300
0000
0000
0000
0000
0002
,
2003
3010
0100
0010
2000
3100
0010
0002
,
0000
0000
0000
0200
0003
0310
1000
0001
,
0020
0031
1000
0010
0200
0301
1000
0010
,
0000
0100
0010
1000
0020
0000
0200
0000
,
0000
0000
0000
0000
0000
0330
0000
0000
,
0000
0000
0000
0000
0000
0000
0000
0000
0101
0000
0002
0000
1003
0000
0100
0020
,
0000
0000
0130
0000
0000
0000
0000
0000
1000
0001
0000
0100
0020
0000
0000
0430
,
0000
0000
0000
0000
0000
0000
0300
0000
0002
0000
2003
0000
3010
0000
0100
0020
,
0000
0000
1030
0000
0000
0000
0000
0000
0001
0010
0000
0001
2000
0000
0000
3040
,
0000
0000
0000
0000
0000
0000
0000
0000
0030
0000
2000
3000
0010
0000
0100
0001
,
0000
0000
0100
0010
0M00
01M0
0010
0M00
0200
00M0
0301
0000
1000
0000
0100
0010
,
0000
0000
0100
1000
0M00
M100
1000
0M00
0200
M000
0310
0000
0001
0000
1000
0100
,
0000
0000
0010
0001
00M0
001M
0001
00M0
0020
000M
0130
0000
1000
0000
0001
2000
,
0000
0000
0000
0000
0000
0000
0000
0000
0000
0000
3001
0100
0002
0000
0000
0000
,
0000
0000
0000
0203
,
0000
0000
0310
0000
1000
0000
0002
0000
0000
0000
0013
0000
0001
1000
0000
0010
,
0000
1000
0000
0002
0000
0000
0103
0000
0001
1000
0000
0200
0000
0000
0000
0000
,
0000
0000
0000
0000
0300
0000
0000
0000
0000
1000
0001
0000
0100
0000
0001
0000
,
1000
0000
0010
0000
1000
0001
0000
0100
0000
0000
0000
0001
1000
0001
0000
0020
,
0000
0000
0000
0000
0030
0000
0000
0000
0000
0001
0100
0000
0020
0000
0130
0000
,
0001
1000
0000
0100
0000
0000
1000
0000
0001
0000
0000
0010
0000
0200
0000
0000
,
0000
0000
0000
0000
0000
0000
0300
0000
0000
2000
0000
0000
3001
0100
0000
0010
,
0000
0100
0000
0002
0000
0000
1003
0000
0200
0000
0000
0000
0310
0000
0001
0000
,
1000
0010
0100
0002
0000
0000
0000
0000
,
0000
0000
0000
0000
0003
1000
0010
0100
,
0010
1000
0100
0010
0100
2000
0000
0000
,
0000
0002
3000
0103
0010
0100
0002
1003
,
0001
0010
0200
0310
0001
1000
0000
0001
,
0010
0100
2000
0000
0002
0000
0000
0000
,
0000
3003
0000
0000
,
0000
0000
0000
0000
1000
0000
0020
0000
0130
0000
0010
2000
0000
0000
3001
0000
,
0000
0000
0000
0000
0001
0010
0000
0010
0002
0000
0000
0400
0000
0000
0000
0000
,
0003
0000
0300
0000
0010
0000
0200
0000
0301
0000
1000
0002
0000
0000
0103
0000
,
0000
0000
0000
0000
0010
1000
00M0
1000
0020
0000
0000
0400
0000
0000
0000
0000
,
0030
0000
0300
0000
0001
0000
0020
0000
0031
0000
1000
0002
0000
0000
0103
0000
,
0000
0000
0000
0000
0001
0100
000M
0100
0002
0000
0000
0040
0000
0000
0000
0000
,
0003
0000
0030
0000
0100
0000
2000
0000
3001
0000
0100
0020
0000
0000
1030
0000
,
0000
0000
0000
0000
0010
0100
00M0
0100
0020
0000
0000
4000
0000
0000
0000
0000
,
0030
0000
3000
0000
0000
0000
0002
0000
0013
0000
0001
1000
0000
0001
0000
010M
,
0000
0M01
0100
000M
0002
0M00
0103
0000
0010
0000
0100
0010
0000
1000
0000
M010
,
0000
10M0
0010
M000
2000
00M0
3010
0000
0100
0000
0001
1000
0000
0010
0000
01M0
,
0000
0M10
0100
00M0
0020
0M00
0130
0000
0001
0000
0100
0001
0000
1000
0000
M001
,
0000
100M
0001
M000
2000
000M
3001
0000
1000
0000
0001
0100
0000
0000
0020
0000
,
0000
2030
0000
0000
3002
0000
0003
0000
1000
0000
0001
0010
0000
0001
0000
2000
,
0000
0000
3010
0000
0100
0000
0001
0000
0100
0000
0001
1000
0000
0010
0000
2000
,
0000
0000
3001
0000
0010
0000
0100
0000
1000
0000
0001
0100
0000
0000
0001
2000
,
0000
0000
3001
0000
0010
0000
0100
0000
0010
0000
0001
0010
0000
0000
0002
0000
,
1003
0000
0000
0000
0002
0000
0013
0000
0001
0000
1000
0010
0000
0000
2000
0000
,
3001
0000
0000
0000
0200
0000
0301
0000
1000
0000
0010
0100
0000
0000
0001
0000
,
1000
0100
1000
0100
2000
0000
3001
0000
0001
0000
1000
0010
0000
0000
1000
0000
,
0001
1000
0001
0000
0200
0000
0310
0000
1000
0000
0001
0100
0000
0000
0010
0000
,
0100
0001
0100
0001
0200
0000
0310
0000
0010
0000
1000
0001
0000
0000
0100
0000
,
0010
0000
0010
0000
2000
0000
3001
0000
1000
0000
0010
0100
0000
0000
0001
0000
,
1000
0010
1000
0010
2000
0000
3100
0000
0100
0000
1000
0001
0000
0000
1000
0000
,
0020
0000
0000
0000
0130
0000
0000
0000
0001
0000
1000
0100
0000
0000
1000
0000
,
0001
0010
0001
0010
0002
0000
1003
0000
0010
0000
1000
0001
0000
0100
0000
0000
,
0002
0000
0000
1003
0000
0000
0010
0000
1000
0000
0001
0010
0000
0000
0100
0000
,
1000
0001
1000
0001
2000
0000
3010
0000
0110
0000
0000
0000
0000
0000
0000
0000
;

//---------------dance-single - Ace Of Hearts (2008)----------------
#NOTES:
     dance-single:
     Ace Of Hearts (2008):
     Medium:
     6:
     0.254,0.000,0.011,0.285,0.135:
0000
0000
0000
0000
,
0000
0000
0000
0000
,
0000
0000
0000
0000
,
0000
0000
0000
0000
0000
0000
0001
0010
,
0001
0000
0000
2000
0000
0000
3010
0000
0000
0000
0000
0000
1000
0000
0000
0000
,
0002
0000
0000
0200
0000
0000
0000
0000
0303
0000
0000
0000
0010
0000
1000
0000
,
0010
0000
0000
2000
0000
0000
3001
0000
0000
0000
0000
0000
0100
0000
0000
0000
,
0002
0000
0000
2000
0000
0000
0000
0000
0000
0000
3003
0000
0000
0000
0001
0000
,
0100
0000
0000
0001
0000
0000
0000
0000
100M
0000
M001
0000
100M
0000
0000
0000
,
0001
0000
0000
0010
0000
0000
0000
0000
M001
0000
100M
0000
M001
0000
0000
0000
,
1000
0000
0000
0010
0000
0000
0000
0000
01M0
0000
0M10
0000
01M0
0000
0000
0000
,
0001
0000
0000
2000
0000
0000
0000
0000
0000
0000
0000
0000
0000
0000
0000
0000
,
3020
0000
0000
0000
,
0230
0000
0300
0000
,
0001
0000
1000
0000
0001
0100
0001
0000
,
2000
0000
3000
0000
,
0001
0000
0010
0000
0100
0000
1000
0001
,
0020
0000
0030
0000
,
0001
0000
1000
0100
1000
0000
0001
0000
,
0200
0000
0000
0000
0300
0000
0000
0010
,
0000
1000
0000
0000
1000
0000
0000
0000
,
0000
0002
0000
0000
0000
0000
0000
0000
,
0003
0000
0000
0000
0000
0000
0000
1000
,
0002
0100
0103
0001
,
2000
0000
0000
3200
0300
1000
0001
0000
,
0100
0001
0100
0000
0010
1000
0010
0000
,
0000
1000
0001
0000
2000
0000
0200
0000
,
0000
0000
3300
0000
,
0000
0000
0000
0000
0000
0000
0000
0000
1000
0000
0001
0000
1000
0000
0000
0002
,
0000
0000
0103
0000
0000
0000
0000
0000
0001
0000
0000
0000
0020
0000
0000
0200
,
0000
0000
0000
0000
0330
0000
0000
0000
0010
0000
0001
0000
0010
0000
0000
0002
,
0000
0000
1003
0000
0000
0000
0000
0000
0010
0000
0000
0000
2000
0000
0000
0200
,
0000
0000
0000
0000
3300
0000
0000
0000
0000
0000
1000
0000
0001
0000
0000
0100
,
0000
0000
0000
0000
0M01
0000
010M
0000
0M01
0000
0000
0000
1000
0000
0000
0001
,
0000
0000
0000
0000
10M0
0000
M010
0000
10M0
0000
0000
0000
0001
0000
0000
0100
,
0000
0000
0000
0000
0M10
0000
01M0
0000
0M10
0000
0000
0000
1000
0000
0000
0020
,
0000
0000
0000
2030
,
0000
0000
0000
3002
,
0000
0003
0000
1000
,
0100
0000
0010
0001
0010
0000
0200
0000
,
0000
0300
0000
1000
,
0001
0000
1000
0010
1000
0000
0001
0000
,
2000
3000
0000
0010
,
0100
0000
0001
0000
1000
0100
2000
0000
,
3000
0000
0000
0000
0001
0000
1000
0010
,
1000
0000
0100
0000
1000
0000
0000
0001
,
0010
0001
0000
0200
0000
0000
0000
0000
,
0000
0000
0300
0000
0000
0001
2000
0000
,
0100
3100
1000
0002
,
0000
0023
0030
0001
1000
0000
0010
1000
,
0010
0000
0100
0001
0100
0000
0000
0001
,
1000
0020
0200
0000
,
0000
0330
0000
0000
,
0000
0000
0000
0000
0001
0000
0100
0000
0001
0000
0000
2000
0000
0000
3010
0000
,
0000
0000
0000
0000
1000
0000
0000
0000
0002
0000
0000
0403
0000
0000
0000
0000
,
0300
0000
0000
0000
0001
0000
1000
0000
0010
0000
0000
2000
0000
0000
3010
0000
,
0000
0000
0000
0000
1000
0000
0000
0000
0200
0000
0000
0340
0000
0000
0000
0000
,
0030
0000
0000
0000
0001
0000
1000
0000
0100
0000
0000
0020
0000
0000
0130
0000
,
0000
0000
0000
0000
1000
0000
0000
0000
0002
0000
0000
4003
0000
0000
0000
0000
,
3000
0000
0000
0000
0001
0000
1000
0000
0010
0000
0000
2000
0000
0000
3001
0000
,
0000
0000
0000
0000
1000
0000
0000
0000
0020
0000
0000
0430
0000
0000
0000
0000
,
0000
0000
0300
0000
0000
0000
0001
0000
1000
0000
0000
0010
0000
0000
0000
0000
,
100M
0000
M001
0000
100M
0000
0000
0000
0100
0000
0000
0010
0000
0000
0000
0000
,
00M1
0000
001M
0000
00M1
0000
0000
0000
1000
0000
0000
0010
0000
0000
0000
0000
,
1M00
0000
M100
0000
1M00
0000
0000
0000
0001
0000
0000
1000
0000
0000
0000
0000
,
0M10
0000
01M0
0000
0M10
0000
0000
0000
1000
0000
0000
0001
0000
0000
0022
0000
,
0000
0000
0000
0000
0033
0000
0000
0000
0010
0000
0000
0001
0000
0000
0000
2000
,
0000
0000
3001
0000
0100
0000
0001
0000
1000
0000
0000
0100
0000
0000
0000
2000
,
0000
0000
3001
0000
0010
0000
0001
0000
1000
0000
0000
0010
0000
0000
0000
2000
,
0000
0000
3001
0000
0100
0000
0001
0000
1000
0000
0000
0010
0000
0000
2000
0000
,
3000
0000
0000
0000
0020
0000
0030
0000
1000
0000
0000
0001
0000
0000
0200
0000
,
0300
0000
0000
0000
0002
0000
0003
0000
1000
0000
0000
0100
0000
0000
0000
0000
,
4000
0004
0000
0000
0000
3003
0000
0000
0001
0000
0000
0010
0000
0000
0000
0000
,
0400
0000
0000
0000
0000
0300
0000
0000
1000
0000
0000
0001
0000
0000
0000
0000
,
0400
0004
0000
0000
0000
0303
0000
0000
0100
0000
0000
0010
0000
0000
0000
0000
,
4000
0000
0000
0000
0000
3000
0000
0000
0001
0000
0000
1000
0000
0000
0000
0000
,
0004
0040
0000
0000
0000
0033
0000
0000
0010
0000
0000
0100
0000
0000
1000
0000
,
0002
0000
0000
0000
0103
0000
0000
0000
0001
0000
0000
1000
0000
0000
0000
0000
,
0040
0400
0000
0000
0000
0330
0000
0000
0100
0000
0000
0001
0000
0000
1000
0000
,
0100
0000
0000
0000
1000
0000
0001
0000
0100
0000
0000
0010
0000
0000
0000
0000
,
4000
0004
0000
0000
0000
3003
0000
0000
1001
0000
0000
0000
0000
0000
0000
0000
;

//---------------dance-single - Ace Of Hearts (2008)----------------
#NOTES:
     dance-single:
     Ace Of Hearts (2008):
     Easy:
     3:
     0.166,0.000,0.021,0.243,0.000:
0000
0000
0000
0000
,
0000
0000
0000
0000
,
0000
0000
0000
0000
,
0000
0000
0000
0000
,
0001
0001
0001
0000
,
0020
0000
0030
0000
,
0100
0100
0100
0000
,
0020
0000
0030
0000
,
0002
0000
0000
0000
0003
0000
0000
0000
4000
0000
0000
0000
0000
3000
0000
0000
,
0002
0000
0000
0000
0003
0000
0000
0000
0040
0000
0000
0000
0000
0030
0000
0000
,
0002
0000
0000
0000
0003
0000
0000
0000
0400
0000
0000
0000
0000
0300
0000
0000
,
0010
0000
0000
0000
,
2000
0000
0000
0000
,
0002
0000
3003
0000
,
0001
0001
0001
0000
,
0100
0000
0000
0000
,
0010
0010
0010
0000
,
1000
0000
0000
0000
,
0001
0001
0001
0000
,
0100
0000
0000
0000
,
0010
0000
0010
0000
,
0020
0000
0000
0000
,
0030
0000
0000
0000
,
1000
1000
1000
0000
,
0020
0000
0030
0000
,
0100
0100
0100
0000
,
0000
0001
0200
0000
,
0000
0000
0000
0300
,
0000
0000
0001
0001
,
0001
0001
0010
0020
,
0000
0030
0001
0001
,
0001
0001
1000
2000
,
0000
3000
0000
0010
,
0010
0000
0000
0000
0040
0000
0000
0000
0000
0030
0000
0000
1000
0000
0000
0000
,
1000
0000
0000
0000
4000
0000
0000
0000
0000
3000
0000
0000
0001
0000
0000
0000
,
0001
0000
0000
0000
0004
0000
0000
0000
0000
0003
0000
0000
0010
0000
0000
0000
,
0020
0000
0000
0230
,
0000
0000
0000
2300
,
0000
3000
0000
0001
,
0001
0002
0000
0103
,
0000
0000
0000
0010
,
0010
0010
0000
1000
,
1000
0000
0000
0001
,
0001
0001
0000
0200
,
0000
0300
0000
0010
,
0010
0000
0010
0000
0000
0000
0000
1000
,
0000
1000
0000
2000
0000
0000
0000
3000
,
0000
0000
0000
0001
,
0001
0001
0000
0020
,
0000
0030
0000
0001
,
0001
0001
0000
0000
,
1000
0020
0000
0000
,
0000
0000
0030
0000
,
0000
1000
1000
2000
,
3000
0010
0020
0000
,
0030
0100
0100
0200
,
0300
0001
0002
0000
,
0003
0100
0100
0200
,
0300
0010
0020
0000
,
0030
1000
1000
2000
,
3000
0100
0200
0000
,
0300
0000
0010
0010
,
0040
0000
0000
0000
0000
0030
0000
0000
0001
0000
0000
0000
0001
0000
0000
0000
,
0004
0000
0000
0000
0000
0003
0000
0000
1000
0000
0000
0000
1000
0000
0000
0000
,
4000
0000
0000
0000
0000
3000
0000
0000
0100
0000
0000
0000
0100
0000
0000
0000
,
0400
0000
0000
0000
0000
0300
0000
0000
0010
0000
0000
0000
0010
0000
0000
0000
,
0220
0330
1000
1000
,
2000
3000
0010
0010
,
0020
0030
0100
0100
,
0200
0300
0001
0000
,
0202
0303
0010
0000
,
2020
3030
1000
1000
,
0020
0030
0100
0100
,
0002
0003
0100
0100
,
0020
0030
1000
1000
,
0200
0300
0010
0010
,
0002
0003
1000
1000
,
0020
0030
0100
0100
,
0002
0003
1000
1000
,
0200
0300
0010
0010
,
0002
0003
1001
0000
;

//---------------dance-single - Ace Of Hearts (2008)----------------
#NOTES:
     dance-single:
     Ace Of Hearts (2008):
     Beginner:
     1:
     0.109,0.000,0.037,0.180,0.000:
0000
0000
0000
0000
,
0000
0000
0000
0000
,
0000
0000
0000
0000
,
0000
0000
0000
0000
,
0010
0000
0000
0000
,
0020
0000
0030
0000
,
0100
0000
0000
0000
,
0200
0000
0300
0000
,
0001
0000
0001
0000
,
1000
0000
1000
0000
,
0001
0000
0001
0000
,
2002
0000
0000
0000
,
0000
0000
0000
0000
,
0000
0000
3003
0000
,
0001
0000
0001
0000
,
0001
0000
0000
0000
,
0010
0000
0010
0000
,
0010
0000
0000
0000
,
0100
0000
0100
0000
,
0100
0000
0000
0000
,
1000
0000
1000
0000
,
1000
0000
0000
0000
,
0000
0000
0000
0000
,
0010
0000
0010
0000
,
0020
0000
0030
0000
,
0100
0000
0100
0000
,
0220
0000
0000
0000
,
0000
0000
0000
0330
,
0000
0000
0000
1000
,
0000
0000
0000
2000
,
0000
3000
0000
0001
,
0000
0000
0000
0002
,
0000
0003
0000
0100
,
0000
0100
0000
0010
,
0000
0010
0000
0100
,
0000
0100
0000
0220
,
0000
0000
0000
0000
,
0000
0000
0000
0000
,
0000
0330
0000
0001
,
0000
0001
0000
0001
,
0000
0000
0000
1000
,
0000
1000
0000
1000
,
0000
0000
0000
0100
,
0000
0100
0000
0100
,
0000
0000
0000
0010
,
0000
0000
0010
0000
0000
0000
0000
0020
,
0000
0000
0000
0030
,
0000
0000
0000
0001
,
0000
0001
0000
0002
,
0000
0003
0000
1000
,
0000
1000
0000
2002
,
0000
0000
0000
0000
,
0000
3003
0000
0000
,
0000
0000
1000
0000
,
0000
0000
2000
0000
,
3000
0000
0001
0000
,
0000
0000
0002
0000
,
0003
0000
0010
0000
,
0000
0000
0020
0000
,
0030
0000
0100
0000
,
0000
0000
0200
0000
,
0300
0000
1000
0000
,
1000
0000
0010
0000
,
0010
0000
1000
0000
,
1000
0000
0001
0000
,
0001
0000
0010
0000
,
0020
0030
0001
0000
,
0002
0003
0100
0000
,
0200
0300
0010
0000
,
0020
0030
2002
0000
,
3003
0000
0220
0000
,
0330
0000
1000
0000
,
2000
3000
0001
0000
,
0002
0003
0010
0000
,
0020
0030
0100
0000
,
0100
0000
1000
0000
,
2000
3000
0001
0000
,
0002
0003
1000
0000
,
2000
3000
0100
0000
,
0100
0000
1000
0000
,
2000
3000
1001
0000
;
