#TITLE:Princess Bride;
#SUBTITLE:;
#ARTIST:Kotoko;
#TITLETRANSLIT:;
#SUBTITLETRANSLIT:;
#ARTISTTRANSLIT:;
#GENRE:;
#CREDIT:Ace Of Hearts;
#BANNER:Princess Bride - Bn.png;
#BACKGROUND:Princess Bride - Bg.jpg;
#LYRICSPATH:;
#CDTITLE:Ace Of Hearts.png;
#MUSIC:Princess Bride.ogg;
#OFFSET:0.470;
#SAMPLESTART:49.787;
#SAMPLELENGTH:20.000;
#SELECTABLE:YES;
#BPMS:0.000=155.000;
#STOPS:;
#BGCHANGES:;
#FGCHANGES:;
#KEYSOUNDS:;

//---------------dance-single - Expert----------------
#NOTES:
     dance-single:
     Ace Of Hearts (2008):
     Challenge:
     12:
     1.000,0.000,1.000,1.000,0.795:
0000
0000
0000
0000
,
0000
0000
0000
0000
,
0000
0000
0000
0000
,
0000
0000
0000
0000
,
2000
0000
0000
3002
0000
0000
0013
0000
0100
0000
1000
0000
0001
0000
0001
0010
,
0100
1000
0010
0100
0002
0000
1003
0100
0010
0001
1000
0010
0200
0000
0310
0000
,
2000
0000
3020
0000
0230
0300
0002
0000
1003
0100
1000
0010
0200
0000
0301
0010
,
0100
1000
0001
1000
0020
0000
1030
0010
0100
0000
MMMM
0000
0000
0000
0000
0000
,
0010
1000
0001
0100
0001
0010
0100
1000
0001
0000
0000
0000
2002
0000
3003
0000
,
1020
M130
0101
M00M
0022
0000
0033
2200
,
00MM
0000
0000
0000
0001
0000
3300
0000
0000
MM0M
0000
0000
2020
0000
3030
0000
,
0102
1M03
1100
0MM0
0022
0000
0033
0202
,
M0M0
0000
0000
0000
1000
0000
0303
0000
0000
MM0M
0000
0000
0110
0000
M0M0
0000
,
1010
M00M
2002
0000
0010
3003
0000
MM11
,
0000
0000
M1M1
0000
1M1M
0000
0000
M2M2
,
0000
0000
1000
1010
0303
0001
1001
0000
,
1100
0000
0000
0012
0000
0000
1003
0000
0010
0100
0001
1000
0100
0010
0001
1000
,
0010
0001
0010
1000
0100
0010
0001
1000
0010
0100
0001
0100
0010
1000
0100
0001
,
0100
1000
0010
0100
0001
0100
0010
1000
0001
0010
0001
1000
0010
0100
0001
0100
,
1000
0100
0001
0010
0100
1000
0001
0100
0010
0100
0001
1000
0100
0010
0001
0010
,
1000
0010
0001
1000
0010
0100
0001
0010
0200
0000
0310
0001
1000
0000
1000
0010
,
0100
0000
0101
0000
1100
0000
0011
0000
0201
0000
0310
1000
0002
0000
0013
0000
,
0110
0000
1100
0000
1010
0000
0101
0000
0001
0010
0100
1000
0020
0000
0130
0000
,
0110
0000
0110
0000
0110
0000
0110
0000
2010
0000
3010
0100
0001
0000
0001
1000
,
0010
0000
0110
0000
0101
0000
1001
0000
1200
0000
0310
0001
0100
0000
0100
0010
,
1000
0000
1100
0000
0110
0000
0011
0000
0201
0000
0310
1000
0001
0000
0001
0010
,
0100
0000
1100
0000
1010
0000
0201
0000
0310
0100
0001
0010
0200
0000
1300
0010
,
0200
0000
0301
0010
0200
0300
1100
0000
1002
0000
0103
0010
2000
0000
3001
0100
,
0020
0000
1030
0000
1002
0000
0013
0000
0001
0010
0100
1000
0001
0100
0010
0100
,
0001
0010
0100
1000
0100
0001
0100
1000
0010
0100
0001
1000
0100
0010
0001
1000
,
0010
0001
0010
1000
0100
0010
0100
1000
0001
0100
0010
1000
0010
0100
0001
0010
,
0100
1000
0010
0100
0001
0010
0100
1000
0100
0010
0001
0100
0010
1000
0100
0010
,
0001
1000
0010
0001
0010
1000
0100
0010
0001
1000
0010
0100
0002
0000
1003
0000
,
1100
0000
0110
0000
1100
0000
0101
0000
0001
0100
0010
2000
0000
3010
0MM0
0010
,
0210
0000
0301
0000
2001
0000
3100
0000
0120
0000
0031
1000
0020
0000
1030
0000
,
1001
0000
0011
0000
0110
0000
1100
0000
1020
0000
0130
0000
0100
0001
0010
0100
,
0020
0000
0031
0000
0201
0000
0310
0000
2010
0000
3001
0100
0010
1000
0001
1000
,
0100
0000
0011
0000
0101
0000
0110
0000
0102
0000
0013
0100
1000
0000
0020
0030
,
0110
0000
0101
0000
1001
0000
1100
0000
1020
0000
0130
0001
2000
0000
3010
0000
,
0110
0000
0101
0000
0001
1000
0100
0010
0001
1000
0010
0000
0210
0000
0301
0000
,
2002
0000
0000
0000
0010
0000
3003
0000
0001
0000
0010
0100
1000
0000
1000
0010
,
0200
0301
1000
0010
0200
0002
0000
1000
,
0303
0000
0101
0000
1001
0000
1000
0100
0020
0000
0000
0000
0000
0000
0031
1000
,
0010
0100
0001
2000
0200
0010
0000
0001
,
3300
1100
0011
0002
1003
0100
0010
0002
,
0000
1003
0010
0100
0001
0010
0000
2200
,
0300
3001
0100
0020
2000
0000
0000
0000
,
0002
0000
0000
0000
0000
0000
0000
0000
3033
0000
0000
0000
0002
0000
0000
0003
,
0002
0000
0000
1003
0020
0000
0000
0130
0001
0000
0010
0000
0100
0000
1000
0000
,
0002
0020
0000
2000
0000
0000
0000
0000
,
3033
0000
0000
0000
0000
0000
0001
0010
0210
0000
0000
0000
0300
0000
1000
0000
,
1020
0130
0102
1003
2200
0000
3300
1000
,
1020
0130
0002
0013
0210
1300
2001
3010
,
1020
0000
0130
0000
0102
0000
1003
0000
2010
0000
3001
0000
0001
0010
0100
0000
,
0120
0000
0031
0000
1000
0000
0010
0100
0102
0000
0000
0000
0000
0000
1003
0000
,
1020
0130
0102
0013
0210
0000
0000
1300
,
1002
0000
0103
0000
0010
0000
1000
0000
1200
0000
0310
0001
1000
0000
1000
0010
,
0100
0000
0100
0001
0010
0000
0100
0000
1200
0000
0310
0000
0012
0000
1003
0000
,
1020
0000
0130
0000
0102
0000
0013
0100
2200
0000
0000
0000
3300
0000
1000
0000
,
1020
0130
0102
1003
2020
0000
3030
0010
,
0210
0301
2001
3010
0210
0301
0021
0130
,
2100
3001
0201
0310
2010
3001
0021
0130
,
1100
0000
0011
0000
0000
0000
0001
1000
0020
0000
0000
0000
0030
0000
1010
0000
,
0110
0000
0110
0000
0101
0000
0101
0000
2002
0000
0000
3003
0011
0000
0011
0000
,
0110
0000
0110
0000
1100
0000
0011
0000
1002
0000
0013
0100
1000
0000
1000
0001
,
0010
0000
0010
0100
1000
0000
1000
0001
0010
0000
0100
0000
1000
0000
0010
0000
,
0202
0000
0000
0000
0303
0000
0001
0010
0100
0000
0100
0010
0001
0000
0001
1000
,
0010
0100
0001
0010
0100
1000
0001
0100
0010
0000
0010
1000
0100
0000
0100
1000
,
0001
0100
0010
1000
0100
0010
0001
1000
0010
0000
0010
0100
0001
0000
0001
0010
,
0100
1000
0001
0100
0010
0100
0001
1000
0200
0000
0000
0320
0000
0000
0032
0000
,
0000
0000
2003
0000
3020
0000
0230
0300
0101
0000
0001
0010
0100
0000
0100
1000
,
0010
0100
0001
1000
0100
1000
0010
0100
0001
0000
0001
0100
0010
0000
0120
0000
,
0000
0000
2030
0000
3002
0000
0023
0030
1100
0000
1000
0010
0100
0000
0100
0001
,
0010
0100
1000
0001
0100
0000
0010
0000
2000
0000
3002
0000
0023
0000
0230
0000
,
2300
0000
3002
0000
2003
3000
1010
0000
0000
0000
0000
0000
0000
0000
0000
0000
;

//---------------dance-single - Hard----------------
#NOTES:
     dance-single:
     Ace Of Hearts (2008):
     Hard:
     10:
     0.924,0.000,0.152,0.571,0.671:
0000
0000
0000
0000
,
0000
0000
0000
0000
,
0000
0000
0000
0000
,
0000
0000
0000
0000
,
0002
0000
0000
2003
0000
0000
3010
0000
0100
0001
0100
0001
0200
0000
0310
1000
,
0010
0000
1000
0001
2000
0000
3100
0000
1000
0010
1000
0010
2000
0000
3001
0010
,
0001
0000
1000
0100
2000
0000
3200
0000
0310
0001
0010
0001
0020
0000
0130
0000
,
1000
0001
1000
0001
2000
0000
3010
0000
0200
0000
0000
0000
0000
0000
0000
0000
,
0301
0100
0001
0000
1000
0010
1000
0001
0010
0000
0000
0000
0011
0000
0000
0000
,
0001
1000
0100
0000
0210
0000
0000
2300
,
0000
3010
M0M0
1010
,
1000
0001
0100
0000
0210
0000
0000
0302
,
0000
0013
00MM
0011
,
1100
0000
1010
0000
0110
0000
0000
0101
,
0000
0000
1100
0000
0011
0000
0000
2002
,
0000
0000
0010
0010
3003
0001
0010
0000
,
0100
0000
0000
0000
1000
0000
0000
0000
0001
1000
0001
1000
0010
1000
0010
1000
,
0100
1000
0100
1000
0002
0000
0013
0000
0100
1000
0100
1000
0001
1000
0001
1000
,
0010
1000
0010
1000
0001
0000
0000
0000
0100
0001
0100
0001
1000
0001
1000
0001
,
0100
0001
0100
0001
2000
0000
3100
0000
0010
0100
0010
0100
1000
0100
1000
0100
,
0010
0001
1000
0001
0100
0000
0000
0000
0001
0000
1000
0100
1000
0000
0001
0010
,
0001
0000
1000
0000
0010
0000
0100
0000
0001
0000
1000
0010
1000
0000
0001
0000
,
1000
0000
0010
0000
0100
0000
0001
0000
1000
0100
1000
0001
2000
0000
3010
0000
,
0100
0000
0100
0000
0100
0000
0100
0000
0001
0000
1000
0010
0100
0000
0001
1000
,
0100
0000
0010
0000
0001
0000
1000
0000
0010
0000
0100
0001
1000
0000
0010
1000
,
0001
0000
0010
0000
0100
0000
1000
0000
0001
0000
1000
0001
0010
0000
0001
1000
,
0010
0000
0100
0000
0001
0000
1000
0000
0001
1000
0100
0010
0001
0000
1000
0001
,
0010
0000
0100
1000
0001
0000
0100
0000
0010
0000
1000
0001
0010
0000
0001
1000
,
0010
0000
0100
0000
0001
0000
1000
0000
0010
0100
0010
0100
0001
0100
0001
0100
,
0010
1000
0010
1000
0002
0000
1003
0000
0001
0010
0001
0010
0100
1000
0100
1000
,
0001
0100
0001
0100
0001
0000
0000
0000
1000
0010
1000
0010
0100
0001
0100
0001
,
1000
0010
0100
0001
2000
0000
3100
0000
0010
0001
0010
0001
1000
0001
1000
0001
,
0100
0010
1000
0001
0100
0000
0000
0000
0010
1000
0001
1000
0001
0000
0010
0000
,
0001
0000
0010
0000
0100
0000
1000
0000
0001
1000
0001
0200
0000
0310
00M0
0010
,
0100
0000
0001
0000
1000
0000
0100
0000
0010
0000
0001
1000
0010
0000
1000
0001
,
0100
0000
0001
0000
1000
0000
0100
0000
1000
0000
0001
0000
0100
0010
1000
0001
,
0100
0000
0010
0000
1000
0000
0001
0000
1000
0000
0010
0100
0001
1000
0001
0100
,
0010
0000
0100
0000
0001
0000
1000
0000
0100
0000
0010
0001
1000
0000
0001
0000
,
0010
0000
0100
0000
1000
0000
0001
0000
1000
0000
0010
1000
0001
0000
0010
0000
,
0100
0000
1000
0000
0001
0100
0001
1000
0100
1000
0001
0000
0100
0000
0010
0000
,
2020
0000
0030
0000
0002
0000
3000
0000
0013
0000
0100
1000
0100
0000
0010
0001
,
0010
0001
1000
0010
0200
0301
0000
2000
,
0000
0000
0000
0000
3000
0000
0010
1000
0020
0000
0000
0000
0000
0000
1030
0001
,
0100
0001
0010
0100
1000
0010
0000
0200
,
0000
0000
0300
0001
1000
0100
0010
0200
,
0000
1300
0010
0100
0001
1000
0000
2000
,
0000
3010
0100
0001
2000
0000
0000
0000
,
0200
0000
3300
2000
,
3002
0000
0000
1003
0020
0000
0000
0130
0001
0000
1000
0000
0100
0000
0010
0000
,
0100
0020
0000
0002
0000
0000
0000
0000
,
0033
0000
0000
0000
0000
0000
0001
1000
0020
0000
0000
0000
0000
0000
1030
0000
,
0010
1000
0100
1000
0002
0000
0000
1003
,
0010
0100
0001
1000
0010
0010
0100
0100
,
0001
0000
0001
0000
1000
0000
1000
0000
0100
0000
0100
0000
1000
0001
0100
0000
,
0010
0000
1000
0000
0001
0000
1000
0100
0020
0000
0000
0000
0000
0000
0130
0000
,
1000
0001
0010
0100
2000
0000
0000
3001
,
0010
0000
0100
0000
1000
0000
0010
0000
0100
0000
0001
1000
0010
0000
1000
0001
,
0100
0000
0001
1000
0010
0000
0100
0000
0001
0000
0001
0000
1000
0000
1000
0000
,
0010
0000
0010
0000
0100
0000
0001
1000
0020
0000
0000
0000
0000
0000
0130
0000
,
0001
1000
0001
0010
0200
0000
0000
0310
,
0001
1000
0010
0100
0001
0001
1000
1000
,
0010
0010
0100
0100
0001
0001
0010
0010
,
0110
0000
0100
0000
0000
0000
1000
0001
0200
0000
0000
0000
0000
0000
0301
0000
,
0010
0100
1000
0001
0020
0000
0031
0001
,
1000
0000
0100
0000
1000
0000
0001
0000
0100
0000
0001
1000
0100
0000
1000
0001
,
0100
0000
0010
0100
0001
0000
1000
0100
0010
0000
0001
0000
1000
0000
0010
0000
,
0200
0000
0000
0000
0300
0000
0001
0100
0001
0000
1000
0001
1000
0000
0010
1000
,
0010
1000
0001
1000
0002
0000
1003
0100
0010
0000
0001
0010
0100
0000
1000
0001
,
0100
0001
1000
0001
0020
0000
0031
0100
0001
0000
1000
0010
0100
0000
0001
1000
,
0001
0100
0010
0100
0001
0000
1000
0000
0020
0000
0000
0230
0000
0000
0302
0000
,
0000
0000
0013
0000
0100
0000
1000
0000
1001
0000
1000
0000
0010
0000
0100
0001
,
0100
0001
1000
0001
1000
0000
0001
0100
0001
0000
1000
0100
0010
0000
0002
0000
,
0000
0000
1003
0000
0010
0000
0100
0000
0110
0000
0010
0000
1000
0000
0001
0100
,
0001
1000
0001
1000
0010
0000
1000
0000
0002
0000
2003
0000
3020
0000
0230
0000
,
0302
0203
0302
0013
0000
0000
0000
0000
;

//---------------dance-single - Medium----------------
#NOTES:
     dance-single:
     Ace Of Hearts (2008):
     Medium:
     7:
     0.648,0.000,0.067,0.343,0.024: // measure 1
0000
0000
0000
0000
,  // measure 2
0000
0000
0000
0000
,  // measure 3
0000
0000
0000
0000
,  // measure 4
0000
0000
0000
0000
,  // measure 5
2000
0000
0000
3002
0000
0000
1003
0000
0001
0000
0010
0000
0000
0000
0110
0000
,  // measure 6
0000
0100
0000
1100
0000
1000
0000
1001
,  // measure 7
0000
0001
0000
0101
0000
0100
0000
0110
,  // measure 8
0000
0010
0000
1000
0200
0000
0000
0000
,  // measure 9
0310
0001
1000
0001
0100
0000
0010
0000
,  // measure 10
1000
0001
1000
0000
0100
0000
0000
0020
,  // measure 11
0000
0031
0000
0010
,  // measure 12
0100
1000
0001
0000
0100
0000
0000
0020
,  // measure 13
0000
1030
0000
0010
,  // measure 14
0100
0000
0001
0000
1001
0000
0000
1000
,  // measure 15
0000
0000
0100
0000
0010
0000
0000
0002
,  // measure 16
0000
0000
0103
0010
0000
1000
0001
0000
,  // measure 17
0100
0000
0010
0000
1000
0010
0100
0001
,  // measure 18
1000
0100
0010
0001
1000
0010
0100
0001
,  // measure 19
1000
0100
0010
0000
0100
1000
0001
1000
,  // measure 20
0010
0100
0001
1000
0010
0100
0001
1000
,  // measure 21
0010
1000
0001
1000
0010
1000
0100
1000
,  // measure 22
0001
0100
0010
0000
1000
0010
0100
0001
,  // measure 23
1000
0100
0010
0000
0001
1000
0010
0100
,  // measure 24
0001
0001
0001
0001
1000
0100
1000
0001
,  // measure 25
0100
0010
1000
0000
0001
1000
0010
0100
,  // measure 26
0001
1000
0001
0100
0010
1000
0001
1000
,  // measure 27
0100
0010
0001
0000
1000
0001
0100
0010
,  // measure 28
0100
0001
1000
0100
0010
0100
1000
0001
,  // measure 29
1000
0010
0100
0000
0001
1000
0001
0100
,  // measure 30
0010
1000
0001
0100
0001
0010
0100
1000
,  // measure 31
0001
0100
0010
0000
0100
0001
1000
0010
,  // measure 32
0100
0001
1000
0010
1000
0100
0010
0001
,  // measure 33
1000
0001
0100
0010
1000
0001
0100
0010
,  // measure 34
0100
0000
0001
0000
1000
0000
0000
0000
0002
0000
0000
0103
0000
0000
0000
0000
,  // measure 35
0001
1000
0100
0000
1000
0010
0100
0001
,  // measure 36
0010
0100
1000
0001
0100
0001
0010
0100
,  // measure 37
1000
0001
0100
0000
0001
1000
0010
1000
,  // measure 38
0001
1000
0100
0000
1000
0001
0100
0010
,  // measure 39
0100
0001
1000
0010
0100
0001
0100
0010
,  // measure 40
1000
0100
0010
0001
0100
0010
1000
0001
,  // measure 41
1000
0000
1002
0000
1003
0010
0100
0001
,  // measure 42
1000
0010
0100
0001
1000
0010
0000
0200
,  // measure 43
0000
0000
0300
0001
0002
0000
0000
1003
,  // measure 44
1000
0001
0100
0001
1000
0010
0000
0200
,  // measure 45
0000
0000
0300
0001
0010
0001
0100
0020
,  // measure 46
0000
1030
0001
0100
0001
0001
0000
0002
,  // measure 47
0000
1003
0001
0100
0020
0000
0000
0000
,  // measure 48
0200
0000
0330
0001
,  // measure 49
2000
0000
0000
3001
0200
0000
0000
0301
0100
0000
0001
0000
1000
0000
0100
0000
,  // measure 50
1000
0002
0000
0020
0000
0000
0000
0000
,  // measure 51
0033
0000
0000
0001
0002
0000
0000
1003
,  // measure 52
0100
1000
0001
0100
0020
0000
0000
0130
,  // measure 53
0001
1000
0100
1000
0001
0100
0001
0100
,  // measure 54
0010
1000
0010
1000
0001
0010
0001
0010
,  // measure 55
0001
1000
0001
1000
2000
0000
0000
3001
,  // measure 56
0100
0010
0100
0001
2000
0000
0000
3100
,  // measure 57
0010
0100
1000
0001
0100
0001
0100
0001
,  // measure 58
1000
0100
1000
0100
1000
0001
1000
0001
,  // measure 59
0100
0001
0100
0010
0020
0000
0000
1030
,  // measure 60
0010
0100
0001
1000
0200
0000
0000
1300
,  // measure 61
0001
0100
0001
1000
0100
0010
0100
0010
,  // measure 62
0001
0010
0001
0010
0001
1000
0001
1000
,  // measure 63
0010
2000
0000
3100
0200
0000
0000
1300
,  // measure 64
0001
0100
0001
1000
0020
0000
1030
0001
,  // measure 65
1000
0010
1000
0001
1000
0010
1000
0010
,  // measure 66
0100
0010
0100
0001
1000
0100
0010
0001
,  // measure 67
2000
0000
3000
0000
0001
1000
0010
0100
,  // measure 68
0001
0000
2000
0000
3010
0100
0001
0010
,  // measure 69
0001
0000
0200
0000
0301
1000
0010
0100
,  // measure 70
0001
0000
0000
0000
0020
0000
0000
0000
0032
0000
0000
2003
0000
0000
3200
0000
,  // measure 71
0000
1300
0001
1000
0010
0000
0100
0000
,  // measure 72
0001
0100
0001
0000
1000
0000
0000
0020
,  // measure 73
0000
1030
0001
0100
0010
0000
1000
0000
,  // measure 74
0001
1000
0010
0000
1000
0001
1000
0100
,  // measure 75
1000
0001
1000
0010
0000
0000
0000
0000
;

//---------------dance-single - Easy----------------
#NOTES:
     dance-single:
     Ace Of Hearts (2008):
     Easy:
     4:
     0.317,0.000,0.019,0.381,0.000:
0000
0000
0000
0000
,
0000
0000
0000
0000
,
0000
0000
0000
0000
,
0000
0000
0000
0000
,
0000
0000
0000
0002
0000
0003
0000
2000
,
0000
3000
0000
0002
0000
0003
0000
0020
,
0000
0030
0000
0002
0000
0003
0000
0200
,
0000
0300
0000
0000
0002
0000
0000
0000
,
0203
0000
0000
0310
,
0010
0000
0010
0000
0020
0000
0000
2030
,
0000
3001
0000
1000
,
1000
0000
1000
0000
2000
0000
0000
3002
,
0000
0103
0000
0001
,
0001
0000
0001
0000
0001
0000
0000
1000
,
0000
0000
1000
0000
1000
0000
0000
0010
,
0000
0000
0000
0010
0000
0000
0000
0000
,
0000
1001
1000
1000
,
2000
3000
0001
0001
,
0002
0003
0100
0100
,
0200
0300
0010
0010
,
0020
0030
1000
1000
,
1000
0000
0001
0001
,
0001
0000
0010
0010
,
0020
0030
0001
0001
,
0001
0000
1000
1000
,
1000
0000
0100
0100
,
0100
0000
1000
1000
,
1000
0000
0010
0010
,
0020
0030
1000
1000
,
2000
3000
0001
0001
,
0002
0003
0010
0010
,
0020
0030
0100
0100
,
0200
0300
1000
1000
,
1000
0000
0001
0000
,
0001
0000
0100
0100
,
0100
0000
0010
0010
,
0010
0000
1000
1000
,
1000
0000
0100
0100
,
0100
0000
0010
0010
,
0010
0000
0001
0001
,
1001
0000
1000
1000
,
1000
1000
0200
0000
,
0300
0000
2000
3000
,
0010
0010
0020
0000
,
0030
0000
1000
0000
,
2000
3000
0001
0000
,
0002
0003
0100
0000
,
0200
0000
0300
0000
,
0001
0000
1000
1000
,
2000
0000
0000
3100
0000
0000
0000
0000
,
0000
0000
0020
0030
,
0001
0001
0002
0003
,
0010
0000
0001
0001
,
0001
0000
0100
0100
,
0100
0000
0020
0030
,
1000
1000
2000
3000
,
0001
0000
0100
0100
,
0100
0000
0001
0001
,
0001
0000
0020
0030
,
0100
0100
0200
0300
,
1000
0000
0001
0001
,
0001
0000
0100
0100
,
0200
0300
0002
0003
,
0010
0010
0020
0030
,
0001
0000
1000
1000
,
0001
0001
0100
0100
,
0200
0300
0001
1000
,
0001
0000
1000
0001
,
1000
0000
0010
0100
,
0010
0000
0100
0010
,
0100
0000
0001
0100
,
0001
0000
1000
0100
,
1000
0000
0001
0010
,
0001
0000
1000
0001
,
0200
0000
0000
0310
0000
0000
0000
0000
;

//---------------dance-single - Novice----------------
#NOTES:
     dance-single:
     Ace Of Hearts (2008):
     Beginner:
     2:
     0.158,0.000,0.000,0.362,0.000:
0000
0000
0000
0000
,
0000
0000
0000
0000
,
0000
0000
0000
0000
,
0000
0000
0000
0000
,
0000
0000
0002
0000
,
0003
0000
2000
0000
,
3000
0000
0002
0000
,
0003
0000
0020
0000
,
0000
0000
0030
0002
,
0000
0000
0003
0000
,
0001
0000
0000
2000
,
0000
0000
3000
0000
,
1000
0000
0000
0020
,
0000
0000
0030
0000
,
0020
0000
0030
0000
,
2000
0000
0000
3000
0000
0000
0000
0000
,
0000
0000
0002
0000
,
0000
0000
0000
0000
,
0000
0003
2000
0000
,
0000
0000
0000
0000
,
0000
3000
0001
0000
,
0001
0000
0002
0000
,
0003
0000
1000
0000
,
1000
0000
2000
0000
,
3000
0000
0010
0000
,
0010
0000
0020
0000
,
0030
0000
1000
0000
,
1000
0000
2000
0000
,
3000
0000
0020
0000
,
0000
0000
0000
0000
,
0000
0030
2000
0000
,
0000
0000
0000
0000
,
0000
3000
0001
0000
,
0001
0000
0001
0000
,
0000
0000
1000
0000
,
1000
0000
1000
0000
,
0000
0000
0100
0000
,
0100
0000
0100
0000
,
0000
0000
0010
0000
,
0010
0000
0020
0000
,
0030
0000
0001
0000
,
0001
0000
0002
0000
,
0003
0000
1000
0000
,
1000
0000
2000
0000
,
3000
0000
0010
0000
,
0000
0000
0100
0000
,
0000
0000
0002
0000
,
0000
0000
0003
0000
,
0000
0000
1000
0000
,
1000
0000
2000
0000
,
3000
0000
0010
0000
,
0020
0000
0030
0000
,
0000
0000
2000
0000
,
0000
3000
0002
0000
,
0000
0003
0010
0000
,
0002
0000
0003
0000
,
0000
0000
0020
0000
,
0000
0030
0200
0000
,
0000
0300
1000
0000
,
2000
0000
3000
0000
,
0000
0000
0002
0000
,
0000
0003
0200
0000
,
0300
0000
0001
0000
,
0002
0000
0003
0000
,
1000
0000
1000
1000
,
1000
0000
0001
0001
,
0001
0000
2000
0000
,
3000
0000
0002
0000
,
0003
0000
2000
0000
,
3000
0000
0020
0000
,
0000
0000
0030
0000
,
0000
0000
0000
0000
,
0200
0000
0300
0000
,
0000
0000
0020
0000
,
0000
0000
0000
0030
0000
0000
0000
0000
;
