#TITLE:My Shiny Teeth and Me;
#SUBTITLE:;
#ARTIST:Chip Skylark;
#TITLETRANSLIT:;
#SUBTITLETRANSLIT:;
#ARTISTTRANSLIT:;
#GENRE:;
#CREDIT:Ace Of Hearts;
#BANNER:My Shiny Teeth and Me - bn.png;
#BACKGROUND:My Shiny Teeth and Me - bg.jpg;
#LYRICSPATH:My Shiny Teeth and Me Lyrics.lrc;
#CDTITLE:Ace Of Hearts.png;
#MUSIC:My Shiny Teeth and Me.ogg;
#OFFSET:-0.020;
#SAMPLESTART:24.139;
#SAMPLELENGTH:12.000;
#SELECTABLE:YES;
#BPMS:0.000=190.000;
#STOPS:;
#BGCHANGES:-1.000=My Shiny Teeth and Me Video.avi=1.000=0=0=1=====,
370.000=My Shiny Teeth and Me - bg.jpg=1.000=0=0=1=Centered====,
99999=-nosongbg-=1.000=0=0=0 // don't automatically add -songbackground-
;
#FGCHANGES:;
#KEYSOUNDS:;

//---------------dance-single - Heavy----------------
#NOTES:
     dance-single:
     Ace Of Hearts (2008):
     Hard:
     7:
     0.626,0.000,0.171,0.733,0.000: // measure 1
0000
0000
0000
0000
,  // measure 2
0000
0000
0000
0000
,  // measure 3
0001
0000
0001
0000
1000
0100
0010
0001
,  // measure 4
0000
2000
0000
3010
0200
0000
0302
2003
,  // measure 5
0000
3001
0000
0000
0000
0000
0000
0000
,  // measure 6
0000
0002
0000
0103
0010
0000
1000
0000
,  // measure 7
1010
0000
0000
0000
,  // measure 8
0000
0000
0020
0000
0130
0001
0000
1000
,  // measure 9
0000
0010
1000
0000
0020
0000
1030
0002
,  // measure 10
0000
1003
0100
0010
0002
0000
0023
0000
,  // measure 11
0130
0000
0100
0000
1000
0100
0010
0001
,  // measure 12
0000
0000
0001
0000
0100
0000
0010
1000
,  // measure 13
0000
0000
0002
0000
0023
0000
0000
0130
,  // measure 14
0000
1000
0000
0100
0010
0000
0001
0000
,  // measure 15
1000
0000
0020
0000
0230
0000
0000
0301
,  // measure 16
0000
2000
0000
3200
0000
0310
0001
0000
,  // measure 17
0011
0000
0001
0010
0000
0100
1000
0100
,  // measure 18
0000
1000
0100
0010
0001
0000
0010
0000
,  // measure 19
0100
1000
0001
0001
,  // measure 20
0100
0001
0010
0100
1000
0000
0010
0000
,  // measure 21
1000
0000
0002
0000
0000
0000
0003
1000
,  // measure 22
0000
0100
0000
0100
2000
0000
3200
0000
,  // measure 23
0340
0000
0000
0030
,  // measure 24
0000
0001
0100
0010
1000
0000
0001
0000
,  // measure 25
0010
0000
0020
0000
0000
0000
0130
1000
,  // measure 26
0200
0000
0310
0002
0000
1003
0000
0020
,  // measure 27
0000
0000
0000
1030
0004
0000
0000
0000
,  // measure 28
0003
1000
0100
0010
0001
0000
1000
0000
,  // measure 29
0010
0000
0200
0000
0000
0300
0000
0101
,  // measure 30
0000
0100
0000
0001
0020
0000
0031
0000
,  // measure 31
4000
0000
0000
3000
,  // measure 32
0000
1000
0100
0010
0001
0000
1000
0100
,  // measure 33
0000
0100
0000
0100
1000
0100
0000
0020
,  // measure 34
0000
0030
0000
2002
0000
0000
3003
0000
,  // measure 35
0000
0001
0010
0001
0010
0000
0100
0000
,  // measure 36
1000
0000
1000
0100
1000
0000
0001
0010
,  // measure 37
0001
1000
0000
0100
0020
0000
0032
0000
,  // measure 38
0023
0000
0130
0000
2000
0000
0000
3001
,  // measure 39
0000
0000
1000
0010
0000
0010
2000
0000
,  // measure 40
3200
0000
1300
0000
0200
0000
0000
0310
,  // measure 41
0000
0000
0001
0000
2000
0000
3100
0010
,  // measure 42
0000
0010
0100
2000
0000
3001
0000
0010
,  // measure 43
0000
0001
0010
0100
1000
0000
0010
0000
,  // measure 44
0100
0000
0000
0001
1000
0000
1000
0100
,  // measure 45
1000
0010
1000
0001
0010
0000
0001
0000
,  // measure 46
0021
0000
0230
0000
0000
0000
0000
2300
,  // measure 47
0000
3100
0000
0100
2000
0000
3200
0000
,  // measure 48
0340
0000
0000
0030
,  // measure 49
0000
0001
0010
0100
1000
0000
0200
0000
,  // measure 50
0320
0000
0032
0000
0000
0003
0010
0100
,  // measure 51
1000
0100
1000
0200
0000
0320
0000
0032
,  // measure 52
0000
0000
0000
1003
0200
0000
0000
0000
,  // measure 53
0300
1000
0001
0100
0001
0000
1000
0000
,  // measure 54
1100
0200
0000
0000
,  // measure 55
0300
0010
0000
0001
0010
0000
0100
0000
,  // measure 56
2000
0000
0000
0000
,  // measure 57
3000
1000
0100
0010
0001
0000
0001
0010
,  // measure 58
0000
0010
0001
0010
0000
0010
0001
0000
,  // measure 59
1100
0000
0000
0022
0000
0000
0000
0000
,  // measure 60
0033
0000
0001
1000
0100
0000
2000
0000
,  // measure 61
3001
0000
0100
0010
0100
0000
0001
1000
,  // measure 62
0001
0000
0010
0001
1000
0000
0020
0000
,  // measure 63
0130
0000
0001
0100
0010
0000
1000
0001
,  // measure 64
0100
0000
0010
0100
0001
0000
1000
0001
,  // measure 65
0000
0100
0000
0000
0000
0000
0000
0000
,  // measure 66
0000
0000
0000
0001
0000
1000
0010
0000
,  // measure 67
0110
0000
0000
0000
,  // measure 68
0000
0000
0000
0100
0000
0001
0010
0000
,  // measure 69
0110
0000
0000
0010
0000
0001
0000
1000
,  // measure 70
0100
0000
1000
0001
0010
0000
0100
0000
,  // measure 71
1100
0000
1000
0100
1000
0000
0001
0100
,  // measure 72
0001
0100
0010
1000
0001
0000
0100
0000
,  // measure 73
0120
0000
2030
0000
0000
0000
0000
3001
,  // measure 74
0000
0010
0000
0001
2000
0000
3020
0000
,  // measure 75
0430
0000
0000
0300
,  // measure 76
0000
0001
0100
0010
1000
0000
0100
0000
,  // measure 77
0012
0000
0203
0000
0000
0000
0310
1000
,  // measure 78
0200
0000
0310
0002
0000
0023
0000
0230
,  // measure 79
0000
0000
0000
1300
0002
0000
0000
0000
,  // measure 80
0003
1000
0100
0010
0001
0000
0100
0000
,  // measure 81
0010
0000
0200
0000
0000
0000
0300
0101
,  // measure 82
0000
0001
0000
1000
0020
0000
0130
0000
,  // measure 83
0002
0000
0000
0000
,  // measure 84
0003
1000
0100
0010
0001
0000
0010
0100
,  // measure 85
0000
0010
0000
0001
0010
0100
0000
1000
,  // measure 86
0000
0000
0000
2020
0000
0000
0000
0000
,  // measure 87
3030
0010
0100
0001
0200
0000
0301
0000
,  // measure 88
1001
0000
1000
0010
0100
0000
0001
0100
,  // measure 89
0010
1000
0010
0100
0002
0000
0203
0300
,  // measure 90
0110
0000
0100
0010
1000
0000
0010
0100
,  // measure 91
0001
1000
0100
0010
0002
0000
0023
0000
,  // measure 92
0200
0000
0000
0000
,  // measure 93
0330
0000
1001
0000
;

//---------------dance-single - Copied from Heavy----------------
#NOTES:
     dance-single:
     Ace Of Hearts (2008):
     Medium:
     6:
     0.469,0.000,0.067,0.429,0.000:
0000
0000
0000
0000
,
0000
0000
0000
0000
,
0001
0000
0001
0000
0002
0000
1003
0010
,
0000
1000
0000
0100
2000
0000
3001
0100
,
0000
0010
0000
0000
0000
0000
0000
0000
,
0000
2000
0000
3001
0010
0000
0001
0000
,
1000
0000
0000
0000
,
0000
0000
0002
0000
1003
0100
0000
0010
,
0000
0001
1000
0000
0200
0000
1300
0001
,
0000
1000
0010
1000
0020
0000
0230
0000
,
0301
0000
0000
0000
,
0000
0000
1000
0000
0001
0000
1000
0010
,
0000
2000
0000
3000
0000
0000
0000
0000
,
0000
0020
0000
0130
0001
0000
1000
0000
,
0200
0300
0000
0000
,
0000
1000
0000
0100
0000
1000
0100
0000
,
1000
0000
0001
0010
0000
0001
0010
0001
,
0000
0000
1000
0100
1000
0000
0001
0000
,
0100
0000
0000
0000
,
0000
0001
0100
0001
0100
0000
0100
0000
,
0010
0000
2000
0000
0000
3000
0000
0001
,
0000
0010
0000
0001
1000
0000
0002
0003
,
0200
0000
0000
0000
0000
0300
0000
0000
,
0000
0001
1000
0001
0100
0000
0001
0000
,
0010
0000
0002
0000
0000
0003
1000
0010
,
2000
0000
3010
0100
0000
0001
0000
0200
,
0000
0000
0000
0000
,
0300
0001
1000
0010
1000
0000
0001
0000
,
0100
0000
0002
0000
0000
0003
0000
1000
,
0000
1000
0000
0100
0010
0000
0001
0000
,
2000
0000
0000
3000
,
0000
0000
0001
0100
0001
0000
1000
0010
,
0000
0100
0000
0001
0100
0001
0000
1000
,
0000
0000
0000
2020
0000
0000
3030
0000
,
0000
0010
1000
0010
0100
0000
0001
0000
,
1000
0000
0000
0000
,
0000
1000
0000
0010
1000
0000
0010
0000
,
2000
3100
0000
0000
,
0000
0000
0010
0001
0000
1000
0002
0000
,
0103
0000
0000
0000
,
0000
0000
0010
0000
0200
0300
0010
0100
,
0000
0001
0010
0002
0000
1003
0000
0010
,
0000
1000
0001
0100
0001
0000
1000
0000
,
0100
0000
0000
0000
,
0000
1000
0100
1000
0001
0000
1000
0000
,
0010
0000
0200
0000
0000
0000
0300
0001
,
0000
0001
0000
1000
0020
0000
0130
0000
,
0002
0000
0000
0003
,
0000
0001
0010
0001
1000
0000
0200
0000
,
0320
0000
0032
0000
0000
0003
0010
0001
,
0010
0000
0001
1000
0000
0010
0000
0200
,
0000
0000
0000
0000
0000
0000
0000
0300
,
0000
0001
0100
0001
1000
0000
0100
0000
,
0110
0200
0000
0300
,
0000
0010
0000
0100
1000
0000
0001
0000
,
0200
0000
0000
0000
0000
0300
0000
0000
,
0000
0000
0100
0001
0100
0000
0010
1000
,
0000
0001
0100
0001
0000
0010
1000
0000
,
0100
0000
0000
0220
0000
0000
0330
0000
,
0000
0000
0010
0100
1000
0000
0001
0000
,
0100
0000
0000
0000
,
0000
0000
0001
0100
0001
0000
0010
0000
,
1000
0000
0000
0000
,
0000
0000
1000
0100
1000
0000
0001
0010
,
0000
0001
0000
0000
0000
0000
0000
0000
,
0000
0000
0000
1000
0000
0100
1000
0000
,
0100
0000
0000
0000
,
0000
0000
0000
0001
0000
0100
0001
0000
,
0010
0000
0000
0001
0000
1000
0000
0010
,
0100
0000
0001
0100
0010
0000
0100
0000
,
0001
0000
0000
0000
,
0000
0001
0010
0100
1000
0000
0001
0000
,
1000
0000
0200
0000
0000
0000
0300
1000
,
0000
1000
0000
0001
0010
0000
0100
0000
,
2000
0000
0000
3000
,
0000
0010
0100
0001
0100
0000
0010
0000
,
1000
0000
0002
0000
0000
0000
1003
0010
,
2000
0000
3001
0100
0000
0010
0000
0200
,
0000
0000
0000
0000
0000
0000
0000
0300
,
0000
0001
0100
0010
1000
0000
0010
0000
,
1000
0000
0020
0000
0000
0000
0030
0100
,
0000
0100
0000
0001
1000
0000
1000
0000
,
0020
0000
0000
0030
,
0000
0000
0100
0001
0100
0000
0001
1000
,
0000
0010
0000
0100
0001
0100
0000
0010
,
0000
0000
0000
0220
0000
0000
0330
0000
,
0000
0010
0100
0001
1000
0000
0001
0000
,
0011
0000
0000
0000
,
0000
0001
0010
0100
1000
0000
0100
0000
,
1100
0000
0000
0000
,
0000
1000
0100
0010
0001
0000
1000
0000
,
0200
0000
0000
0000
,
0300
0000
1001
0000
;

//---------------dance-single - Easy----------------
#NOTES:
     dance-single:
     Ace Of Hearts (2008):
     Easy:
     3:
     0.229,0.000,0.038,0.248,0.000:
0000
0000
0000
0000
,
0000
0000
0000
0000
,
0001
0000
0001
0000
0002
0000
0000
0003
,
0000
0000
1000
0000
,
1000
0000
0000
0000
,
0000
0000
0001
0000
,
0001
0000
0000
0000
,
0000
0000
0010
0000
,
0010
0000
0001
0000
,
0001
0000
1000
1000
,
1000
0000
0000
0000
,
0000
0010
0010
0000
,
0010
0000
0000
0000
,
0000
1000
1000
0000
,
1000
0000
0000
0000
,
0000
0000
0001
0000
,
0001
0000
1000
0000
,
1000
0000
0010
0010
,
0010
0000
0000
0000
,
0000
1000
1000
0000
,
2000
0000
0000
0000
0000
3000
0000
0000
,
0001
0000
0001
0000
,
0002
0000
0000
0000
0000
0003
0000
0000
,
0000
1000
1000
0000
,
2000
0000
3000
0000
,
0001
0000
0001
0000
,
0002
0000
0000
0000
,
0003
0010
0010
0000
,
0020
0000
0000
0000
0000
0030
0000
0000
,
0100
0000
0100
0000
,
0200
0000
0300
0000
,
0000
0000
1000
0000
,
1000
0000
0001
0000
,
0001
0000
2002
3003
,
0000
1000
1000
0000
,
1000
0000
0000
0000
,
0000
0000
0010
0000
,
0010
0000
0000
0000
,
0000
0000
0100
0000
,
0100
0000
0000
0000
,
0000
0000
0001
0000
,
0001
0000
1000
0000
,
1000
0000
0100
0100
,
0100
0000
0000
0000
,
0000
0010
0010
0000
,
0020
0000
0000
0030
,
0001
0000
0001
0000
,
0002
0000
0000
0003
,
0000
0010
0010
0000
,
0020
0000
0000
0000
0000
0030
0000
0000
,
0100
0000
0100
0000
,
0200
0000
0000
0300
,
0000
1000
1000
0000
,
2000
0000
3000
0000
,
0000
0000
0001
0000
,
0002
0000
0000
0003
,
0000
0000
0010
0000
,
0010
0000
0100
0000
,
0100
0000
0000
0220
0000
0330
0000
0000
,
0000
0100
0100
0000
,
0100
0000
0000
0000
,
0000
1000
1000
0000
,
1000
0000
0000
0000
,
0000
0000
0001
0000
0001
0000
0000
1000
,
0000
0000
0000
0000
,
0000
0000
0000
0001
0000
0000
0100
0000
,
0100
0000
0000
0000
,
0000
0000
0000
0010
0000
0000
0000
0000
,
0010
0000
0000
0100
0000
0000
0000
0000
,
0100
0000
0010
0010
,
0010
0000
0000
0000
,
0000
1000
1000
0000
,
2000
0000
0000
0000
0000
3000
0000
0000
,
0001
0000
0001
0000
,
0002
0000
0000
0000
0000
0000
0000
0003
,
0000
0010
0010
0000
,
0020
0000
0030
0000
,
0100
0000
0100
0000
,
0200
0000
0000
0300
,
0000
1000
1000
0000
,
2000
0000
0000
0000
0000
3000
0000
0000
,
0001
0000
0001
0000
,
0002
0000
0000
0000
,
0003
0000
0010
0000
,
0010
0000
0001
0000
,
0001
0000
0000
2002
0000
3003
0000
0000
,
0000
1000
1000
0000
,
1000
0000
0000
0000
,
0000
0001
0001
0000
,
0001
0000
0000
0000
,
0000
0100
0100
0000
,
0200
0000
0000
0000
,
0300
0000
1001
0000
;

//---------------dance-single - AceOfHearts----------------
#NOTES:
     dance-single:
     Ace Of Hearts (2008):
     Beginner:
     1:
     0.091,0.000,0.067,0.000,0.000:
0000
0000
0000
0000
,
0000
0000
0000
0000
,
0000
0000
0000
0000
,
0000
0000
0000
0000
,
1000
0000
0000
0000
,
0000
0000
0000
0000
,
0001
0000
0000
0000
,
0000
0000
0000
0000
,
0010
0000
0000
0000
,
0010
0000
0000
0000
,
0010
0000
0000
0000
,
0000
0000
0000
0000
,
0001
0000
0000
0000
,
0000
0000
0000
0000
,
1000
0000
0000
0000
,
0000
0000
0000
0000
,
0100
0000
0000
0000
,
0100
0000
0000
0000
,
0100
0000
0000
0000
,
0000
0000
0000
0000
,
1000
0000
0000
0000
,
0000
0000
0000
0000
,
1000
0000
0000
0000
,
0000
0000
0000
0000
,
0010
0000
0000
0000
,
0000
0000
0000
0000
,
0010
0000
0000
0000
,
0000
0000
0000
0000
,
1000
0000
0000
0000
,
0000
0000
0000
0000
,
1000
0000
0000
0000
,
0000
0000
0000
0000
,
0001
0000
0000
0000
,
0001
0000
1001
0000
,
0000
0000
1000
0000
,
1000
0000
0000
0000
,
0000
0000
0000
0000
,
0010
0000
0000
0000
,
0000
0000
0000
0000
,
0010
0000
0000
0000
,
0000
0000
0000
0000
,
0100
0000
0000
0000
,
0100
0000
0000
0000
,
0100
0000
0000
0000
,
0000
0000
0000
0000
,
0001
0000
0000
0000
,
0000
0000
0000
0000
,
0001
0000
0000
0000
,
0000
0000
0000
0000
,
0010
0000
0000
0000
,
0000
0000
0000
0000
,
0010
0000
0000
0000
,
0000
0000
0000
0000
,
0100
0000
0000
0000
,
0000
0000
0000
0000
,
0100
0000
0000
0000
,
0000
0000
0000
0000
,
1000
0000
0000
0000
,
1000
0000
1001
0000
,
0000
0000
0001
0000
,
0001
0000
0000
0000
,
0000
0000
0100
0000
,
0100
0000
0000
0000
,
0000
0000
0000
0000
,
1001
0000
0000
0000
,
0000
0000
0000
0000
,
0110
0000
0000
0000
,
0000
0000
0000
0000
,
0001
0000
0000
0000
,
1000
0000
0000
0000
,
1001
0000
0000
0000
,
0000
0000
0000
0000
,
1000
0000
0000
0000
,
0000
0000
0000
0000
,
1000
0000
0000
0000
,
0000
0000
0000
0000
,
0010
0000
0000
0000
,
0000
0000
0000
0000
,
0010
0000
0000
0000
,
0000
0000
0000
0000
,
0100
0000
0000
0000
,
0000
0000
0000
0000
,
0100
0000
0000
0000
,
0000
0000
0000
0000
,
0010
0000
0000
0000
,
0010
0000
0110
0000
,
0000
0000
1000
0000
,
1000
0000
0000
0000
,
0000
0000
0001
0000
,
0001
0000
0000
0000
,
0000
0000
0010
0000
,
0010
0000
0000
0000
,
0000
0000
1001
0000
;

//---------------dance-single - Expert----------------
#NOTES:
     dance-single:
     Ace Of Hearts (2008):
     Challenge:
     9:
     0.786,0.000,0.876,0.590,0.010:
0000
0000
0000
0000
,
0000
0000
0000
0000
,
0001
0000
0001
0000
1000
0010
1000
1001
,
0000
0011
0000
0001
2000
0000
3010
0110
,
0000
0010
1000
0000
0200
0000
0300
1000
,
0000
2100
0000
3001
0100
0000
0010
0000
,
0110
0000
0010
0000
2000
0000
3000
1100
,
0000
0000
0200
0000
1300
0002
0003
0011
,
0000
0001
0100
0000
0120
0000
0130
0102
,
0000
1003
0100
0010
0002
0000
0103
0000
,
0110
0000
0101
0000
0001
0100
0010
1010
,
0000
0000
1100
0000
0011
0000
1000
1001
,
0000
1000
0010
0000
0200
0000
0300
0110
,
0000
0201
0000
0301
1000
0000
0001
0000
,
0011
0000
0010
0000
0200
0000
0000
0310
,
0000
0100
0000
1100
0000
1000
0010
0000
,
1010
0000
1000
0002
0000
0103
0010
0120
,
0000
0130
0001
0010
0110
0000
1100
0000
,
1001
1000
0010
0010
,
0200
0301
1000
0001
0011
0000
1100
0000
,
1010
0000
0200
0000
0000
0000
0300
0101
,
0000
1100
0000
0100
0110
0000
0100
0000
,
4000
0000
0000
3000
,
0000
0001
0010
0100
1000
0000
0001
0000
,
0101
0000
0020
0000
0030
0000
0010
0100
,
0102
0000
1003
0100
0000
0010
0000
0002
,
0000
0000
0000
1003
0400
0000
0000
0000
,
0300
1000
0010
0100
0001
0000
0010
0000
,
1100
0000
0002
0000
0000
0000
0003
0101
,
0000
1010
0000
1000
1001
0000
0001
0000
,
0040
0000
0000
0030
,
0000
0001
0010
0100
1000
0000
1000
1100
,
0000
0011
0000
0010
0100
1000
0000
2002
,
0000
0000
0000
0010
0000
0000
0000
0000
,
3003
1000
0010
0100
0101
0000
0001
0000
,
0021
0000
0130
1000
0100
0000
0010
0001
,
0010
0110
0000
0100
1000
0000
0001
0000
,
0011
0000
0010
0000
0200
0000
0000
0310
,
0000
0000
0001
1001
0000
1000
0020
0030
,
0110
0000
0010
0000
2000
0000
0000
3010
,
0000
0010
0100
0000
0002
0000
1003
1010
,
0000
0010
0100
0002
0000
1003
0000
1100
,
0000
0100
0001
0100
1000
0000
0001
0000
,
0101
0200
0000
0310
1000
0000
1000
0010
,
0100
0001
0100
1000
0100
0000
0001
0000
,
0011
0000
0002
0100
0100
0000
0003
1100
,
0000
0101
0000
0100
0120
0000
1030
0000
,
0400
0000
1000
1000
1000
0000
0300
1000
,
0000
1000
0010
0100
0001
0000
0100
0000
,
0110
0000
0020
1000
1030
0000
0010
0100
,
0001
1000
0100
0110
0000
0010
0000
0002
,
0000
0000
1000
2003
0100
0100
0001
3001
,
0101
0100
0010
1000
1001
0000
0101
0000
,
1010
0000
0020
0100
0100
0000
0030
1010
,
0000
0102
0000
0010
0013
0000
0100
0000
,
2200
0000
0300
3002
,
0203
0310
1000
0001
0100
0000
0100
0110
,
0000
0100
0001
0010
0000
0010
0001
0000
,
0202
0000
0000
0010
0000
0000
0000
0000
,
0303
0001
0010
1000
0010
0000
0001
0000
,
0101
0000
0001
0100
1000
0000
1000
0100
,
0001
1000
0010
0100
0001
0000
0010
0000
,
1100
0000
1000
0100
0001
0000
0001
0100
,
1000
0000
0001
0100
0001
0000
1000
1010
,
0000
0100
0000
0000
0000
0000
0000
0000
,
0000
0000
0000
0101
0000
0002
0020
0000
,
1000
0000
0000
0000
0000
0000
0000
0033
,
0000
0000
0000
0101
0000
0100
0010
0000
,
1010
0000
0000
1010
0000
0110
0000
0100
,
0101
0000
0000
0000
0000
0000
0000
0000
0001
0000
0000
0000
1000
0000
0000
0000
0002
0200
0000
0000
0000
0000
0000
0000
0010
0000
0000
0000
0000
0000
0000
0000
,
1000
0303
0100
0100
0010
0000
0010
0010
,
1000
0001
0010
1000
0010
0000
0001
0000
,
1001
0000
2000
0010
0010
0000
3000
1010
,
0000
0101
0000
0100
0010
0000
1000
0000
,
0400
0000
0010
0010
0010
0000
0300
1100
,
0000
1000
0010
0001
0010
0000
1000
0000
,
1100
0000
0200
0010
0310
0000
0100
1000
,
0002
0100
0203
0010
0320
1030
0000
0002
,
0000
0000
0013
0100
2000
3001
0100
0100
,
0110
0010
1000
0001
0100
0001
0010
0000
,
0110
0000
0200
1000
1000
0000
1300
0001
,
0000
0201
0000
0310
1010
0000
1100
0000
,
0022
0000
0030
2003
,
3200
0310
0001
1000
0010
0000
0010
1000
,
0000
1100
0000
0100
0010
0100
0000
2200
,
0000
0000
0000
0000
0000
0001
0000
0000
0000
0000
0000
0000
0000
0000
0000
0000
,
3300
0100
0010
0001
1001
0000
1000
0000
,
1010
0000
0010
1000
0100
0000
0010
0001
,
0100
1000
0100
0010
0110
0000
0100
0000
,
0101
0000
0001
0100
1000
0000
1000
0100
,
0001
1000
0100
0010
0011
0000
0001
0000
,
0201
0000
0001
0001
0010
0000
0001
0001
,
0310
1000
0100
0000
0011
0000
0000
0000
;
