#TITLE:Mahoro De Mambo;
#SUBTITLE:;
#ARTIST:Triomatic (Yumi Kikuchi, Manabi Mizuno & Asami Sanada);
#TITLETRANSLIT:;
#SUBTITLETRANSLIT:;
#ARTISTTRANSLIT:;
#GENRE:Silly J-Pop;
#CREDIT:Ace Of Hearts;
#BANNER:Mahoro De Mambo - Bn.png;
#BACKGROUND:Mahoro De Mambo - Bg.jpg;
#LYRICSPATH:;
#CDTITLE:Ace Of Hearts.png;
#MUSIC:Mahoro De Mambo.ogg;
#OFFSET:1.230;
#SAMPLESTART:56.991;
#SAMPLELENGTH:12.000;
#SELECTABLE:YES;
#BPMS:0.000=106.000;
#STOPS:;
#BGCHANGES:9.500=Mahoro De Mambo Video.avi=1.000=0=0=1=====,
159.000=Mahoro De Mambo - bg 2.jpg=1.000=0=0=1=====,
99999=-nosongbg-=1.000=0=0=0 // don't automatically add -songbackground-
;
#KEYSOUNDS:;

//---------------dance-single - AceOfHearts1----------------
#NOTES:
     dance-single:
     Ace Of Hearts (2008):
     Challenge:
     9:
     0.618,0.109,0.456,1.000,0.445: // measure 1
0000
0000
0000
0000
,  // measure 2
0000
0000
0000
0000
0000
0000
0000
0002
0000
0000
1003
0000
1001
0000
0000
0000
,  // measure 3
0000
0000
0000
0202
,  // measure 4
0000
0000
0000
0000
0000
0000
0000
0000
0000
0000
0000
0000
0000
0000
0000
0303
0000
0000
0000
0000
0000
0002
0000
0000
0000
0000
0000
0000
0000
0000
1003
0000
0000
0000
0000
0000
1100
0000
0000
0000
1000
0000
0000
0000
0001
0000
0000
0000
,  // measure 5
0100
0000
0010
0000
0100
0000
0202
0000
0000
0000
0000
0000
0010
0000
0000
0303
0000
0000
0102
0000
0000
0000
0000
1003
,  // measure 6
0020
0000
0000
0130
0000
0001
0000
0000
1000
0000
0000
0010
0100
0000
0000
0001
0000
0000
1000
0000
0100
0010
0000
0010
,  // measure 7
0001
0000
0000
2000
0000
0000
0200
0000
0000
0001
0000
0000
0001
0000
0000
3300
0000
0000
2100
0000
0000
0000
3000
0001
,  // measure 8
0200
0000
0000
0000
0000
0000
0310
0000
0000
0000
0100
0000
0000
0000
0000
0000
0001
0000
0000
0000
0000
0000
1000
0000
0100
0000
0000
0000
0000
0000
0010
0000
0000
0000
0000
0000
0100
0000
0000
0000
0000
0000
1000
0000
0000
0001
0000
0000
,  // measure 9
0100
0000
0000
0002
0000
0000
2000
0000
0000
0010
0000
0000
0010
0000
0000
3003
0000
0000
0102
0000
0000
0000
0000
1003
,  // measure 10
0200
0000
0000
0310
0000
0100
0000
0000
1000
0000
0000
0001
0200
0000
0000
0310
0000
0000
0200
0000
0000
0302
0000
0000
,  // measure 11
2003
0000
3200
0000
0310
0000
0100
2000
0000
0000
3001
0000
0102
0000
0000
0000
,  // measure 12
0023
0000
0000
0000
0000
0000
0000
0000
0000
0000
0000
0000
0130
0000
0000
0020
0000
0000
0000
0000
0000
0031
0000
0000
0000
0000
0000
0000
1000
0000
0010
0000
0000
0000
0000
0000
0110
0000
0000
0000
0000
0000
0100
0000
0000
0000
0000
0000
,  // measure 13
0101
0000
0101
0000
0000
1001
0000
0000
0000
0000
0000
2100
0000
0000
0000
0000
0000
0000
0010
0000
0000
0000
0000
0000
,  // measure 14
0001
0100
0010
0001
,  // measure 15
0100
0000
0000
0000
0000
0000
0010
0000
0000
3000
0000
0000
1000
0000
0000
1000
0000
0000
0020
0000
0000
0000
0000
0230
,  // measure 16
0000
0000
0000
0000
0000
0000
0302
0000
0000
0000
0000
0000
2003
0000
0000
0000
0000
0000
0001
0000
3000
0200
0000
0000
0000
0000
0000
0000
0000
0000
0310
0000
0000
0000
0000
0000
0200
0000
0000
0000
0000
0000
0000
0000
0000
0000
0302
0000
,  // measure 17
0000
0000
0000
2003
0000
0000
0020
3000
0000
0030
0000
0000
0200
0000
0000
0310
0000
0000
1010
0000
0000
1000
0000
0000
,  // measure 18
1100
0000
0000
0100
0000
0000
0110
0000
0000
0010
0000
0000
0011
0000
0000
0001
0000
0000
0202
0000
0000
0303
0000
0220
,  // measure 19
0000
0330
0000
2010
0000
3000
1100
0000
0000
0000
0000
0000
0100
0000
0000
0100
0000
0000
2000
0000
0000
3000
0000
0002
,  // measure 20
0000
0000
0000
1003
0000
0000
0020
0000
0030
0000
0000
0000
1000
0000
0000
1000
0000
0000
2000
0000
0000
0000
0000
3200
,  // measure 21
0000
1300
0010
1000
0001
1000
0200
0000
,  // measure 22
0000
0000
0000
0300
0000
0000
0120
0000
0000
0000
0000
0230
0000
0000
0000
2300
0000
0000
0002
0000
0000
0000
0000
0000
,  // measure 23
3003
0000
0000
0000
0000
0000
0102
0000
0000
0000
0000
2003
0000
0000
0000
3200
0000
0000
0020
0000
0000
0000
0000
0000
,  // measure 24
0000
0000
0000
0000
0000
0000
0000
0000
0000
0000
0000
0000
0000
0000
0000
0330
0000
0000
0011
0000
0001
0000
1000
0000
,  // measure 25
0100
0010
0001
1000
0010
0100
0001
1000
0010
1000
1000
1000
,  // measure 26
0100
0000
0000
0000
0010
0000
0000
0000
0001
0000
0000
0000
0202
0000
0000
0000
0000
0000
1000
0000
0000
0000
0000
0000
1000
0000
0000
0000
0000
0000
1000
0000
0000
0303
0000
0000
0201
0000
0000
0000
0000
0000
0000
0000
0000
0000
0310
0000
,  // measure 27
2000
0000
0000
3001
0000
0010
0000
0000
0100
0000
0000
1000
0020
0000
0000
0130
0000
0000
0001
0000
1000
0010
0000
0010
,  // measure 28
1000
0000
0000
0200
0000
0000
2000
0000
0000
0001
0000
0000
0001
0000
0000
3300
0000
0000
2100
0000
0000
0000
0000
3001
,  // measure 29
0200
0000
0000
0000
0000
0000
0310
0000
0000
0000
1000
0000
0000
0000
0000
0000
0100
0000
0000
0000
0000
0000
1000
0000
0002
0000
0000
0000
0000
0000
0103
0000
0000
0000
0000
0000
0010
0000
0000
0000
0000
0000
0100
0000
0000
0001
0000
0000
,  // measure 30
0100
0000
0000
0002
0000
0000
0200
0000
0000
1000
0000
0000
1000
0000
0000
0303
0000
0000
0102
0000
0000
0000
0000
1003
,  // measure 31
0020
0000
0000
0130
0000
0001
0000
0000
0010
0000
0000
0100
2000
0000
0000
3010
0000
0000
0200
0000
0000
0301
0000
0000
,  // measure 32
2000
0000
0000
3100
0000
0000
0020
0000
0000
0031
0000
2000
0000
0000
0000
3010
0000
0000
0210
0000
0000
0000
0000
0000
,  // measure 33
0002
0000
0300
0000
1003
0010
1000
0001
0010
0100
1000
0000
2100
0000
3010
0000
,  // measure 34
0101
0000
0101
0000
0000
0011
0000
0000
0000
0000
0000
0000
0000
0000
0000
0000
0000
0000
0102
0000
0000
0000
0000
0000
,  // measure 35
2003
0000
0000
0000
0000
0000
3020
0000
0000
0130
0000
0002
0000
0000
1003
0100
0000
0000
0022
0000
0000
0000
0033
0000
,  // measure 36
0220
0000
0330
2200
0000
3300
2020
0000
3030
0202
0000
0000
,  // measure 37
0300
0000
0000
0000
0000
0000
0000
2003
0000
0000
3100
0000
0011
0000
0000
0000
,  // measure 38
0000
0000
0000
0000
0000
0000
0000
0000
0000
0001
0001
0001
,  // measure 39
1000
0010
1000
0100
0100
0100
0010
0001
1000
2002
0000
0000
,  // measure 40
0000
0000
0010
3003
0000
0000
0000
0000
;

//---------------dance-single - Hard----------------
#NOTES:
     dance-single:
     Ace Of Hearts (2008):
     Hard:
     7:
     0.551,0.109,0.133,0.923,0.439: // measure 1
0000
0000
0000
0000
,  // measure 2
0000
0000
0000
0000
0000
0000
0000
2000
0000
0000
3001
0000
1001
0000
0000
0000
,  // measure 3
0000
0000
0000
2200
,  // measure 4
0000
0000
0000
0000
0000
0000
0000
0000
0000
0000
0000
0000
0000
0000
0000
0000
3300
0000
0000
0000
0000
2000
0000
0000
0000
0000
0000
0000
0000
0000
3020
0000
0000
0000
0000
0000
0130
0000
0000
0000
0001
0000
0000
0000
0100
0000
0000
0000
,  // measure 5
0001
0000
1000
0000
0001
0000
0020
0000
0000
0000
0000
0000
0030
0000
0000
0000
0000
0000
0011
0000
0000
0000
0000
0001
,  // measure 6
2000
0000
0000
3010
0000
0100
0000
0000
0001
0000
0000
1000
0100
0000
0000
1000
0000
0000
0001
0000
1000
0100
0000
1000
,  // measure 7
0100
0000
0000
1000
0000
0000
0002
0000
0000
0100
0000
0000
0103
0000
0000
0000
0000
0000
1010
0000
0000
0000
0000
1000
,  // measure 8
0001
0000
0000
0000
0000
0000
0100
0000
0000
0000
0001
0000
0000
0000
0000
0000
1000
0000
0000
0000
0000
0000
0001
0000
0100
0000
0000
0000
0000
0000
0100
0000
0000
0000
0000
0000
0001
0000
0000
0000
0000
0000
1000
0000
0000
0100
0000
0000
,  // measure 9
1000
0000
0000
0001
0000
0000
2000
0000
0000
0100
0000
0000
3100
0000
0000
0000
0000
0000
1100
0000
0000
0000
0000
1000
,  // measure 10
0002
0000
0000
0103
0000
0001
0000
0000
0100
0000
0000
0001
0200
0000
0000
0310
0000
0000
1000
0000
0000
1000
0000
0000
,  // measure 11
0001
0000
0001
0000
2000
0000
3001
0020
0000
0000
0031
0000
2000
0000
0000
0000
,  // measure 12
3002
0000
0000
0000
0000
0000
0000
0000
0000
0000
0000
0000
1003
0000
0000
0020
0000
0000
0000
0000
0000
0130
0000
0000
0000
0000
0000
0000
0001
0000
0100
0000
0000
0000
0000
0000
0101
0000
0000
0000
0000
0000
0001
0000
0000
0000
0000
0000
,  // measure 13
1000
0000
0100
0000
0000
1000
0000
0000
0000
0000
0000
0022
0000
0000
0000
0033
0000
0000
2000
0000
0000
0000
0000
0000
,  // measure 14
3200
0320
0032
2003
,  // measure 15
3020
0000
0000
0000
0000
0000
0230
0000
0000
0000
0000
0000
0301
0000
0000
0001
0000
0000
2000
0000
0000
0000
0000
3020
,  // measure 16
0000
0000
0130
0000
0002
0000
1003
0200
0000
0000
2300
0000
3002
0000
0000
0203
,  // measure 17
0000
0301
0010
0000
0001
0001
2000
3010
,  // measure 18
2000
0000
0000
3001
0000
0000
2000
0000
0000
3100
0000
0000
2000
0000
0000
3001
0000
0000
0020
0000
0000
0000
0000
0032
,  // measure 19
0000
0000
0000
1003
0000
0000
1100
0000
0000
0000
0000
0000
1000
0000
0000
1000
0000
0000
0002
0000
0000
0000
0000
0203
,  // measure 20
0000
0000
0000
0301
0000
0000
1000
0000
0000
0000
0000
0000
0001
0000
0000
0001
0000
0000
0020
0000
0000
0000
0000
0032
,  // measure 21
0000
1003
0010
1000
0001
1000
0200
0000
,  // measure 22
0000
0000
0000
0300
0000
0000
2000
0000
0000
0000
0000
3002
0000
0000
0000
2003
0000
0000
3200
0000
0000
0000
0000
0000
,  // measure 23
0300
0000
0000
0000
0000
0000
2000
0000
0000
0000
0000
3002
0000
0000
0000
0203
0000
0000
0320
0000
0000
0000
0000
0000
,  // measure 24
0000
0000
0000
0000
0000
0000
0000
0000
0000
0000
0000
0000
0000
0000
0000
0030
0000
0000
1000
0000
0001
0000
1000
0000
,  // measure 25
0001
1000
0001
1000
0010
1000
0010
1000
0010
0100
0001
0100
,  // measure 26
0001
0000
1000
0000
0001
0000
0020
0000
0000
0100
0000
0000
0100
0000
0000
0230
0000
0000
1300
0000
0000
0000
0000
0001
,  // measure 27
0200
0000
0000
0301
0000
1000
0000
0000
0010
0000
0000
1000
0020
0000
0000
0130
0000
0000
0001
0000
0100
0001
0000
0100
,  // measure 28
0002
0000
0000
2003
0000
0000
3020
0000
0000
0100
0000
0000
0130
0000
0000
0000
0000
0000
0001
0000
0000
0000
0000
1000
,  // measure 29
0200
0000
0000
0000
0000
0000
1300
0000
0000
0000
0001
0000
0000
0000
0000
0000
1000
0000
0000
0000
0000
0000
0001
0000
0200
0000
0000
0000
0000
0000
0310
0000
0000
0000
0000
0000
0100
0000
0000
0000
0000
0000
0001
0000
0000
1000
0000
0000
,  // measure 30
0001
0000
0000
2000
0000
0000
3002
0000
0000
0100
0000
0000
0103
0000
0000
0000
0000
0000
0010
0000
0000
0000
0000
0100
,  // measure 31
0002
0000
0000
1003
0000
0100
0000
0000
0100
0000
0000
1000
0002
0000
0000
0103
0000
0000
0001
0000
0000
1000
0000
0000
,  // measure 32
0010
0000
0000
0100
0000
0000
0002
0000
0000
1003
0000
0200
0000
0000
0000
1300
0000
0000
0022
0000
0000
0033
0000
0000
,  // measure 33
2200
0000
3300
0000
1000
0001
1000
0000
0001
0100
0001
0000
2000
0000
3001
0000
,  // measure 34
0200
0000
0301
0000
0000
1001
0000
0000
0000
0000
0000
0000
0000
0000
0000
0000
0000
0000
0002
0000
0000
0000
0000
0000
,  // measure 35
0203
0000
0000
0000
0000
0000
0320
0000
0000
1030
0000
0001
0000
0000
1000
0010
0000
0000
0200
0000
0000
0000
0000
0000
,  // measure 36
0302
0023
0230
2300
,  // measure 37
0000
0000
0000
0000
3000
0000
0000
0002
0000
0000
0103
0000
0101
0000
0000
0000
,  // measure 38
0000
0000
0000
0000
0000
0000
0000
0000
0000
0001
1000
0001
,  // measure 39
1000
0010
1000
0001
1000
0001
1000
0100
2000
0002
0000
0000
,  // measure 40
0000
0000
0010
3003
0000
0000
0000
0000
;

//---------------dance-single - Medium----------------
#NOTES:
     dance-single:
     Ace Of Hearts (2008):
     Medium:
     5:
     0.375,0.087,0.089,0.511,0.167: // measure 1
0000
0000
0000
0000
,  // measure 2
0000
0000
0000
0000
0000
0000
0000
0002
0000
0000
1003
0000
0100
0000
0000
0000
,  // measure 3
0000
0000
0000
0200
,  // measure 4
0000
0000
0000
0000
0000
0000
0000
0000
0000
0000
0000
0000
0000
0000
0000
0000
0000
0000
0300
0000
0000
2000
0000
0000
0000
0000
0000
0000
0000
0000
3001
0000
0000
0000
0000
0000
1000
0000
0000
0000
0001
0000
0000
0000
1000
0000
0000
0000
,  // measure 5
0001
0020
0030
0001
,  // measure 6
1000
0000
0001
0100
0001
0000
1000
0010
,  // measure 7
1000
1100
0000
1000
,  // measure 8
0001
0000
1000
0100
1000
0000
0001
1000
,  // measure 9
0001
0011
0000
0001
,  // measure 10
1000
0000
0010
0100
0010
0000
1000
0000
,  // measure 11
0001
0000
0010
0001
0010
0000
0002
0000
,  // measure 12
2003
0000
0000
0000
3001
0200
0000
0301
0000
0000
1000
0000
0001
0000
1000
0000
,  // measure 13
0010
0000
0000
0100
0000
0000
0000
0000
0000
0000
0101
0000
0000
0000
0000
0000
0000
0000
0000
0000
0000
0000
1010
0000
0000
0000
0000
0000
0000
0000
0000
0000
0000
0000
0000
0000
2000
0000
0000
0000
0000
0000
0000
0000
0000
0000
0000
0000
,  // measure 14
3002
0023
0230
2300
,  // measure 15
3002
0000
0000
0000
0000
0000
2003
0000
0000
0000
0000
0000
3001
0000
0000
0100
0000
0000
0002
0000
0000
0000
0000
2003
,  // measure 16
0000
0000
3100
0000
1000
0000
0000
0001
0000
0000
0000
0000
2000
0000
0000
3002
,  // measure 17
0000
0103
0100
0000
0001
0001
1000
0100
,  // measure 18
1000
0000
0000
0000
0000
0000
0100
0000
0000
0000
0000
0000
1000
0000
0000
0000
0000
0000
0001
0000
0000
0000
0000
0000
1000
0000
0000
0000
0000
0000
0001
0000
0000
0000
0000
0000
2000
0000
0000
0000
0000
0000
0000
0000
0000
3000
0020
0000
,  // measure 19
0000
0000
0000
0130
0000
0000
0100
0000
0000
0000
0000
0000
0001
0000
0000
0001
0000
0000
2000
0000
0000
0000
0000
3200
,  // measure 20
0000
0000
0000
1300
0000
0000
1000
0000
0000
0000
0000
0000
0001
0000
0000
0001
0000
0000
2000
0000
0000
0000
0000
3002
,  // measure 21
0000
0103
0100
0001
1000
0001
0200
0000
,  // measure 22
0000
0000
0000
0300
0000
0000
0002
0000
0000
0000
0000
0203
0000
0000
0000
0302
0000
0000
2003
0000
0000
0000
0000
0000
,  // measure 23
3000
0000
0000
0000
0000
0000
0002
0000
0000
0000
0000
2003
0000
0000
0000
3002
0000
0000
0023
0000
0000
0000
0000
0000
,  // measure 24
0000
0000
0000
0000
0000
0000
0000
0000
0000
0000
0000
0000
0000
0000
0000
0030
0000
0000
0001
0000
1000
0000
0001
0000
,  // measure 25
1000
0000
0000
0010
1000
0010
1000
0000
0000
0001
0100
0001
,  // measure 26
0100
0110
0000
0001
,  // measure 27
1000
0000
0001
0100
0001
0000
1000
0100
,  // measure 28
1000
1010
0000
1000
,  // measure 29
0001
0000
0100
0001
0100
0000
0010
0000
,  // measure 30
1000
0001
1000
0000
0000
0000
0010
0000
,  // measure 31
0100
0000
0001
0010
0001
0000
1000
0001
,  // measure 32
1000
0100
1000
0000
0001
0000
2000
0000
,  // measure 33
3200
0000
1300
0001
1000
0001
0100
0001
,  // measure 34
0200
0000
0000
0000
0000
0310
0000
0000
0000
0000
0000
0000
0000
0000
0000
0000
0000
0000
2000
0000
0000
0000
0000
0000
,  // measure 35
3200
0000
0000
0000
0000
0000
1300
0000
0000
0000
0000
0001
0000
0000
0000
1000
0000
0000
0020
0000
0000
0000
0000
0000
,  // measure 36
0230
0302
2003
3200
,  // measure 37
0000
0000
0000
0000
0300
0000
0000
2000
0000
0000
3001
0000
0100
0000
0000
0000
,  // measure 38
0000
0000
0000
0000
0000
0000
0000
0000
0000
0001
1000
0001
,  // measure 39
1000
0000
0000
0010
1000
0010
1000
0000
0000
0202
0000
0000
,  // measure 40
0000
0303
1001
0000
0000
0000
0000
0000
;

//---------------dance-single - Easy----------------
#NOTES:
     dance-single:
     Ace Of Hearts (2008):
     Easy:
     3:
     0.241,0.065,0.044,0.256,0.000: // measure 1
0000
0000
0000
0000
,  // measure 2
0000
0000
0002
0103
,  // measure 3
0000
0000
0000
0002
,  // measure 4
0000
0000
1003
0010
,  // measure 5
0010
0110
0000
1000
,  // measure 6
1000
0001
0001
0100
,  // measure 7
0100
0100
0000
0001
,  // measure 8
0001
1000
1000
0010
,  // measure 9
0010
0010
0000
0100
,  // measure 10
0100
0001
0001
1000
,  // measure 11
1000
0001
0001
2000
,  // measure 12
3200
1300
1000
0001
,  // measure 13
0001
0100
0000
0001
,  // measure 14
0001
0001
0001
0010
,  // measure 15
0010
0010
0001
0002
,  // measure 16
0000
1003
0010
0020
,  // measure 17
0000
0130
0001
1000
,  // measure 18
1000
0100
0100
0020
,  // measure 19
0030
0010
0001
1000
,  // measure 20
1000
1000
0001
0100
,  // measure 21
0100
0100
0100
0002
,  // measure 22
0003
1000
1000
2000
,  // measure 23
3000
0010
0010
0020
,  // measure 24
0000
0000
0030
1000
,  // measure 25
1000
0001
0001
1000
,  // measure 26
1000
2200
3300
1000
,  // measure 27
1000
0001
0001
0100
,  // measure 28
0100
0100
0000
0001
,  // measure 29
0001
1000
1000
0010
,  // measure 30
0010
0010
0000
1000
,  // measure 31
1000
0001
0001
0100
,  // measure 32
0100
0001
0001
0020
,  // measure 33
0032
1003
1000
0001
,  // measure 34
0001
0101
0000
0002
,  // measure 35
2003
3001
1000
0002
,  // measure 36
2003
3200
2300
3002
,  // measure 37
0000
0003
2000
3100
,  // measure 38
0000
0000
0000
1000
,  // measure 39
1000
0001
0001
0020
,  // measure 40
0030
1001
0000
0000
;

//---------------dance-single - Blank----------------
#NOTES:
     dance-single:
     Ace Of Hearts (2008):
     Beginner:
     1:
     0.138,0.044,0.044,0.111,0.000: // measure 1
0000
0000
0000
0000
,  // measure 2
0000
0000
0010
0010
,  // measure 3
0000
0000
0000
0200
,  // measure 4
0000
0000
0300
0001
,  // measure 5
0001
0001
0000
1000
,  // measure 6
0000
1000
0000
1000
,  // measure 7
0000
0000
0000
0001
,  // measure 8
0000
0001
0000
0001
,  // measure 9
0000
0000
0000
0100
,  // measure 10
0000
0000
0000
0100
,  // measure 11
0000
0000
0000
0010
,  // measure 12
0010
0010
0000
1000
,  // measure 13
0000
0000
1001
0002
,  // measure 14
0000
0000
0000
0000
,  // measure 15
0000
0003
0000
1000
,  // measure 16
0000
1000
0000
0001
,  // measure 17
0000
0001
0000
0100
,  // measure 18
0100
0100
0000
0020
,  // measure 19
0000
0030
0000
1000
,  // measure 20
0000
1000
0000
0001
,  // measure 21
0000
0001
0000
0200
,  // measure 22
0300
0001
0000
0002
,  // measure 23
0003
0010
0000
0020
,  // measure 24
0000
0000
0030
0001
,  // measure 25
0000
1000
0000
0010
,  // measure 26
0010
0010
0000
1000
,  // measure 27
0000
0001
0000
0100
,  // measure 28
0100
0100
0000
0001
,  // measure 29
0000
1000
0000
0010
,  // measure 30
0010
0010
0000
1000
,  // measure 31
0000
1000
0000
0001
,  // measure 32
0000
0001
0000
2000
,  // measure 33
0000
3001
0000
0100
,  // measure 34
0000
0110
0000
0001
,  // measure 35
0000
1000
0000
0001
,  // measure 36
0001
0001
0001
0002
,  // measure 37
0000
0003
0100
0100
,  // measure 38
0000
0000
0000
0002
,  // measure 39
0003
2000
3000
1001
,  // measure 40
0000
1001
0000
0000
;
