#TITLE:Little Wing;
#SUBTITLE:;
#ARTIST:Masami Okui;
#TITLETRANSLIT:;
#SUBTITLETRANSLIT:;
#ARTISTTRANSLIT:;
#GENRE:J-Pop;
#CREDIT:Ace Of Hearts;
#BANNER:Little Wing - bn.png;
#BACKGROUND:Little Wing - bg.jpg;
#LYRICSPATH:Little Wing Lyrics.lrc;
#CDTITLE:Ace Of Hearts.png;
#MUSIC:Little Wing.ogg;
#OFFSET:0.730;
#SAMPLESTART:49.300;
#SAMPLELENGTH:12.000;
#SELECTABLE:YES;
#BPMS:0.000=109.000;
#STOPS:;
#BGCHANGES:0.000=Little Wing Video.avi=1.000=0=0=0=StretchNoLoop====,
99999=-nosongbg-=1.000=0=0=0 // don't automatically add -songbackground-
;
#KEYSOUNDS:;

//---------------dance-single - Ace Of Hearts (2008)----------------
#NOTES:
     dance-single:
     Ace Of Hearts (2008):
     Challenge:
     9:
     0.759,0.386,0.669,1.000,0.536: // measure 1
0000
0000
0000
0000
0100
1000
0002
0000
0000
2003
0000
3100
,  // measure 2
0020
0000
0000
0000
0000
0031
1000
0000
0010
0000
1000
0000
0200
0000
0000
0000
0000
0000
4300
0040
0000
0000
0000
3000
,  // measure 3
0130
0000
0010
0000
0100
0000
0004
0400
0000
0000
0303
0000
0040
0400
0000
0000
0000
0000
0330
0000
0000
0001
0000
0000
,  // measure 4
0201
0000
0301
1000
0100
0000
1200
0000
0000
0310
0002
0000
0013
0100
1000
0000
,  // measure 5
2100
0000
3001
1000
0010
0000
0102
0000
0003
1000
0020
0000
1030
0010
0200
0300
,  // measure 6
0102
0000
1003
0010
0100
0000
0210
0000
0000
0301
2000
0000
3010
0100
0001
0000
,  // measure 7
2001
0000
3100
0010
0001
0000
0100
0000
0120
0000
1030
0100
0000
0010
0001
1000
,  // measure 8
2002
3003
1000
2010
0000
3010
0010
0100
,  // measure 9
0102
0000
1003
0010
0000
0100
0004
0000
0000
1003
0100
0000
1100
0000
1000
0001
,  // measure 10
0101
0000
0010
0000
2000
0000
3001
0000
0021
0000
0130
1000
0000
0001
1000
0000
,  // measure 11
1400
0000
0310
0001
1000
0000
0010
0000
0210
0000
0301
1000
0000
0100
0010
0000
,  // measure 12
0012
0000
1003
0010
0000
1000
0200
0000
0000
1300
0001
0000
0201
0000
0310
0000
,  // measure 13
1020
0000
M000
0030
0210
0000
00M1
0300
0102
0000
0M00
0013
0000
000M
01M0
0000
,  // measure 14
2100
0M00
3002
0103
0210
00M0
0301
0040
,  // measure 15
0000
0000
0031
0100
0010
0000
1000
0000
0002
0000
1003
0100
1000
0001
0100
0000
,  // measure 16
0102
0000
2000
0010
3003
M00M
1000
0010
,  // measure 17
0210
0000
0301
1000
0000
1000
0040
0000
0000
0130
0001
0000
0011
0000
0010
0100
,  // measure 18
2000
0000
3001
0100
0000
0100
0010
0000
1000
0100
0010
0000
0001
0000
0401
0000
,  // measure 19
0310
0000
0100
0001
2000
0000
3100
0000
0110
0000
0010
0002
0000
1003
0010
0000
,  // measure 20
0210
0000
0301
2000
0000
3100
0020
0000
0000
0031
0100
0000
1020
0000
0130
0000
,  // measure 21
0102
0000
1003
0200
0000
0300
0022
0000
0000
0003
0100
0000
0130
0000
1000
0100
,  // measure 22
0020
0000
0031
1000
0000
1000
0001
0000
0201
0000
0310
1000
0000
1000
0001
0000
,  // measure 23
0204
0000
0000
0000
0000
0000
0000
0003
0002
0000
0000
0000
1000
0000
0000
0000
,  // measure 24
1020
0000
0000
0030
0003
0000
0000
0000
0300
0000
0100
0001
1000
0200
0000
1300
,  // measure 25
2001
0000
0000
0000
3020
0000
0130
0000
0102
0000
0000
1003
0200
0000
0310
0000
,  // measure 26
2001
0000
0000
0200
3000
0000
0310
0000
0001
0100
0000
0110
0000
0000
0010
1000
,  // measure 27
0002
0000
0000
0013
0000
0000
2200
0000
0000
0000
0000
0000
0001
0000
0010
0000
,  // measure 28
0021
0000
0000
0030
0300
0000
0000
0000
3000
0000
0001
0010
0100
1000
0000
0001
,  // measure 29
1000
0000
0040
0000
2000
0000
0030
3000
1002
0000
0000
0000
0203
0000
0000
0300
,  // measure 30
0120
0000
1030
0000
2010
0000
3001
0000
0021
0000
0130
0000
1000
0020
0000
0130
,  // measure 31
0001
1000
0000
0100
0010
0000
0001
0100
0000
0000
0220
0000
0330
0000
0010
1000
,  // measure 32
0002
0000
1003
0100
0000
0100
0010
0000
0012
0000
1003
0010
0000
0010
0100
0000
,  // measure 33
0102
0000
1000
0000
1000
0000
2003
3000
1100
0000
0200
0000
1300
0001
0000
0100
,  // measure 34
0020
0000
1030
0000
0001
0010
0000
0210
0000
0000
1300
0000
0001
1000
0000
4020
,  // measure 35
0000
0000
0000
0000
0000
0000
3030
0000
0000
1000
0001
0000
0101
0000
0001
0010
,  // measure 36
0200
0000
1300
0000
0001
0100
0010
0000
0200
0000
0301
0000
1000
0000
2040
0000
,  // measure 37
3000
0130
0100
0202
0300
1000
1003
0001
,  // measure 38
0102
0000
1003
0200
0000
0310
0001
0000
0204
0000
0000
0000
0303
0000
1000
0000
,  // measure 39
1020
0000
0000
0000
0030
0100
0001
1000
0020
0000
1030
0200
0000
0000
0320
0030
,  // measure 40
0012
0000
1003
0000
0020
0030
0210
0000
0301
0000
2000
3000
2002
0000
0000
0000
,  // measure 41
0000
0000
0000
3003
;

//---------------dance-single - Ace Of Hearts (2008)----------------
#NOTES:
     dance-single:
     Ace Of Hearts (2008):
     Hard:
     8:
     0.499,0.379,0.112,0.792,0.301:
0000
0000
0000
0000
1000
0100
0020
0000
0000
0032
0000
1003
,
0020
0000
0000
1030
0001
1000
0002
0000
0000
0023
0000
0130
,
1000
0000
0100
0000
0010
0000
0002
0000
0000
0000
0013
0000
0200
0000
0000
0000
0000
0000
1300
0000
0000
1000
0000
0000
,
0100
0010
0001
0200
0000
0310
1000
0001
,
0100
0001
1000
0200
0000
0310
0100
1000
,
0001
0100
0010
0200
0000
0310
1000
0001
,
1000
0100
0010
0001
1000
0010
0100
0001
,
1001
0000
0001
0200
0000
0300
0002
0013
,
0200
0000
1300
0001
0000
1000
0040
0000
0000
0000
0000
0000
0030
0000
0000
0000
,
1000
0000
1000
0000
0002
0000
0103
0000
0020
0000
0000
1030
0000
0000
0001
0000
,
0400
0000
0000
0300
0010
1000
1100
0000
,
2000
0000
3001
0010
0000
0001
2000
0000
0000
0000
3000
0000
0001
0000
0100
0000
,
0020
0000
0000
0000
0130
0000
0001
0000
2000
0000
0000
3010
0000
0000
0100
0000
,
0002
0000
1003
0010
0200
0000
0301
4000
,
0000
0000
3000
0000
0001
0100
0101
0000
,
0120
0000
1030
1001
0000
0000
0001
1000
,
0020
0000
0130
0001
0000
1000
0004
0000
0000
0000
0000
0000
0003
0000
0000
0000
,
2000
3010
0020
0130
0002
0000
0013
0400
,
0000
0000
0300
0000
1000
0001
0101
0000
,
0100
0000
0001
2000
0000
3001
0020
0000
0030
0000
0000
0000
0001
0000
1000
0000
,
0020
0000
1030
0002
0000
0000
0023
0000
0000
0000
0030
0000
0000
0000
0001
0000
,
0020
0000
0000
0130
0000
0000
1000
0000
2000
0000
0000
3001
0000
0000
0020
0000
,
0400
0000
0330
1100
,
1020
0000
0000
1030
0002
0000
0000
0000
0003
0000
1000
0001
0100
0002
0000
1003
,
0200
0000
0000
0000
1300
0000
0001
0000
0200
0000
0000
0301
2000
0000
3010
0000
,
0200
0000
0000
0302
0000
0000
1003
0000
0100
2000
0000
3001
0000
0000
1000
0100
,
2000
0000
0000
3010
0000
0000
0200
0000
0000
0000
0300
0000
0001
0000
1000
0000
,
0002
0000
0000
1003
0200
0000
0000
0000
0300
0000
1000
0010
1000
0002
0000
1003
,
0100
0020
0200
0030
2300
0000
3002
0000
,
0023
0000
0130
0000
1000
0000
0001
0000
0200
0000
0000
0000
0301
1000
0000
0040
,
0000
0000
0000
0000
0000
0030
0000
0000
0000
0000
0120
0000
0000
0000
1030
0001
,
2000
0000
0000
3200
0000
0000
1300
0000
0002
0000
0000
0013
0000
0000
0001
0000
,
2000
0000
0000
0000
0000
0000
0000
3100
0000
0000
0020
0000
0031
0010
0000
0100
,
2000
0000
3010
0000
0100
0001
0000
2000
0000
0000
3001
0000
1000
0100
0000
0040
,
0000
0000
0000
0000
0000
0000
0030
0000
0000
0000
0000
0000
0001
0000
1000
0100
,
2000
3001
0100
0010
1000
0001
0010
0400
,
0000
0000
0300
2002
0000
0000
3003
0000
,
0002
0000
1003
0200
0000
1300
0010
0000
4000
0000
0000
0000
3000
0000
0010
0000
,
0020
0000
0000
0000
0030
1000
0001
1000
0020
0000
0130
0002
0000
0000
0020
0000
,
0000
0000
0000
0000
,
0033
0000
0000
0000
;

//---------------dance-single - Ace Of Hearts (2008)----------------
#NOTES:
     dance-single:
     Ace Of Hearts (2008):
     Medium:
     5:
     0.279,0.290,0.045,0.335,0.050:
0000
0000
0000
0000
1000
0000
0002
0000
0000
1003
0000
0001
,
2000
0000
0000
3010
0000
0000
2000
0000
0000
3020
0000
1030
,
0001
0001
0200
0300
,
0001
0000
1000
0200
0000
1300
0000
0000
,
0001
0000
1000
0020
0000
0130
0000
0000
,
0001
0000
1000
0020
0000
0130
0000
0000
,
0010
0000
1000
0002
0000
0000
1003
0000
,
0000
0000
0001
1000
0000
0000
0001
0100
,
0002
1000
1000
0003
,
1000
0100
2000
0000
0001
0000
0001
0000
,
3001
0000
0000
0100
0000
0000
0000
0000
,
0001
0000
0000
0001
0000
0000
0001
0000
0000
0000
0000
0000
1000
0000
0010
0000
,
2000
0001
3001
0010
,
0020
0000
0100
0000
0230
0000
0000
1300
,
0000
0001
0001
1001
,
0000
0000
1000
0001
0000
0000
1000
0100
,
2000
0001
0001
3000
,
0001
0010
0002
0000
1000
0000
0000
1000
,
0003
0000
0000
1001
,
0001
0000
0000
0001
0000
0000
0001
0000
0000
0000
0000
0000
0100
0000
0000
0000
,
0010
0000
0000
0010
0000
0000
0010
0000
0000
0000
0000
0000
0000
0000
1000
0000
,
0002
1000
0100
1000
,
2000
0000
3003
0110
,
2002
0000
3003
1000
,
0001
0010
0100
1000
,
0002
0100
0100
0103
,
0010
0000
0000
0010
0000
0000
0010
0000
0000
0000
0000
0000
1000
0000
0010
0000
,
2000
0000
0000
0000
3000
0001
0100
0000
,
0002
0000
2000
3003
,
1000
0100
1000
0000
0001
0000
1000
0000
,
0020
0000
0000
0000
0030
0000
0000
1000
,
0001
1000
0100
0010
,
0002
0000
1003
0100
,
0100
1000
1000
0010
,
0020
0000
0030
0000
,
1000
0001
1000
0000
0001
0000
0001
2000
,
0000
0000
0000
0002
0000
0000
3003
0000
,
1000
0000
0000
1000
0000
0000
1000
0000
1000
0000
0000
0000
0000
0000
0001
0000
,
0010
0000
0000
0000
0000
0000
0001
0000
1000
0000
0000
0100
0000
0000
0020
0000
,
0000
0000
0000
0000
,
0030
0000
0000
0000
;

//---------------dance-single - Ace Of Hearts (2008)----------------
#NOTES:
     dance-single:
     Ace Of Hearts (2008):
     Easy:
     3:
     0.196,0.089,0.056,0.234,0.000:
0000
0000
0002
0000
,
0003
0000
2000
0000
,
3000
0010
0020
0000
,
1030
1000
1000
0000
,
0001
0001
0001
0000
,
0100
0100
0100
0000
,
0010
0010
0010
0000
,
0000
1000
1000
0000
,
0100
0100
0100
0000
,
1000
1000
1000
0000
,
0002
0000
0000
0003
,
0020
0000
0000
0030
0000
0000
0000
0000
,
0100
0100
0100
0000
,
1000
1000
1000
0000
,
0200
0000
0000
0300
,
0000
1000
1000
0000
,
0010
0010
0010
0000
,
0100
0100
0100
0000
,
0002
0000
0000
0003
,
0010
0010
0010
0000
,
0001
0001
0001
0000
,
1000
1000
1000
1000
,
2000
0000
3000
1001
,
2002
0000
3003
0000
,
0001
0001
0002
0003
,
1000
1000
2000
3000
,
0010
0010
0010
0110
,
0220
0000
0330
1000
,
2000
0000
0000
3000
,
0001
0001
0001
0001
,
0002
0000
0003
0000
,
0100
0100
0100
0100
,
0200
0000
0310
0000
,
1000
1000
1000
1000
,
2000
0000
3000
0000
,
0010
0010
0010
0010
,
0010
0000
0220
0330
,
1000
1000
1000
0000
,
0010
0000
0100
0100
,
0200
0000
0000
0000
,
0300
0000
0000
0000
;

//---------------dance-single - Ace Of Hearts (2008)----------------
#NOTES:
     dance-single:
     Ace Of Hearts (2008):
     Beginner:
     1:
     0.097,0.000,0.011,0.145,0.000:
0000
0000
0000
0000
,
0000
0000
0000
0000
,
0000
0000
0000
0000
,
0002
0000
0003
0000
,
0000
0000
0000
0000
,
2000
0000
3000
0000
,
0000
0000
0000
0000
,
0000
0000
0001
0000
,
0001
0000
0000
0000
,
1000
0000
1000
0000
,
1000
0000
0000
0000
,
0020
0000
0030
0000
,
0100
0000
0000
0000
,
0001
0000
0001
0000
,
0001
0000
0000
0000
,
0000
0000
1000
0000
,
1000
0000
0000
0000
,
0001
0000
0001
0000
,
0001
0000
0000
0000
,
0010
0000
0010
0000
,
0020
0000
0030
0000
,
0001
0000
0001
0000
,
0002
0000
0003
0000
,
2002
0000
3003
0000
,
0100
0000
0100
0000
,
0200
0000
0000
0000
,
0300
0000
0000
0000
,
0002
0000
0003
0000
,
1000
0000
0000
0000
,
0010
0000
0010
0000
,
0010
0000
0000
0000
,
1000
0000
1000
0000
,
2000
0000
3000
0000
,
0010
0000
0010
0000
,
0020
0000
0030
0000
,
0100
0000
0100
0000
,
0200
0000
0000
0300
0000
0000
0000
0000
,
0010
0010
0010
0000
,
1000
0000
0001
0000
,
2000
0000
0000
0000
,
3000
0000
0000
0000
;
