#TITLE:Lazy Generation;
#SUBTITLE:;
#ARTIST:The F-Ups;
#TITLETRANSLIT:;
#SUBTITLETRANSLIT:;
#ARTISTTRANSLIT:;
#GENRE:Rock;
#CREDIT:Ace Of Hearts;
#BANNER:Lazy Generation - Bn.png;
#BACKGROUND:Lazy Generation - Bg.jpg;
#LYRICSPATH:;
#CDTITLE:Ace Of Hearts.png;
#MUSIC:Lazy Generation.ogg;
#OFFSET:-0.490;
#SAMPLESTART:78.140;
#SAMPLELENGTH:18.000;
#SELECTABLE:YES;
#BPMS:0.000=198.000,24.000=99.000,28.000=198.000;
#STOPS:215.000=0.340
,259.000=0.160
,266.500=0.160
,290.000=0.160
,297.500=0.160
,321.000=0.160
,328.500=0.160
,372.000=0.940
,390.000=0.300
,391.000=0.320
,392.000=0.300
,393.000=0.320
,394.000=0.300
,395.000=0.320
,431.000=0.300
,432.000=0.320
,433.000=0.300
,434.000=0.320
,435.000=0.300
,436.000=0.320
,437.000=0.300
,438.000=0.320
;
#BGCHANGES:;
#KEYSOUNDS:;

//---------------dance-single - Hard----------------
#NOTES:
     dance-single:
     Ace Of Hearts (2008):
     Hard:
     8:
     0.701,0.000,0.571,1.000,0.014:
0000
0000
0000
0000
,
0000
0000
0000
0000
,
0000
0000
0000
0000
,
0000
0000
0000
0000
,
0000
0000
0000
0000
,
0000
0000
0000
0000
,
0000
0001
0001
1000
0010
0100
0001
1000
,
0000
0000
0001
0000
0100
0000
0001
1000
,
0000
0001
1000
0001
2000
0000
3100
0000
,
0000
0000
1000
0000
0001
0000
1000
0020
,
0000
1030
0001
1000
0200
0000
0310
0000
,
0000
0000
0001
0000
2000
0000
3001
0020
,
0000
0031
1000
0001
0200
0000
0310
0000
,
0202
0000
0000
0000
,
0000
0000
0303
0000
,
0000
0000
0001
0000
1000
0000
0001
0200
,
0000
0301
1000
0001
0200
0000
0310
0000
,
0000
0000
1000
0000
0010
0000
1000
0002
,
0000
1003
0010
1000
0002
0000
0103
0000
,
0000
0000
0001
0000
0010
0000
0100
2000
,
0000
3001
1000
0001
0200
0000
0310
0000
,
2020
0000
0000
0000
,
0000
0000
3030
0000
,
0000
0000
2002
3003
,
2020
3030
0220
0330
,
0202
0000
0303
0000
0000
0001
1000
0000
,
0200
0000
0310
0001
0000
2000
0000
3100
,
0000
0011
0000
0101
,
0000
1010
0000
0101
,
0000
1100
0000
1010
,
0000
0020
0200
0000
,
0330
0000
0001
0000
1000
0000
0001
0020
,
0000
0031
1000
0010
2000
0000
3001
0000
,
0000
0000
1000
0000
0020
0000
1030
0001
,
0000
1000
0020
0000
0130
0000
0001
0000
,
2000
0000
0000
3001
0200
0000
0000
0000
,
0300
0000
0000
0000
,
0000
0020
1030
0001
,
0010
0100
1000
1001
,
0000
0000
1000
0100
1000
0100
0010
0001
,
2000
0000
3010
0200
0000
0301
0000
0000
,
0000
1000
0100
0000
1000
0000
0001
0100
,
0010
0100
0000
0002
0000
0013
0000
0000
,
0200
0000
0000
1300
0002
0000
0000
0000
,
0003
0000
0000
0000
,
0000
0000
0000
0000
0010
0001
0000
1000
,
0000
0001
0000
1000
0000
0001
0000
0011
,
0000
0000
2020
3030
,
0220
0330
0202
0303
,
2002
0000
0000
0000
3003
0001
0100
0000
,
0002
0000
1003
0100
0000
1000
0000
0001
,
0000
0011
0000
0110
,
0000
1100
0000
1001
,
0000
0101
0000
1010
,
1000
2002
0000
3003
,
0000
0022
0033
0220
,
0330
2200
3300
2002
,
3003
0000
0000
1000
0010
0000
2010
0000
,
3001
0100
0000
0010
0000
0100
0000
0000
,
0101
0000
1100
0000
,
0011
0000
1100
0000
,
1001
0000
1010
0000
,
2000
0000
0000
0000
3004
0400
0000
0000
0000
0000
0000
0000
0303
0000
0000
0000
,
0001
0000
1000
0000
0100
0020
0000
0031
,
1000
0001
0020
0000
0130
0000
0000
1000
,
0000
0001
0000
1000
0020
0000
1030
0001
,
1000
0002
0000
0013
0000
0000
0100
0000
,
1000
0000
0001
2000
0000
3010
1000
0001
,
0200
0310
0202
0000
,
0000
0000
0000
0000
,
0000
0000
0303
0001
,
1000
0000
0001
0020
0000
0031
1000
0001
,
0020
0000
0130
0000
0000
1000
0000
0001
,
0000
0100
0020
0000
1030
0001
1000
0200
,
0000
0310
0000
0000
0001
0000
0100
0000
,
0001
2000
0000
3010
1000
0001
0200
0000
,
0310
2020
0000
0000
,
0000
0000
0000
0000
,
0000
3030
0001
0001
,
1000
0020
0000
1030
0001
0000
0200
0000
,
0310
0000
0000
1000
0000
1000
0000
0001
,
0200
0000
0301
1000
0000
0200
0000
0310
,
0000
0000
0001
0000
0001
0000
1000
0020
,
0000
1030
0001
0000
0100
0000
0010
0000
,
0200
0000
0000
0000
,
0300
0000
0000
0000
0000
0000
0000
0000
0040
4000
0000
0000
0000
0000
0000
0000
,
3030
0000
2020
3030
,
0202
0303
0022
0033
,
2200
0000
3300
0000
0000
1000
0001
0000
,
0200
0000
0310
1000
0000
0001
0000
0100
,
0000
1010
0000
0101
,
0000
0011
0000
1100
,
0000
0110
0000
0011
,
0000
0000
0000
0022
,
0033
0220
0330
2200
,
3300
0000
2002
0000
3003
0000
0000
1000
,
0010
0000
2000
0000
3001
0100
0000
0010
,
0000
0110
0000
0000
0101
0000
0011
0000
,
1100
1010
0101
1001
,
2000
0000
0000
0000
3040
0400
0000
0000
0000
0000
0000
0000
0330
0000
0000
0000
,
0020
0000
2030
0000
3001
0200
0000
0301
,
1000
0001
0020
0000
0031
0000
0000
0000
,
2000
0000
3002
0000
0103
0020
0000
0130
,
0001
1000
0002
0000
0103
0000
0000
0000
,
0002
0000
2003
0000
3001
0020
0000
0031
,
1000
0001
0200
0000
0310
0000
0000
0000
,
2000
0000
3002
0000
1003
0020
0000
1030
,
0001
0100
0020
0000
1030
0000
2002
0000
,
0000
0000
0000
0000
,
0000
0000
0000
0010
,
0000
0000
0000
0000
0000
0000
0000
3003
;

//---------------dance-single - Expert----------------
#NOTES:
     dance-single:
     Ace Of Hearts (2008):
     Challenge:
     10:
     1.000,0.000,0.943,1.000,0.100: // measure 1
0000
0000
0000
0000
,  // measure 2
0000
0000
0000
0000
,  // measure 3
0000
0000
0000
0000
,  // measure 4
0000
0000
0000
0000
,  // measure 5
0000
0000
0000
0000
,  // measure 6
0000
0000
0000
0000
,  // measure 7
0000
0000
0001
0000
2001
0000
3010
0000
0200
0000
0301
0000
2000
3000
1100
0000
,  // measure 8
0000
0000
2100
0000
3002
0000
0103
0120
,  // measure 9
0000
0000
1030
0000
0001
0000
1000
0000
2100
0000
0000
0000
3010
0000
0010
0100
,  // measure 10
0001
0000
2001
0000
3200
0000
1300
1020
,  // measure 11
0000
0000
0130
0000
0001
0000
1000
0000
1200
0000
0000
0000
0310
0000
0010
0001
,  // measure 12
0100
0000
0120
0000
2030
0000
3010
0120
,  // measure 13
0000
1030
0001
1000
2010
0000
0002
0000
,  // measure 14
0010
3000
0200
0003
,  // measure 15
0020
0000
0000
0000
0300
0000
0000
0000
2000
0000
0030
0000
0000
0000
3001
0100
,  // measure 16
0010
0000
0210
0000
0302
0000
1003
1200
,  // measure 17
0000
0000
0310
0000
0001
0000
0100
0000
0120
0000
0000
0000
1030
0000
1000
0010
,  // measure 18
0100
0000
0210
0000
0302
0000
1003
1020
,  // measure 19
0000
0000
0130
0000
0001
0000
0010
0000
0120
0000
0000
0000
0031
0000
0001
1000
,  // measure 20
0010
0000
1020
0000
0230
0000
0301
2001
,  // measure 21
0000
3100
0010
0001
2001
0000
0200
0000
,  // measure 22
0010
0300
0002
3000
,  // measure 23
0200
0000
0000
0000
0000
0000
0003
0000
0000
0000
0000
0000
0340
4000
0000
0000
0000
0000
0000
0000
0000
0000
0000
0000
,  // measure 24
3030
0000
0000
0000
0201
0000
0310
1000
,  // measure 25
1200
0000
0000
0000
0000
0000
0310
0000
0012
0000
0000
0000
0000
0000
0000
0003
,  // measure 26
0101
0000
0000
0000
0000
0001
1000
0000
,  // measure 27
1020
0000
0000
0000
0130
0000
0001
0000
0000
0000
2000
0000
0000
3000
1100
0000
,  // measure 28
0000
0220
0000
0001
,  // measure 29
0330
0022
0000
1000
,  // measure 30
0033
2002
0000
0010
,  // measure 31
3003
0000
0000
0000
0000
0000
2001
0000
0000
0000
0000
0000
3040
0400
0000
0000
0000
0000
0000
0000
0000
0000
0000
0000
,  // measure 32
0330
0000
0200
0301
2000
3100
0020
0032
,  // measure 33
1003
0020
0230
0302
2003
3100
0002
0103
,  // measure 34
1000
0010
0200
0301
2000
3010
0002
0023
,  // measure 35
1030
0002
0023
0130
2000
3001
0200
0310
,  // measure 36
2000
3001
0100
0020
2030
3001
0010
0100
,  // measure 37
1000
0001
0100
0010
0100
0001
0100
1000
,  // measure 38
0100
0001
2000
3100
0020
0031
2000
3010
,  // measure 39
0002
0000
0013
0000
2000
0000
3100
0000
0020
0000
0031
0000
2000
0000
3001
0100
,  // measure 40
0010
0000
2000
3002
0203
0320
2030
3020
,  // measure 41
0032
0013
2000
3200
0310
0002
1003
0100
,  // measure 42
0010
0002
2003
3010
0200
0310
0002
0023
,  // measure 43
2030
3200
0310
0002
1003
0020
0130
0001
,  // measure 44
2000
3010
0001
0020
2030
3001
0010
0100
,  // measure 45
1000
0001
0100
0010
1000
0100
0001
0100
,  // measure 46
1000
0010
0100
0001
2000
3020
0030
0210
,  // measure 47
0000
0301
0000
2001
0000
3100
0000
0110
,  // measure 48
0000
0000
0000
0010
0011
0001
1000
0000
,  // measure 49
1010
0000
0000
0010
0110
0100
0001
0000
,  // measure 50
1001
0000
1000
0100
0010
0002
2003
3010
,  // measure 51
0200
0301
2000
3020
0130
0002
1003
2100
,  // measure 52
0000
3001
0101
0000
0100
0100
0110
0000
,  // measure 53
0010
0000
1010
0000
1000
1000
1001
0000
,  // measure 54
0001
0000
0011
0000
0010
0010
0220
0030
,  // measure 55
2000
0300
0002
0000
3003
0000
1000
0000
,  // measure 56
0010
0100
0102
0000
0000
1003
1100
0000
,  // measure 57
1000
0000
0001
0100
0010
0000
1010
0000
,  // measure 58
1000
0001
0100
0001
0010
0000
0210
0000
,  // measure 59
1300
0001
0000
2000
3000
1010
0000
0000
,  // measure 60
0202
0000
1000
0303
,  // measure 61
2002
0000
0010
3003
,  // measure 62
2200
0000
0001
3300
,  // measure 63
0200
0000
0000
0000
0000
0000
0340
0004
0000
0000
0000
0000
0000
0000
0000
0000
0000
0000
0033
0000
0000
0000
0000
0000
,  // measure 64
2001
0000
3020
0000
0130
0102
0000
1003
,  // measure 65
0100
0000
0010
0000
0012
0000
0000
0000
1003
0000
1000
0010
0100
0000
0120
0000
,  // measure 66
0000
2030
0000
3001
0021
0000
0130
1000
,  // measure 67
0010
0000
0210
0000
0000
0000
0301
0000
0001
1000
0010
0000
0210
0000
0000
0000
,  // measure 68
0302
0000
1003
1020
0000
0130
0001
1000
,  // measure 69
2100
0000
0000
0000
3002
0000
0000
0003
0201
0000
0000
0000
0000
0000
0000
0000
,  // measure 70
0010
0000
1000
0000
,  // measure 71
0001
0000
0000
0000
0300
0000
0001
0010
0100
0000
0000
0000
1200
0000
0000
0000
,  // measure 72
0320
0000
0031
2001
0000
3010
0100
0001
,  // measure 73
0021
0000
0000
0000
0130
0000
0100
1000
0001
0000
0102
0000
0000
0000
0023
0000
,  // measure 74
0000
0031
0201
0000
0310
0100
0001
2001
,  // measure 75
0000
0000
3100
0000
0100
1000
0001
0000
0201
0000
0000
0000
0320
0000
0000
0000
,  // measure 76
1030
2100
0000
3001
0100
0010
0210
0000
,  // measure 77
0301
0021
0000
0100
,  // measure 78
0000
1000
0000
0001
,  // measure 79
0030
0000
0001
1000
0010
0000
0000
0000
0200
0000
0000
0300
0200
0000
0000
0000
,  // measure 80
0301
0000
2000
0000
0000
3000
2000
0000
3002
0000
0000
0000
0203
0000
0000
0000
,  // measure 81
0320
0000
0130
0001
0010
0000
0200
0000
0000
0300
0200
0000
0000
0000
1300
0000
,  // measure 82
0002
0000
0000
0003
0001
0000
0020
0000
0000
0000
0230
0000
0000
0000
0310
0000
,  // measure 83
0100
1000
0010
0000
2000
0000
0000
3000
2000
0000
0000
0000
3001
0000
0020
0000
,  // measure 84
0000
0130
2000
0000
3200
0000
0320
0000
,  // measure 85
0032
2003
0400
0000
,  // measure 86
0000
0000
0000
3000
0040
0000
0000
0000
,  // measure 87
0330
0000
0002
0000
,  // measure 88
0200
0000
2000
0000
,  // measure 89
0010
0000
3303
0000
0000
0002
1003
0000
,  // measure 90
1200
0000
0000
0000
0310
0000
0001
0000
0000
0000
2000
0000
0000
3000
1100
0000
,  // measure 91
0000
1110
0000
1011
,  // measure 92
0000
0111
0000
1011
,  // measure 93
0000
1110
0000
1101
,  // measure 94
0000
0000
0000
2000
,  // measure 95
0000
0200
0000
0020
,  // measure 96
0000
0000
0001
0000
3330
0000
0000
2000
,  // measure 97
3010
0000
0210
0000
0301
1000
0000
0020
,  // measure 98
0000
0030
0110
0000
0000
0000
0000
0000
0202
0000
0000
0000
1000
0000
0300
0000
,  // measure 99
2000
0000
0010
0003
3100
0000
1101
0000
,  // measure 100
2100
0000
0000
0000
0000
0000
3004
4000
0000
0000
0000
0000
0000
0000
0000
0000
0000
0000
3003
0000
0000
0000
0000
0000
,  // measure 101
1020
0000
0230
0000
0301
0021
0000
0130
,  // measure 102
1000
0000
0010
0000
0210
0000
0000
0000
0301
0000
0001
1000
0010
0000
0000
0000
,  // measure 103
2010
0000
3002
0000
0103
0120
0000
1030
,  // measure 104
0001
0000
0010
0000
0210
0000
0000
0000
1300
0000
1000
0010
0100
0000
0000
0000
,  // measure 105
0102
0000
2003
0000
3100
0120
0000
1030
,  // measure 106
0001
0000
0100
0000
0120
0000
0000
0000
1030
0000
1000
0100
0010
0000
0000
0000
,  // measure 107
0012
0000
0203
0000
0310
2010
0000
3001
,  // measure 108
0010
0100
0120
0000
0031
0000
0102
0000
,  // measure 109
1000
0010
0100
1000
,  // measure 110
0010
1000
0200
1010
,  // measure 111
0000
0000
0000
0000
0000
0000
0000
0303
;

//---------------dance-single - Medium----------------
#NOTES:
     dance-single:
     Ace Of Hearts (2008):
     Medium:
     6:
     0.473,0.000,0.400,0.619,0.014:
0000
0000
0000
0000
,
0000
0000
0000
0000
,
0000
0000
0000
0000
,
0000
0000
0000
0000
,
0000
0000
0000
0000
,
0000
0000
0000
0000
,
0000
0000
0000
0000
,
0000
0000
0001
0000
0001
0000
0000
0200
,
0000
0301
1000
0001
,
0000
0000
0100
0000
0100
0000
0000
0020
,
0000
1030
0001
1000
,
0000
0000
0001
0000
0001
0000
0000
0200
,
0000
0301
1000
0001
,
0200
0000
0000
0000
,
0000
0000
0300
0000
,
0000
0000
0001
0000
0001
0000
0000
2000
,
0000
3010
0100
0010
,
0000
0000
1000
0000
1000
0000
0000
0020
,
0000
1030
0001
1000
,
0000
0000
0001
0000
0001
0000
0000
0200
,
0000
0301
1000
0001
,
2000
0000
0000
0000
,
0000
0000
3000
0000
,
0000
0000
0002
0000
,
0023
0000
0230
0000
,
1300
0000
0000
0000
0000
0001
1000
0000
,
0002
0000
0000
1003
0000
0001
0000
1000
,
0000
1001
0000
1001
,
0000
0110
0000
0110
,
0000
1001
0000
1001
,
0000
2000
0200
0000
,
3300
0000
1000
0000
1000
0000
0000
0020
,
0000
1030
0001
1000
,
0000
0000
0010
0000
0010
0000
0000
2000
,
0000
3001
1000
0000
,
0200
0000
0000
0000
,
0300
0000
0000
0000
,
0000
1000
1000
0000
,
0001
0000
0010
0100
,
0000
1000
0001
0000
,
0020
0000
0000
0031
0000
0000
0000
0000
,
0000
1000
0100
0000
,
2000
0000
0000
3001
0000
0000
0000
0000
,
2000
0000
0000
0000
,
3000
0000
0000
0000
,
0000
0000
0000
0000
0020
0000
0000
1030
,
0000
0000
0000
0001
0000
0000
0000
1001
,
0000
0000
0002
0000
,
0023
0000
0000
0000
0230
0000
0000
0300
,
1100
0000
0000
0000
0000
1000
0001
0000
,
2000
0000
0000
3010
0000
1000
0000
0001
,
0000
0101
0000
0101
,
0000
1010
0000
1010
,
0000
1001
0000
1001
,
0002
0200
0303
0000
,
0000
0002
0000
2003
,
0000
0000
3020
0000
0000
0030
0110
0000
,
0000
0000
0000
0010
1000
0000
0002
0000
,
0000
1003
0000
0001
0000
0100
0000
0000
,
0101
0000
0101
0000
,
1010
0000
1010
0000
,
1100
0000
1100
0000
,
0000
0000
0000
0000
4000
0004
0000
0000
0000
0000
0000
0000
3003
0000
0000
0000
,
0001
0000
0001
0000
0000
2000
0000
0000
,
3010
0000
1000
0000
0010
0000
0000
1000
,
0000
1000
0000
0000
0002
0000
0000
1003
,
0000
0100
0000
1000
0000
0000
0010
0000
,
0010
0000
0000
2000
0000
0000
3001
0000
,
1000
0010
0200
0000
,
0000
0000
0000
0000
,
0300
0000
0000
0001
,
1000
0000
0000
0020
0000
0000
1030
0000
,
0001
0000
1000
0000
0000
0010
0000
1000
,
0000
0000
0002
0000
0000
1003
0000
0100
,
0000
1000
0000
0000
0001
0000
0001
0000
,
0000
2000
0000
0000
3010
0000
1000
0000
,
0001
0200
0000
0000
,
0000
0000
0000
0300
,
0000
0000
0001
0001
,
0000
2000
0000
0000
3001
0000
0100
0000
,
0001
0000
0000
1000
0000
1000
0000
0000
,
0020
0000
0000
1030
0000
0001
0000
1000
,
0000
0000
0001
0000
0001
0000
0000
0020
,
0000
0031
1000
0001
,
0200
0000
0000
0000
,
0300
0000
0000
0000
0000
0000
0000
0000
0040
0400
0000
0000
0000
0000
0000
0000
,
0330
0000
1010
0000
,
0110
0000
0101
0000
,
1001
0000
0000
0000
0000
1000
0001
0000
,
2000
0000
0000
3010
0000
1000
0000
0001
,
0000
0101
0000
0101
,
0000
1010
0000
1010
,
0000
1100
0000
1100
,
0000
0000
0000
0022
,
0033
0220
0330
2200
,
3300
0000
2002
0000
3003
0000
0000
1000
,
0001
0000
0020
0000
0000
0031
0000
1000
,
0000
0001
0000
0000
0101
0000
0110
0000
,
1010
1001
1100
0011
,
0000
0000
0000
0000
0004
0400
0000
0000
0000
0000
0000
0000
0303
0000
0000
0000
,
0001
0000
0002
0000
0000
2003
0000
0000
,
3001
1000
0001
0000
,
0100
0000
0200
0000
0000
0302
0000
0000
,
1003
0010
1000
0000
,
0010
0000
0020
0000
0000
2030
0000
0000
,
3001
0100
0001
0000
,
0010
0000
0020
0000
0000
0032
0000
0000
,
1003
0001
2000
0200
,
0000
0000
0000
0000
,
0000
0000
3300
2002
,
0000
0000
0000
0000
0000
0000
0000
3003
;

//---------------dance-single - Easy----------------
#NOTES:
     dance-single:
     Ace Of Hearts (2008):
     Easy:
     4:
     0.268,0.000,0.181,0.305,0.010:
0000
0000
0000
0000
,
0000
0000
0000
0000
,
0000
0000
0000
0000
,
0000
0000
0000
0000
,
0000
0000
0000
0000
,
0000
0000
0000
0000
,
0000
0000
0000
0000
,
0000
0000
0001
0000
,
0001
0000
0001
0000
,
0000
0000
1000
0000
,
1000
0000
1000
0000
,
0000
0000
0010
0000
,
0010
0000
0010
0000
,
0200
0000
0000
0000
,
0000
0000
0300
0000
,
0000
0000
0001
0000
,
0001
0000
0001
0000
,
0000
0000
0010
0000
,
0010
0000
0010
0000
,
0000
0000
0100
0000
,
0100
0000
0100
0000
,
2000
0000
0000
0000
,
0000
0000
3000
0000
,
0000
0000
0010
0000
,
0010
0000
0010
0000
,
0010
0000
0000
2002
,
0000
0000
0000
0000
,
3003
0100
0000
0100
,
0000
0100
0000
0100
,
0000
0100
0000
0100
,
0000
0220
0000
0000
,
0330
0000
0001
0000
,
0001
0000
0001
0000
,
0000
0000
1000
0000
,
1000
0000
1000
0000
,
0200
0000
0000
0000
,
0300
0000
0000
0000
,
0000
0000
1000
0000
,
1000
0000
1000
0000
,
0000
0000
0100
0000
,
0100
0000
0100
0000
,
0000
0000
0010
0000
,
0010
0000
0010
0000
,
0002
0000
0000
0000
,
0003
0000
0000
0000
,
0000
0000
1000
0000
,
1000
0000
1000
0000
,
0001
0000
1000
0000
,
1000
0000
1000
0000
,
1000
0000
0000
2002
,
0000
0000
0000
0000
,
3003
0100
0000
0100
,
0000
0100
0000
0100
,
0000
0100
0000
0100
,
0001
0001
0000
0000
,
0000
0010
0000
0010
,
0000
0010
0000
0010
,
0000
0000
0220
0000
,
0000
0000
0000
0330
,
0001
0000
0001
0000
,
0001
0000
0001
0000
,
0001
0000
0001
0000
,
1000
2000
0000
3000
,
0000
0001
0000
0001
,
0000
0001
0000
0000
,
0000
0100
0000
0000
0000
0100
0000
0000
,
0000
0100
0000
0000
0000
0000
0000
0000
,
0010
0000
0010
0000
,
0010
0000
2000
0000
,
0000
0000
0000
0000
,
3000
0000
0000
0000
,
0010
0000
0010
0000
,
0010
0000
0000
0000
0000
0000
0000
1000
,
0000
0000
0000
1000
0000
0000
0000
1000
,
0000
0000
0000
0001
,
0000
0001
0000
0001
,
0000
0200
0000
0000
,
0000
0000
0000
0300
,
0000
0000
0000
0001
,
0000
0002
0000
0000
,
0003
0000
0000
0000
0000
1000
0000
0000
,
0000
2000
0000
0000
0000
0000
0000
3000
,
0000
0000
0010
0000
,
0020
0000
0030
0000
,
0200
0000
0300
0000
,
0004
4000
0000
0000
0000
0000
0000
0000
0000
0000
0000
0000
0000
0000
0000
0000
,
3003
0000
0002
0000
,
2003
0000
3002
0000
,
0013
0000
0000
0220
,
0000
0000
0000
0000
,
0330
1001
0000
1001
,
0000
1001
0000
1001
,
0000
1001
0000
1001
,
0000
0000
0000
2000
,
0000
3002
0000
2003
,
0000
3100
0000
0000
,
2002
0000
0000
0000
,
0000
3003
0110
0110
,
0110
0110
0110
0110
,
0004
4000
0000
0000
0000
0000
0000
0000
0000
0000
0000
0000
0000
0000
0000
0000
,
3003
0001
0000
0001
,
0000
0001
0000
0000
,
0000
1000
0000
1000
,
0000
1000
0000
0000
,
0000
0010
0000
0010
,
0000
0010
0000
0000
,
0000
0100
0000
0100
,
0000
0100
0000
0002
,
0000
0000
0000
0000
,
0000
0000
0003
2002
,
0000
0000
0000
0000
0000
0000
0000
3003
;

//---------------dance-single - Novice----------------
#NOTES:
     dance-single:
     Ace Of Hearts (2008):
     Beginner:
     2:
     0.166,0.000,0.076,0.286,0.005:
0000
0000
0000
0000
,
0000
0000
0000
0000
,
0000
0000
0000
0000
,
0000
0000
0000
0000
,
0000
0000
0000
0000
,
0000
0000
0000
0000
,
0000
0000
0000
0000
,
0000
0000
0000
0000
,
0001
0000
0000
0000
,
0000
0000
0000
0000
,
0001
0000
0000
0000
,
0000
0000
0000
0000
,
0002
0000
0000
0000
,
0003
0000
0000
0000
,
0000
0000
0000
0000
,
0000
0000
0000
0000
,
1000
0000
0000
0000
,
0000
0000
0000
0000
,
1000
0000
0000
0000
,
0000
0000
0000
0000
,
2000
0000
0000
0000
,
3000
0000
0000
0000
,
0000
0000
0000
0000
,
0000
0000
0020
0000
,
0000
0000
0000
0000
,
0030
0000
0000
0000
,
0200
0000
0000
0300
,
0000
1001
0000
0000
,
0000
1001
0000
0000
,
0000
1001
0000
0000
,
0000
0220
0000
0330
,
0000
0000
0000
0000
,
0001
0000
0000
0000
,
0000
0000
0000
0000
,
0100
0000
0000
0000
,
0200
0000
0300
0000
,
0000
0000
0000
0000
,
0000
0002
0000
0000
,
0003
0000
0000
0000
,
0000
1000
0000
1000
,
0000
0000
0000
0000
,
0000
0000
0001
0000
,
0001
0000
0000
0000
,
0020
0000
0030
0000
,
0000
0000
0000
0000
,
0000
0000
0200
0000
,
0300
0000
0000
0000
,
0001
0000
2000
0000
,
0000
0000
0000
0000
,
3000
0000
0000
0000
,
0002
0000
0000
0003
,
0000
0110
0000
0000
,
0000
0110
0000
0000
,
0000
0110
0000
0000
,
2000
0000
0000
3000
,
0000
0010
0000
0010
,
0000
0010
0000
0010
,
0000
0000
0000
2000
,
0000
0000
3000
0000
,
0100
0000
0100
0000
,
0100
0000
0100
0000
,
0100
0000
0100
0000
,
2000
0000
3000
0000
,
0000
0000
0000
0001
,
0000
0000
0000
0000
,
0000
0000
0000
0000
0000
0001
0000
0000
,
0000
0000
0000
0000
,
0000
0000
0001
0000
,
0000
0000
0200
0000
,
0000
0000
0000
0000
,
0300
0000
0000
0000
,
0000
0000
0010
0000
,
0000
0000
0000
0000
,
0000
0000
0000
0010
0000
0000
0000
0000
,
0000
0000
0000
0000
,
0000
0010
0000
0000
,
0000
2000
0000
0000
,
0000
0000
0000
3000
,
0000
0000
0002
0000
,
0000
0000
0000
0000
,
0003
0000
0000
2000
0000
0000
0000
0000
,
0000
0000
0000
0000
0000
0000
0000
3000
,
0000
0020
0000
0000
,
0000
0000
0000
0030
,
1000
0000
0000
0000
,
0004
4000
0000
0000
0000
0000
0000
0000
0000
0000
0000
0000
0000
0000
0000
0000
,
3003
0000
0001
0000
,
0001
0000
0001
0000
,
0001
0000
0000
2000
,
0000
0000
0000
3000
,
0000
0010
0000
0010
,
0000
0010
0000
0010
,
0000
0010
0000
0010
,
0000
0000
0000
1000
,
0000
1000
0000
1000
,
0000
1000
0000
0000
,
0020
0000
0000
0000
,
0030
0000
0100
0100
,
0100
0100
0100
0100
,
0002
0000
0003
0000
,
0000
0000
0000
2000
,
0000
0000
3000
0000
,
0000
0000
0000
0002
,
0000
0000
0003
0000
,
0000
0000
0000
2000
,
0000
0000
3000
0000
,
0000
0000
0000
0020
,
0000
0000
0030
2000
,
0000
0000
3000
0000
,
0000
0000
0000
2002
,
0000
3003
0000
0000
;
