#TITLE:Kaze Ni Nare;
#SUBTITLE:;
#ARTIST:JAM Project;
#TITLETRANSLIT:;
#SUBTITLETRANSLIT:;
#ARTISTTRANSLIT:;
#GENRE:J-Pop;
#CREDIT:Ace Of Hearts;
#BANNER:Kaze Ni Nare - Bn.png;
#BACKGROUND:Kaze Ni Nare - Bg.jpg;
#LYRICSPATH:Kaze Ni Nare Lyrics.lrc;
#CDTITLE:Ace Of Hearts.png;
#MUSIC:Kaze Ni Nare.ogg;
#OFFSET:0.010;
#SAMPLESTART:72.650;
#SAMPLELENGTH:22.000;
#SELECTABLE:YES;
#BPMS:0.000=159.900;
#STOPS:;
#BGCHANGES:0.000=Kaze Ni Nare Video.avi=1.000=0=0=1=====,
99999=-nosongbg-=1.000=0=0=0 // don't automatically add -songbackground-
;
#KEYSOUNDS:;

//---------------dance-single - Hard----------------
#NOTES:
     dance-single:
     Ace Of Hearts (2008):
     Hard:
     8:
     0.527,0.000,0.404,0.797,0.021:
0000
0000
0000
0000
,
0000
0000
0000
0000
,
0000
0000
0000
0000
,
0000
0000
0000
0000
2000
0000
0000
3002
,
0000
0000
1003
0200
0000
0000
0000
0000
,
0000
1300
0001
0100
0002
0000
0000
2003
,
0000
0000
3100
0020
0000
0000
0000
0000
,
0000
0000
0000
0000
0030
0000
0001
1000
,
0001
0100
0000
0101
0000
1010
0000
2100
,
0000
3001
1000
0100
0120
0000
0031
0100
,
0000
0001
0000
0022
0000
0033
0000
0001
,
1000
0100
0010
0002
0000
0003
0000
1000
,
0010
0100
0001
0040
0000
0000
0000
0000
,
0000
0000
0000
0030
0100
0100
1000
0001
,
0010
0200
0000
0300
0000
1000
1000
0010
,
0100
0010
0100
0001
2000
0000
3001
0001
,
0001
0000
1001
0000
2000
0000
3100
0020
,
0000
0230
0000
2300
0000
3002
0000
1003
,
0100
1000
0020
0000
0130
0001
0000
1000
,
0100
0020
0000
0032
0000
1003
0000
0010
,
0100
0001
1001
0000
1000
0000
0020
0130
,
0000
0101
0000
0100
0000
0110
0000
0010
,
1000
0001
0021
0000
0000
0130
0000
1000
,
0000
0004
0000
0000
0000
0003
0011
0000
,
0110
0000
1100
0000
1000
0020
0000
0130
,
0000
0020
0000
1030
0000
0200
0000
0310
,
0000
0000
0002
0000
1003
0200
0000
0310
,
0000
0004
0000
0000
0003
0000
0000
0001
,
1000
0100
0220
0000
0300
0002
0030
0003
,
2002
0000
0003
0200
0000
3000
0320
0000
,
0032
0003
2002
0003
0000
0020
3000
0000
,
0230
0000
0000
0000
0000
0000
0300
0000
0000
0001
0100
0001
,
1000
0000
0010
0000
1000
0000
0001
0000
0000
0000
0000
0000
1000
0000
0000
0100
0000
0000
0020
0000
0000
0031
0000
0000
,
0000
1000
0000
1000
0000
0010
0000
0010
,
0100
0001
0020
0000
0031
1000
0000
1000
,
0010
4000
0000
0000
3000
0000
1010
0000
,
0110
0000
0101
0000
0001
1000
0010
0200
,
0000
0310
0000
1000
0000
0002
0000
1003
,
0010
0100
0020
0000
1030
0002
0000
1003
,
0000
0040
0000
0000
0000
0030
0110
0000
,
1001
0000
0110
0000
1001
0000
0001
0200
,
0300
0110
0000
0010
0000
1010
0000
2000
,
0000
3000
1002
0000
0103
0010
0000
1000
,
0000
0400
0000
0000
0000
0300
0000
1000
,
0010
0100
0202
0300
0000
0020
0003
0030
,
0220
0030
0000
2300
0000
3000
1020
0000
,
0230
0300
0202
0003
0000
0020
0300
0000
,
2000
0030
0000
0002
3000
0003
0201
0000
,
0320
0000
0030
0000
1000
0001
0100
0010
,
0000
1010
0000
1000
0000
1200
0000
0310
,
0001
1000
1020
0000
0130
0002
0000
0103
,
0000
0020
0000
0000
0030
1000
0010
0100
,
0001
2000
0000
3000
0000
0001
0010
0100
,
1000
0040
0000
0000
0000
0000
0000
0000
,
0030
0000
0000
0000
0100
0001
1000
0010
,
0000
0110
0000
0100
0000
0101
0000
0001
,
0000
1000
0020
0000
0130
0001
0000
1000
,
0000
0004
0000
0000
0003
1000
0100
1000
,
0001
0200
0000
0300
0000
0001
1000
0010
,
1000
0004
0000
0000
0000
0000
0000
0000
,
0003
0000
0202
0303
,
2020
0030
3001
1002
0000
0200
0000
0000
,
0000
0000
0303
0000
;

//---------------dance-single - Expert----------------
#NOTES:
     dance-single:
     Ace Of Hearts (2008):
     Challenge:
     9:
     0.883,0.000,0.652,1.000,0.160: // measure 1
0000
0000
0000
0000
,  // measure 2
0000
0000
0000
0000
,  // measure 3
0000
0000
0000
0000
,  // measure 4
0000
0000
0000
0000
0020
0000
0000
2030
,  // measure 5
0000
0000
3002
0203
0000
0000
0000
0000
,  // measure 6
0000
0302
0203
0302
2003
0000
0000
3200
,  // measure 7
0000
0000
2300
3020
0000
0000
0000
0000
,  // measure 8
0000
0030
1010
0000
0101
0000
0001
1000
,  // measure 9
2100
3001
0000
0201
0000
0310
0000
0140
,  // measure 10
0000
1030
0001
0010
0120
0130
1000
0001
,  // measure 11
0100
0010
1000
2200
0300
3001
0001
0100
,  // measure 12
0010
1000
0001
0201
0000
0010
0310
1000
,  // measure 13
0001
1000
0002
0040
0000
0000
0000
0000
,  // measure 14
0000
0000
0003
0030
0110
0100
0010
0001
,  // measure 15
1000
0200
0000
1300
1001
0001
0010
0100
,  // measure 16
1000
0001
0010
0001
0400
0000
0301
0010
,  // measure 17
0110
0000
0000
0000
2100
0000
0000
0000
0M02
0000
3000
0000
M023
0000
2000
000M
,  // measure 18
0030
0000
0002
00M0
3000
0000
0200
M000
0003
0000
2000
000M
0300
0000
3001
0000
,  // measure 19
0100
0010
1010
1000
0002
0203
0300
0010
,  // measure 20
1000
1200
0000
0320
0001
0031
1001
1000
,  // measure 21
0010
0100
0101
0100
0002
1003
0200
2300
,  // measure 22
3010
0200
0301
2000
3100
0020
0031
2000
,  // measure 23
3020
0230
0302
0013
0001
2000
3010
0200
,  // measure 24
0301
0040
0000
0001
0031
0001
0022
0033
,  // measure 25
0220
0330
2200
3300
2000
3020
0031
0020
,  // measure 26
1030
0200
0310
0002
0103
2000
3100
0002
,  // measure 27
1003
0100
0002
0103
2000
3002
0103
0020
,  // measure 28
1030
0000
0001
0000
0100
0001
1000
0000
0001
0100
0001
1000
0010
0100
0001
1000
,  // measure 29
0100
1000
1020
M000
0130
0102
0M00
0013
,  // measure 30
0210
00M0
1300
2001
000M
3010
0120
0000
,  // measure 31
1030
M000
2010
00M0
3001
2001
000M
0100
,  // measure 32
0200
0000
0000
0000
0000
0000
0300
0000
0000
3001
0000
0000
0101
0000
0000
0000
0000
0000
0001
0000
0010
0000
0100
0000
,  // measure 33
1000
0000
0000
0000
0010
0000
0000
0000
0100
0000
0000
0000
0001
0000
0000
0000
0000
0000
0000
0000
0000
0000
0000
0000
0102
0000
0000
0000
0000
0000
2003
0000
0000
0000
0000
0000
3200
0000
0000
000M
0000
0000
0020
0000
0000
M000
0000
0000
,  // measure 34
0300
0000
0002
0M00
0030
0000
0200
00M0
0003
0000
2000
000M
0300
0000
3001
0M00
,  // measure 35
0010
1000
1100
1000
0020
0230
0301
2000
,  // measure 36
3002
0403
0000
0010
0310
0010
1020
1030
,  // measure 37
0001
1000
1020
0130
0002
1003
0020
0230
,  // measure 38
0301
0020
1030
0020
0031
2000
3001
0200
,  // measure 39
2300
3200
0302
1003
0200
0320
0031
2000
,  // measure 40
3001
0040
0000
0100
0130
0100
2200
3300
,  // measure 41
2002
3003
0202
0303
0002
1003
0020
0230
,  // measure 42
0301
2000
3100
0002
0103
2000
3001
0200
,  // measure 43
0310
1000
0200
0301
0200
2300
3001
0200
,  // measure 44
0310
0000
4000
0000
3001
0100
0001
0000
1000
0100
0010
0001
1000
0010
0100
0001
,  // measure 45
1000
0100
0120
0M00
0031
2001
000M
3010
,  // measure 46
0210
00M0
0301
1002
M000
0103
0120
0M00
,  // measure 47
1030
0000
2100
0M00
3001
0201
000M
0310
,  // measure 48
2010
00M0
3001
0021
000M
0130
4100
0000
,  // measure 49
3010
0000
0202
0303
1001
1000
1200
0310
,  // measure 50
0000
0120
0000
0031
0000
4001
0000
3010
,  // measure 51
0100
0001
0021
0130
1000
1002
0000
0103
,  // measure 52
0010
0240
0300
1030
1000
1000
0020
0130
,  // measure 53
0001
2000
0000
3100
0100
1000
2010
3001
,  // measure 54
2000
0000
0040
0000
0000
0000
0000
0000
0000
0000
0000
0000
0000
3000
1030
0001
,  // measure 55
1000
0100
0010
0100
2000
0000
3000
0000
1001
0000
0001
0000
0201
0000
0310
0000
,  // measure 56
1000
2001
3100
0020
0031
2001
3010
0200
,  // measure 57
0301
0100
0120
1030
0002
0023
0130
2000
,  // measure 58
3001
0400
0000
0010
0310
0020
2030
3002
,  // measure 59
0023
0230
0000
1300
1000
0002
0023
0230
,  // measure 60
2300
0000
3004
0000
0000
0000
1003
0100
1000
0010
0100
0001
1000
0000
0000
0000
,  // measure 61
1100
0000
0000
0000
1001
0000
0000
0000
0201
0000
0310
1000
0001
0000
0100
0000
,  // measure 62
0120
1030
0001
0012
0000
2000
0000
0000
,  // measure 63
0000
0000
3003
0000
;

//---------------dance-single - Medium----------------
#NOTES:
     dance-single:
     Ace Of Hearts (2008):
     Medium:
     6:
     0.371,0.000,0.010,0.456,0.005:
0000
0000
0000
0000
,
0000
0000
0000
0000
,
0000
0000
0000
0000
,
0000
0000
0000
0000
0002
0000
0000
2003
,
0000
0000
3001
0200
0000
0000
0000
0300
,
0000
0001
1000
0000
2000
0000
0000
3002
,
0000
0000
0103
0020
0000
0000
0000
0000
,
0000
0000
0030
0000
0000
0000
1000
0001
,
1000
0000
0000
0010
0000
0010
0000
0010
,
0000
0100
0001
0000
1000
0000
0100
1000
,
0000
1000
0000
0002
0000
0003
0000
1000
,
0100
0000
1000
0200
0000
0300
0000
1000
,
0010
0000
1000
0020
0000
0000
0000
0000
,
0000
0030
0000
0000
1000
0001
1000
0000
,
0001
0200
0000
0300
0001
1000
0001
0000
,
1000
0000
0100
0000
1000
0000
0001
0010
,
0001
0000
0000
0000
1000
0000
0001
0100
,
0000
0001
0000
0001
0000
0002
0000
1003
,
0010
0000
2000
0000
3001
0100
0000
0001
,
0000
2000
0000
0000
3000
0000
0100
0000
,
0100
0000
0100
0000
1000
0000
0001
0100
,
0000
0001
0000
1000
0000
0001
0000
1000
,
0010
0000
0200
0000
0000
0301
0000
1000
,
0000
0020
0000
0000
0030
0000
1000
0000
,
1000
0000
1000
0000
0001
1000
0000
0100
,
0000
1000
0000
0001
0000
1000
0000
0100
,
0000
0000
1000
0000
0001
0100
0000
0010
,
0000
0200
0000
0000
0000
0300
0000
0001
,
1000
0000
0002
0000
0000
0203
0000
0000
,
0320
0000
0000
0230
0000
0000
0301
0000
,
1000
0000
0002
0000
0000
0023
0000
0000
,
0230
0000
0000
0000
0000
0000
0000
0000
0300
0000
0000
0000
4000
0004
0000
0000
,
0000
0000
3003
0000
1000
0000
0001
0100
,
0000
0001
0000
1000
0000
0100
0000
1000
,
0001
0000
0020
0000
0031
1000
0000
0001
,
0000
0200
0000
0000
0300
0000
0010
0000
,
0010
0000
0010
0000
1000
0000
0001
0100
,
0000
0001
0000
1000
0000
0100
0000
1000
,
0001
0000
1000
0000
0001
0100
0000
0001
,
0000
0020
0000
0000
0030
0000
0001
0000
,
0001
0000
0001
0000
1000
0000
0001
0100
,
0000
0010
0000
0010
0000
0100
0000
0100
,
0000
0000
0001
0000
1000
0100
0000
1000
,
0000
0002
0000
0000
0003
0000
0000
1000
,
0001
0000
0020
0000
0000
0230
0000
0000
,
2300
0000
0000
3002
0000
0000
1003
0000
,
0100
0000
2000
0000
0000
3002
0000
0000
,
0203
0000
0000
0320
0000
0000
0230
0000
,
0301
0000
0000
0000
1000
0001
0100
0000
,
0000
0010
0000
1000
0000
0010
0000
1000
,
0001
0000
2000
0000
3001
0100
0000
0001
,
0000
0020
0000
0000
0030
0001
0100
0000
,
0001
0200
0000
0000
0300
0001
0010
0000
,
0001
0040
0000
0000
0000
0000
0030
0000
,
0000
0000
0000
0000
0001
1000
0010
0000
,
0000
1000
0000
0010
0000
0100
0000
0001
,
0000
0100
0002
0000
1003
0001
0000
0100
,
0000
0001
0000
0000
0000
0100
0001
0000
,
0100
0002
0000
0000
0003
1000
0010
0000
,
1000
0040
0000
0000
0000
0000
0030
0000
,
0000
0000
1002
0000
,
0013
0000
0001
0020
0000
0200
0000
0000
,
0000
0000
0330
0000
;

//---------------dance-single - Easy----------------
#NOTES:
     dance-single:
     Ace Of Hearts (2008):
     Easy:
     3:
     0.235,0.000,0.114,0.249,0.000:
0000
0000
0000
0000
,
0000
0000
0000
0000
,
0000
0000
0000
0000
,
0000
0000
0001
0000
,
0001
0000
0001
0000
,
0000
0000
1000
0000
,
1000
0000
1000
0000
,
0000
0000
0000
0010
,
0010
0000
1000
1000
,
1000
0000
0010
0000
,
0010
0000
0010
0000
,
0100
0100
0100
0000
,
0001
0001
0001
0000
,
0000
0000
2000
0000
,
3000
0000
0002
0000
,
0003
0000
0200
0000
,
0300
0000
0001
0001
,
0000
1000
1000
1000
,
0000
0010
0010
0010
,
0000
0100
0000
0001
,
0001
0001
0000
0100
,
0000
0100
0100
0100
,
0000
0010
0000
0010
,
0010
0010
0000
1000
,
1000
1000
0000
0001
,
0000
0100
0100
0100
,
0000
0010
0000
1000
,
1000
1000
0000
0000
,
0000
2002
3003
0000
,
0220
0330
0000
0000
,
0000
0220
0330
0000
,
2002
0000
0000
3003
,
0000
0000
1000
1000
,
0000
0100
0100
0100
,
0000
0010
0000
0010
,
0000
0010
0000
0100
,
0100
0100
0000
1000
,
0000
0001
0001
0001
,
0000
1000
1000
1000
,
0000
0020
0030
0100
,
0100
0100
0000
0001
,
0000
1000
1000
1000
,
0000
0010
0010
0010
,
0000
0200
0000
0300
,
0000
2020
3030
0000
,
0202
0303
0000
0000
,
0000
0022
0033
0000
,
2200
0000
0000
3300
,
0000
0000
0100
0100
,
0000
0010
0010
0010
,
0000
0001
0000
0001
,
0000
0001
0000
0100
,
0100
0100
0000
0010
,
0010
0020
0000
0030
,
0000
0000
1000
1000
,
0000
0100
0100
0100
,
0000
0010
0010
0010
,
0000
0001
0000
1000
,
1000
1000
0000
0010
,
0010
0040
0000
0030
,
0000
0000
1001
0000
,
1001
0000
0000
2002
0000
0000
0000
0000
,
0000
0000
3003
0000
;

//---------------dance-single - Novice----------------
#NOTES:
     dance-single:
     Ace Of Hearts (2008):
     Beginner:
     1:
     0.115,0.000,0.052,0.228,0.000:
0000
0000
0000
0000
,
0000
0000
0000
0000
,
0000
0000
0000
0000
,
0000
0000
0002
0000
,
0000
0000
0003
0000
,
0000
0000
2000
0000
,
0000
0000
3000
0000
,
0000
0000
0001
0000
,
0000
0000
0001
0000
,
0000
0000
0001
0000
,
0000
0000
0000
0000
,
1000
0000
0000
0000
,
1000
0000
0000
0000
,
0000
0000
0010
0000
,
0000
0000
0010
0000
,
0000
0000
0010
0000
,
0000
0000
0000
0000
,
0000
1000
0000
1000
,
0000
1000
0000
0000
,
0000
0000
0000
0020
,
0000
0030
0000
0000
,
0000
0100
0000
0100
,
0000
0100
0000
0000
,
0000
0000
0000
0002
,
0000
0003
0000
0000
,
0000
0100
0000
0100
,
0000
0100
0000
0000
,
0000
0000
0000
0000
,
0000
2002
0000
0000
,
3003
0000
0000
0000
,
0000
0220
0000
0000
,
0330
0000
0000
0000
,
0000
0000
0000
0000
,
0000
0001
0000
0001
,
0000
0001
0000
0000
,
0000
0000
0000
0200
,
0000
0300
0000
0000
,
0000
0010
0000
0010
,
0000
0010
0000
0000
,
0000
0000
0000
2000
,
0000
3000
0000
0000
,
0000
0001
0000
0001
,
0000
0001
0000
0000
,
0000
0000
0000
0000
,
0000
0220
0000
0000
,
0330
0000
0000
0000
,
0000
2002
0000
0000
,
3003
0000
0000
0000
,
0000
0000
0002
0003
,
0000
1000
0000
0000
,
0000
1000
0000
1000
,
0000
1000
0000
0002
,
0000
0003
0000
0200
,
0000
0300
0000
0000
,
0000
0000
0020
0030
,
0000
0100
0000
0000
,
0000
0001
0000
0001
,
0000
0001
0000
2000
,
0000
3000
0000
0020
,
0000
0030
0000
0000
,
0000
0000
2002
0000
,
0000
0000
3003
0000
;
