#TITLE:Ike Ike;
#SUBTITLE:;
#ARTIST:Tri-Star;
#TITLETRANSLIT:;
#SUBTITLETRANSLIT:;
#ARTISTTRANSLIT:;
#GENRE:Para-Para;
#CREDIT:Ace Of Hearts;
#BANNER:Ike Ike - bn.png;
#BACKGROUND:Ike Ike - bg.jpg;
#LYRICSPATH:;
#CDTITLE:Ace Of Hearts.png;
#MUSIC:Ike Ike.ogg;
#OFFSET:-6.180;
#SAMPLESTART:57.032;
#SAMPLELENGTH:12.500;
#SELECTABLE:YES;
#BPMS:0.000=156.000;
#STOPS:;
#BGCHANGES:;
#KEYSOUNDS:;

//---------------dance-single - Expert----------------
#NOTES:
     dance-single:
     Ace Of Hearts (2008):
     Challenge:
     10:
     0.804,0.460,0.420,1.000,0.327:
1000
0100
0010
0001
0100
0010
1000
0100
,
0010
0001
0010
0001
0010
0001
0010
0100
,
1000
0010
0100
0001
0010
0100
1000
0010
,
0100
0010
1000
0010
1000
0010
1000
0010
,
0100
0001
0010
0100
1000
0001
0100
0010
,
1000
0001
0100
0001
0100
0001
0100
0001
,
0100
0010
1000
0001
0010
0100
1000
0010
,
0210
0301
0010
0012
0000
1000
1003
0020
,
0130
0000
0010
0000
1000
0000
0010
0000
0200
0301
0000
2000
3100
0000
0010
0001
,
0010
0000
0100
0000
1000
0000
0010
0000
0200
0301
0000
0002
1003
0000
0100
0010
,
0100
0000
1000
0000
0010
0000
0100
0000
0002
1003
0000
2000
3100
0000
0010
0100
,
0010
0000
0001
0000
0200
0000
0301
0000
2000
0000
0000
3001
0100
0000
0010
0100
,
0010
0000
1000
0000
0100
0000
0010
0000
0002
1003
0000
2000
3010
0000
0100
0001
,
0100
0000
0010
0000
1000
0000
0001
0000
0020
0130
0000
0200
1300
0000
0010
0100
,
0010
0000
1000
0000
0001
0000
0010
0000
0200
1300
0000
2000
3001
0000
1000
0010
,
1000
0000
0010
0000
0100
0000
0001
0000
2001
0000
0000
3001
0000
0000
0011
0000
,
2200
0000
0001
3300
2000
3010
0100
0000
,
0000
0001
0010
0100
2000
3001
0100
0010
,
0200
0300
0101
0000
2000
3001
0101
0000
,
0000
0000
0010
0000
1000
0000
0100
0000
0020
0000
0000
0031
0000
0000
0100
0000
,
0020
0030
1010
0000
0102
0010
1000
0013
,
2100
0010
0001
3010
0000
2000
0010
3010
,
0200
0301
1000
1100
0000
0000
0000
0000
,
0000
0000
2000
0000
3200
0300
0101
0000
0000
0000
0002
0000
0203
0300
1100
0000
,
0000
0000
0000
0000
1020
0000
0000
0200
,
0030
0000
2300
0000
0000
0000
0002
0000
3000
0000
2000
0003
0200
0000
0000
0000
,
3000
0000
0300
0120
0000
1030
0100
0010
,
0001
0001
1000
0010
0200
0000
0002
0300
,
0020
0003
2000
0030
0002
3000
0103
2000
,
0000
3000
1010
0000
0000
0000
0102
0000
0000
0000
1000
0000
1003
0000
0000
0000
,
0000
0000
0000
2100
0000
3010
0200
0301
,
0002
0013
0100
2100
0000
3010
0100
0001
,
2000
0000
0020
0000
3030
0000
0000
0000
0120
0000
0000
2000
0030
0000
0002
0000
,
0010
3003
1000
0000
0100
0010
0100
0000
0120
0000
0130
0010
0100
0000
2100
0000
,
0000
0000
3001
1000
0001
0000
0102
0000
0000
0000
1003
0100
1000
0000
0201
0000
,
0000
0000
0310
0000
0100
0001
0100
0000
2001
0000
3001
0010
0001
0000
2100
0000
,
0000
3001
0100
0010
0002
0000
2000
0003
,
0200
0000
3000
0000
0002
0000
0300
0000
1003
0100
0010
0000
0100
0000
2100
0000
,
0000
0000
3001
0100
0010
0000
0210
0000
0000
0000
0301
1000
0100
0000
2100
0000
,
0000
0000
3001
0000
0100
0010
1000
0000
1200
0000
0310
0000
0002
0000
0003
0000
,
0000
0000
0000
0000
0202
0000
0000
1000
,
0303
0000
0001
0000
1000
0010
0100
0000
0102
0000
0013
0100
1000
0000
2100
0000
,
0000
0000
3010
0100
0001
0000
1002
0000
0000
0000
0103
0010
1000
0000
1020
0000
,
0000
0000
0130
0000
0001
0010
0100
0000
0120
0000
0031
0100
0010
0000
0201
0000
,
0000
0000
0310
0100
0001
0000
2000
0000
0020
0000
3000
0000
0002
0000
0030
0000
,
2000
0000
0003
0000
0200
0000
3000
0000
0301
1000
0100
0000
0010
0000
0012
0000
,
0000
0000
1003
0010
0100
0000
0201
0000
0000
0000
0310
0100
0001
0000
2001
0000
,
0000
0000
3100
0000
0010
0100
1000
0000
0020
0000
0130
0000
0001
0000
0000
0000
,
0000
0000
0000
0000
2002
0000
0000
0010
,
3003
0000
0000
0000
1000
0001
1000
0200
,
0000
0000
0300
0000
0000
0000
0010
0001
1000
0000
0010
0000
0100
0000
0001
0000
,
0200
1300
0000
2000
3100
0000
0001
1000
0100
0000
0010
0000
0001
0000
0100
0000
,
0020
0031
0000
0002
0013
0000
1000
0001
0010
0000
0100
0000
1000
0000
0001
0000
,
0020
1030
0000
2000
3010
0000
0001
0100
0010
0000
1000
0000
0100
0000
1000
0000
,
0200
0301
0000
0002
0103
0000
1000
0010
0100
0000
0001
0000
1000
0000
0010
0000
,
0200
0301
0000
0002
0103
0000
0010
1000
0001
0000
0100
0000
0010
0000
1000
0000
,
0200
0310
0000
0020
0130
0000
1000
0001
0010
0000
0100
0000
1000
0000
0010
0000
,
0200
0310
0000
0020
0130
0000
0001
1000
0001
0000
0010
0000
0100
0000
1000
0000
,
2100
0000
0000
3002
0000
0000
0203
0000
0020
0000
0000
0000
1001
0000
0330
0000
;

//---------------dance-single - Hard----------------
#NOTES:
     dance-single:
     Ace Of Hearts (2008):
     Hard:
     8:
     0.627,0.402,0.068,0.908,0.088:
1000
0000
0001
0100
0001
0000
1000
0001
,
0100
0001
0100
0001
0100
0001
0100
0001
,
1000
0000
0100
0010
0100
0000
0010
0001
,
1000
0010
1000
0010
1000
0010
1000
0010
,
0100
0000
0001
0010
0001
0000
1000
0001
,
1000
0010
1000
0010
1000
0010
1000
0010
,
0100
0000
0001
1000
0001
0000
1000
0001
,
0200
0301
0200
0020
0000
0330
0000
0200
,
0301
0000
1000
0000
0001
0000
1000
0000
0200
0000
0000
1300
0000
0000
2000
0000
,
3001
0000
0100
0000
0001
0000
0100
0000
0020
0000
0000
1030
0000
0000
2000
0000
,
3010
0000
0100
0000
0010
0000
0100
0000
0020
0000
0000
1030
0000
0000
2000
0000
,
3001
0000
0010
0000
0001
0000
0010
0000
0002
0000
0000
0013
0000
0000
0020
0000
,
0130
0000
1000
0000
0100
0000
1000
0000
0002
0000
0000
0103
0000
0000
0020
0000
,
0130
0000
0001
0000
1000
0000
0001
0000
0200
0000
0000
0310
0000
0000
2000
0000
,
3001
0000
0100
0000
0001
0000
1000
0000
0020
0000
0000
0130
0000
0000
0002
0000
,
1003
0000
0010
0000
0100
0000
0001
0000
1000
0000
0000
1000
0000
0000
2000
0000
,
3001
0000
0101
0000
0002
1003
0010
0000
,
0000
0100
0001
1000
0001
0010
0001
1000
,
0200
0000
0310
0000
0010
0100
1000
0000
,
0000
0000
0001
0000
1000
0000
0010
0000
0200
0000
0000
0301
0000
0000
1000
0000
,
0020
0000
0130
0000
0001
0100
0001
0100
,
0010
1000
0010
0100
0000
0001
1000
1000
,
0001
0010
0100
1000
0000
0000
0000
0000
,
0000
2000
3001
0101
0000
0002
1003
1100
,
0000
0000
0000
0000
2000
0000
0000
3020
,
0000
0230
0000
0302
0000
2003
0200
0000
,
3300
0000
0000
1000
0000
0001
1000
0010
,
0100
0100
0001
1000
0002
0000
0023
0000
,
0230
0000
2300
0000
3001
0000
1000
0200
,
0000
0310
0000
0002
0000
1003
0200
0000
,
0300
0000
0000
2000
0000
3010
0100
0001
,
1000
1000
0000
0002
0000
1003
0010
1000
,
0001
0000
0020
0000
0000
0000
0030
0000
0020
0000
0000
0230
0000
0000
1300
0000
,
1001
0001
2000
3001
0200
0310
0100
0002
,
0000
1003
0001
0200
0000
0310
0100
0002
,
0000
1003
0010
0100
0020
1030
0001
0020
,
0000
0130
1000
0001
0002
0000
0023
0000
,
0230
0000
2300
0000
3010
0100
0001
2000
,
0000
3010
0100
0002
0000
1003
0010
0200
,
0000
0301
1000
0010
0100
0100
0200
0000
,
0300
0000
0000
0000
0002
0000
0000
0013
,
0000
0001
1000
0010
0200
0301
1000
0002
,
0000
1003
0010
0200
0000
0301
1000
0020
,
0000
1030
0001
1000
0200
1300
0010
2000
,
0000
3001
0100
0010
2000
0000
3020
0000
,
0230
0000
0302
0000
1003
0010
0100
0002
,
0000
1003
0100
2000
0000
3001
0100
0002
,
0000
0013
0100
0010
0001
0100
0001
0000
,
0000
0000
0000
0000
2002
0000
3003
0110
,
0000
0000
0000
0000
1000
0001
1000
0020
,
0000
0030
0000
0200
0301
1000
0001
1000
,
0200
0000
0000
1300
0000
0000
2000
0000
3010
0000
0100
0000
0010
0000
0100
0000
,
0002
0000
0000
1003
0000
0000
2000
0000
3001
0000
0100
0000
0001
0000
0100
0000
,
0020
0000
0000
0130
0000
0000
0002
0000
1003
0000
0100
0000
1000
0000
0100
0000
,
0020
0000
0000
0031
0000
0000
2000
0000
3010
0000
1000
0000
0010
0000
1000
0000
,
0002
0000
0000
0013
0000
0000
0020
0000
0130
0000
0010
0000
0100
0000
0010
0000
,
0002
0000
0000
0103
0000
0000
0200
0000
0301
0000
1000
0000
0001
0000
1000
0000
,
0020
0000
0000
0130
0000
0000
0002
0000
1003
0000
0010
0000
0100
0000
0001
0000
,
2000
0000
0000
3002
0000
0000
0203
0000
0310
0000
0000
0000
1001
0000
0000
0000
;

//---------------dance-single - Medium----------------
#NOTES:
     dance-single:
     Ace Of Hearts (2008):
     Medium:
     6:
     0.479,0.316,0.020,0.586,0.088:
1000
0000
0001
0100
0001
0000
1000
0100
,
2000
0001
0001
3001
,
0001
0000
0100
0001
0100
0000
0001
1000
,
0002
1000
1000
1003
,
0010
0000
0100
0001
0100
0000
0010
1000
,
0020
0100
0100
0130
,
0001
0000
1000
0010
1000
0000
0001
0000
,
1000
0001
1000
0002
0000
0003
0000
1000
,
0001
0000
0000
0000
0100
0000
0000
0000
0002
0000
0000
1003
0000
0000
0001
0000
,
1000
0000
0000
0000
0010
0000
0000
0000
0200
0000
0000
0310
0000
0000
0010
0000
,
0100
0000
0000
0000
0001
0000
0000
0000
2000
0000
0000
3100
0000
0000
0010
0000
,
0001
0000
0000
0000
1000
0000
0000
0000
0002
0000
0000
0103
0000
0000
0001
0000
,
1000
0000
0000
0000
0010
0000
0000
0000
0200
0000
0000
0301
0000
0000
1000
0000
,
0001
0000
0000
0000
0100
0000
0000
0000
0020
0000
0000
1030
0000
0000
0001
0000
,
1000
0000
0000
0000
0010
0000
0000
0000
0200
0000
0000
0310
0000
0000
0100
0000
,
0001
0000
0000
0000
1000
0000
0000
0000
0001
0000
0000
0001
0000
0000
0001
0000
,
0001
0000
1001
0000
1000
0001
1000
0000
,
0000
0001
0100
0000
0001
1000
0001
0000
,
0200
0000
0301
0000
1000
0010
1000
0000
,
0000
0000
0001
0000
0010
0000
0000
0000
0001
0000
0000
0100
0000
0000
0001
0000
,
2000
0000
3010
0000
1000
0010
1000
0000
,
0001
0100
0001
1000
0000
0001
0100
0000
,
0001
1000
0001
0100
0000
0000
0000
0000
,
0000
0001
0100
0001
0000
1000
0010
1000
,
0000
0000
0000
0000
0002
0000
0000
2003
,
0000
3010
0000
0010
0000
0100
0002
0000
,
0003
0000
0000
0200
0000
0001
0001
0000
,
0310
0100
0002
0023
,
0230
0000
1300
0000
0002
0000
1003
0001
,
0000
0100
0000
0002
0000
1003
0200
0000
,
0300
0000
0000
2000
0000
3001
0100
0000
,
0001
0000
0000
2000
0000
0001
3001
0000
,
0100
0000
0001
0000
0000
0000
0000
0000
0002
0000
0000
2003
0000
0000
3010
0000
,
0100
0000
0001
0000
0001
1000
0001
0200
,
0300
0001
1000
0002
0003
1000
0100
2000
,
3000
0000
0001
0000
0100
0001
0100
0002
,
0003
1000
1000
0000
0002
0000
0023
0000
,
0230
0000
1300
0000
0001
1000
0001
0200
,
0300
0001
1000
0002
0003
1000
0010
2000
,
3000
0001
0100
0000
0010
0100
0010
0000
,
0000
0000
0000
0000
0200
0000
0000
0301
,
0000
0000
1000
0000
0001
0100
0001
2000
,
3000
0010
1000
0020
0030
0100
0001
0200
,
0300
0000
0001
0000
1000
0100
1000
0002
,
0003
0100
0001
0000
2000
0000
3200
0000
,
0320
0000
0031
0000
1000
0001
1000
0020
,
0030
1000
0001
0200
0300
0001
1000
0002
,
0003
1000
0100
0000
1000
0010
2000
0000
,
3000
0000
0000
0000
2000
0000
0000
3010
,
0000
0000
0000
0000
1000
0001
1000
0020
,
0000
0030
0000
0200
0301
0000
0001
0000
,
2000
0000
0000
3010
0000
0000
0100
0000
0100
0000
0000
0000
0001
0000
0000
0000
,
2000
0000
0000
3010
0000
0000
1000
0000
1000
0000
0000
0000
0001
0000
0000
0000
,
0020
0000
0000
0031
0000
0000
1000
0000
1000
0000
0000
0000
0010
0000
0000
0000
,
0200
0000
0000
0301
0000
0000
0010
0000
0010
0000
0000
0000
0001
0000
0000
0000
,
0200
0000
0000
0310
0000
0000
0010
0000
0010
0000
0000
0000
0100
0000
0000
0000
,
0002
0000
0000
1003
0000
0000
0100
0000
0100
0000
0000
0000
1000
0000
0000
0000
,
0002
0000
0000
0013
0000
0000
0001
0000
0001
0000
0000
0000
1000
0000
0000
0000
,
0020
0000
0000
0130
0000
0000
0001
0000
1000
0000
0000
0000
1001
0000
0000
0000
;

//---------------dance-single - Easy----------------
#NOTES:
     dance-single:
     Ace Of Hearts (2008):
     Easy:
     4:
     0.243,0.143,0.010,0.332,0.000:
0001
0000
1000
0000
,
0010
0010
0010
0000
,
1000
0000
0001
0000
,
0100
0100
0100
0000
,
0010
0000
0100
0000
,
0001
0001
0001
0000
,
0100
0000
0001
0000
,
1000
0000
0000
2000
0000
3000
0000
0000
,
0001
0000
0000
0000
0001
0000
0000
0000
0002
0000
0000
0003
0000
0000
0000
0000
,
1000
0000
0000
0000
1000
0000
0000
0000
2000
0000
0000
3000
0000
0000
0000
0000
,
0010
0000
0000
0000
0010
0000
0000
0000
0020
0000
0000
0030
0000
0000
0000
0000
,
0100
0000
0000
0000
0100
0000
0000
0000
0200
0000
0000
0300
0000
0000
0000
0000
,
0001
0000
0000
0000
0001
0000
0000
0000
2000
0000
0000
3000
0000
0000
0000
0000
,
1000
0000
0000
0000
1000
0000
0000
0000
0002
0000
0000
0003
0000
0000
0000
0000
,
1000
0000
0000
0000
1000
0000
0000
0000
0200
0000
0000
0300
0000
0000
0000
0000
,
0010
0010
0020
0000
,
0000
0030
0001
0001
,
0000
1000
1000
0000
,
0002
0003
0100
0100
,
0000
0001
0001
0000
,
0200
0300
0001
0000
,
1000
0000
0000
0100
0000
0000
1000
0000
,
2000
0000
0000
3001
0000
0000
0000
0000
,
0000
2000
0000
3000
0000
0002
0000
0003
,
0000
0000
0000
0000
0100
0000
0000
0100
,
0000
0000
0000
0200
0000
0300
0000
0000
,
0000
0000
0000
0010
0000
0000
0010
0000
,
0010
0000
2000
0000
,
0000
0000
3000
0000
0001
0000
0000
0001
,
0000
0000
0000
0002
0000
0000
0003
0000
,
0000
0000
0000
1000
0000
0000
1000
0000
,
1000
0000
0000
0001
0000
0000
0010
0000
,
0010
0000
0200
0000
,
0300
0000
1000
0000
1000
0000
0000
0001
,
0000
0000
0000
1000
0000
0000
0000
0001
,
0000
0000
0100
0000
0100
0000
0000
0001
,
0000
0000
0010
0010
,
0001
0000
0001
0000
0200
0000
0000
0300
,
0000
0000
0000
0010
0000
0000
0000
2000
,
0000
3001
0001
0000
,
0000
0000
0000
0000
0200
0000
0000
0300
,
0000
0000
0001
0000
0001
0000
0000
0100
,
0000
0000
0000
0010
0000
0000
0000
0100
,
0000
0000
0010
0000
0010
0000
0000
1000
,
0000
0000
0002
0000
,
0000
0000
0003
0000
0020
0000
0000
0030
,
0000
0000
0000
0100
0000
0000
0000
2000
,
0000
0000
0001
3001
,
0000
0000
0000
0000
0200
0000
0000
0300
,
0000
0000
0000
0000
0001
0000
0001
0002
,
0000
0003
0000
0000
1000
0000
1000
0000
,
2000
0000
0000
3000
0000
0000
0000
0000
0010
0000
0000
0000
0010
0000
0000
0000
,
0020
0000
0000
0030
0000
0000
0000
0000
1000
0000
0000
0000
1000
0000
0000
0000
,
2000
0000
0000
3000
0000
0000
0000
0000
0001
0000
0000
0000
0001
0000
0000
0000
,
0002
0000
0000
0003
0000
0000
0000
0000
0100
0000
0000
0000
0100
0000
0000
0000
,
0200
0000
0000
0300
0000
0000
0000
0000
0001
0000
0000
0000
0001
0000
0000
0000
,
0002
0000
0000
0003
0000
0000
0000
0000
1000
0000
0000
0000
1000
0000
0000
0000
,
2000
0000
0000
3000
0000
0000
0000
0000
0010
0000
0000
0000
0010
0000
0000
0000
,
2000
0000
3000
1001
;

//---------------dance-single - Novice----------------
#NOTES:
     dance-single:
     Ace Of Hearts (2008):
     Beginner:
     1:
     0.144,0.086,0.020,0.371,0.000:
0001
0000
0000
0000
,
0002
0000
0003
0000
,
1000
0000
0000
0000
,
2000
0000
3000
0000
,
0010
0000
0000
0000
,
0020
0000
0030
0000
,
0100
0000
0000
0000
,
0200
0000
0000
0300
0000
0000
0000
0000
,
0002
0000
0003
0000
,
2000
0000
3000
0000
,
0020
0000
0030
0000
,
0200
0000
0300
0000
,
0002
0000
0003
0000
,
2000
0000
3000
0000
,
0002
0000
0003
0000
,
0020
0000
0000
0000
,
0030
0000
0001
0000
,
0000
0000
1000
0000
,
0000
0000
0010
0000
,
0000
0000
0100
0000
,
0000
0000
0001
0000
,
0001
0000
0000
0000
,
1000
0000
0000
0000
,
0000
0010
0000
0000
0000
0010
0000
0000
,
0000
0000
1000
0000
,
0000
0000
1000
0000
,
0000
0000
0001
0000
,
0000
0000
0001
0000
,
0000
0000
0100
0000
,
0000
0000
0200
0300
,
0000
0000
0001
0000
,
0001
0000
1000
0000
,
1000
0000
0020
0000
,
0030
0000
0000
0000
2000
0000
0000
3000
,
0000
0000
0000
0000
0002
0000
0000
0003
,
0000
0000
0000
0000
0200
0000
0000
0300
,
0000
0000
0002
0000
,
0000
0000
0003
0000
0200
0000
0000
0300
,
0000
0000
0002
0000
,
0003
0000
1000
0000
,
0000
0000
0000
0000
0020
0000
0000
0030
,
0000
0000
0000
0000
2000
0000
0000
3000
,
0000
0000
0000
0000
0002
0000
0000
0003
,
0000
0000
0000
0000
2000
0000
0000
3000
,
0000
0000
0200
0000
,
0000
0000
0300
0000
2000
0000
0000
3000
,
0000
0000
0001
0000
,
0001
0000
0002
0003
,
0000
0000
0000
0000
0200
0000
0000
0300
,
0000
0000
0000
0000
0220
0000
0000
0330
,
0000
0000
0002
0000
,
0003
0000
2000
0000
,
3000
0000
0020
0000
,
0030
0000
0200
0000
,
0300
0000
0002
0000
,
0003
0000
2000
0000
,
3000
0000
0020
0000
,
0030
0000
2000
0000
,
3000
0000
0000
1001
;
