#TITLE:Hare Hare Yukai;
#SUBTITLE:;
#ARTIST:Aya Hirano, Minori Chihara & Yuuko Gotou;
#TITLETRANSLIT:;
#SUBTITLETRANSLIT:;
#ARTISTTRANSLIT:;
#GENRE:J-Pop;
#CREDIT:Ace Of Hearts;
#BANNER:Hare Hare Yukai - bn.png;
#BACKGROUND:Hare Hare Yukai - Finish.jpg;
#LYRICSPATH:Hare Hare Yukai Lyrics.lrc;
#CDTITLE:Ace Of Hearts.png;
#MUSIC:Hare Hare Yukai.ogg;
#OFFSET:-0.360;
#SAMPLESTART:29.480;
#SAMPLELENGTH:14.000;
#SELECTABLE:YES;
#BPMS:0.000=172.020;
#STOPS:;
#BGCHANGES:-2.200=Hare Hare Yukai.avi=1.000=0=0=1=====,
183.300=Hare Hare Yukai - Finish.jpg=1.000=1=0=0=StretchNoLoop==CrossFade==,
99999=-nosongbg-=1.000=0=0=0 // don't automatically add -songbackground-
;
#KEYSOUNDS:;

//---------------dance-single - Challenge----------------
#NOTES:
     dance-single:
     Ace Of Hearts (2008):
     Challenge:
     10:
     1.000,0.527,0.684,0.777,0.583: // measure 1
0000
0000
0000
0000
0000
0000
0000
0000
0000
0000
0000
0000
0001
0100
0001
0000
,  // measure 2
0000
0000
1000
0000
1020
0000
0000
0000
0130
0001
1000
0001
0100
0010
2000
0000
,  // measure 3
3010
0100
0001
0000
1000
0000
0000
0000
2100
0000
3100
0000
0000
0000
0102
0000
,  // measure 4
0000
0000
0000
0000
0020
0000
0003
0000
0031
0100
0001
0000
0101
0000
0000
0000
,  // measure 5
0110
0000
1010
0000
1000
0100
0010
0011
,  // measure 6
0001
1000
0001
0000
0100
0000
0001
0010
0100
0000
1000
0000
0001
0000
0100
0000
,  // measure 7
0010
1000
0001
0000
1000
0000
0100
1000
0001
0000
0100
0000
0001
0000
2000
0000
,  // measure 8
3001
0100
0010
0000
0100
0000
0002
0000
1003
0100
1000
0000
0010
0000
0210
0000
,  // measure 9
0301
1000
0100
0000
1000
0000
0001
0000
0100
0010
0100
0000
0001
0000
1001
0000
,  // measure 10
1000
0100
0010
0000
0100
0000
1000
0001
0010
0000
0001
0000
1000
0000
0010
0000
,  // measure 11
0100
0001
1000
0000
0001
0000
0010
0000
0001
1000
0001
0000
0100
0000
0010
0100
,  // measure 12
0001
0000
1000
0000
0001
0000
0201
0000
0010
0000
0301
0000
1000
0001
0100
0000
,  // measure 13
0001
0010
0120
0000
0130
1000
0001
1001
,  // measure 14
0000
0000
1000
1010
0000
0000
0010
0000
,  // measure 15
0100
0000
0001
0101
0000
0000
0000
0101
,  // measure 16
0000
0000
0100
0110
0000
0000
0010
0000
,  // measure 17
1000
0000
0000
0000
0100
0000
1100
0000
0000
0000
1000
0000
0001
0000
0100
0001
,  // measure 18
1000
0000
0010
0000
0201
0000
0000
0000
0301
1000
0100
0000
0021
0000
0000
0000
,  // measure 19
0031
1000
0010
0000
0102
0000
0000
0000
1003
0000
0001
1000
0100
0000
4000
0004
,  // measure 20
0000
0000
0000
0000
0000
3003
1010
0000
,  // measure 21
2100
0000
0000
0000
3002
0000
0200
0000
0000
0000
0010
0000
0303
0000
0001
1000
,  // measure 22
0100
0000
1000
0000
0001
0100
0010
0000
1000
0001
0100
0000
0001
0000
0100
0001
,  // measure 23
1000
0000
0001
0000
0020
0000
0001
0000
0100
0000
0001
0000
0130
0000
1000
0100
,  // measure 24
0010
0000
0001
0000
1000
0001
0100
0001
1000
0100
1000
0000
0001
0000
0100
0000
,  // measure 25
0001
0010
0100
0000
2100
0000
3001
0100
0001
0000
1000
0000
0010
0000
0210
0000
,  // measure 26
0301
1000
0100
0000
1000
0000
0010
0000
0100
0000
0001
1000
0001
0000
0021
0000
,  // measure 27
0130
1000
0100
0000
0220
0000
0000
0000
0030
0000
1300
0000
0001
0000
0101
0000
,  // measure 28
0100
0001
1000
0000
1100
0000
0000
0000
0002
0000
0000
0003
0202
0000
0000
0000
,  // measure 29
0010
0000
1000
0000
1010
0000
0303
1001
,  // measure 30
1000
0010
0100
0000
0001
0000
1000
0001
0010
0000
0001
0000
1000
0000
0010
0000
,  // measure 31
1000
0001
1000
0000
2020
0000
0030
0000
0001
0000
0001
0000
3001
0000
0100
0010
,  // measure 32
1000
0001
1000
0010
0100
0001
1000
0000
0001
0100
0001
0000
1000
0000
0010
0100
,  // measure 33
0001
0000
1000
0000
2200
0000
0000
0300
0000
0000
3010
0000
1000
0000
1020
0000
,  // measure 34
0130
0001
1000
0000
0100
0000
1000
0010
0100
0000
0001
0000
0100
0000
0220
0000
,  // measure 35
0030
0302
2000
0003
0200
0000
3300
1001
,  // measure 36
0001
0100
0001
0000
1000
0010
1000
0000
0010
0100
0010
0000
0100
0001
0100
0000
,  // measure 37
0010
1000
0010
0000
1000
0001
1000
0000
0001
1000
0100
1000
0001
0010
0200
0000
,  // measure 38
1300
0001
0010
0000
0002
0000
0000
0000
2003
0000
3010
0100
0001
1000
0100
0000
,  // measure 39
1000
0001
0100
0000
0020
0000
0000
0000
0230
0000
0301
1000
0001
0100
0001
0000
,  // measure 40
1000
0010
0100
0000
0002
0000
0000
0000
2000
0000
0000
0000
0000
0000
0010
0000
,  // measure 41
3003
0000
0102
0000
0000
0000
1003
0100
0020
0000
0030
0000
0101
0000
0000
0000
,  // measure 42
0001
1000
0020
0000
1000
0000
1000
0000
0130
0001
2000
0000
0001
0000
3001
0000
,  // measure 43
0100
0000
0001
0010
0100
0000
1100
0000
0000
0000
1002
0000
0103
0001
1000
0000
,  // measure 44
1020
0000
0000
0000
0130
0001
1000
0000
1010
0000
0000
0000
0010
0100
0001
0000
,  // measure 45
0101
0000
0000
0000
0001
1000
0001
0100
0010
0000
0000
0000
0202
0000
0000
0000
,  // measure 46
1000
0303
0000
0000
;

//---------------dance-single - Hard----------------
#NOTES:
     dance-single:
     Ace Of Hearts (2008):
     Hard:
     8:
     0.795,0.422,0.544,1.000,0.023: // measure 1
0000
0000
0000
0000
0000
0000
0000
0000
0000
0000
0000
0000
0001
0010
0001
0000
,  // measure 2
0000
0000
1000
0000
0001
0000
0000
0000
0202
0000
0300
0000
0103
0010
0100
0000
,  // measure 3
0000
0001
1000
0000
2200
0000
3300
2002
,  // measure 4
0000
3000
0000
0000
0020
0003
0000
0000
0031
0000
1000
0000
1010
0000
0000
0000
,  // measure 5
0110
0000
0101
0000
0001
1000
0100
0010
,  // measure 6
0000
0001
1000
0001
0200
0000
0000
0301
,  // measure 7
0000
1000
0100
1000
0020
0030
0100
0002
,  // measure 8
0000
1003
0020
0000
0230
0000
0301
0020
,  // measure 9
0000
0130
2000
0000
3001
0200
0310
1010
,  // measure 10
0000
1000
0001
0100
0020
0000
2030
0000
,  // measure 11
3200
0000
0000
0000
1300
0000
0002
0000
0000
0023
0000
0000
0130
0000
2000
0000
,  // measure 12
0000
0010
0020
0000
3030
0000
1000
0100
,  // measure 13
0010
0001
2000
0000
3010
0100
0001
0102
,  // measure 14
0000
0003
0000
1001
2000
3000
0010
0210
,  // measure 15
0000
0000
0300
0101
0001
0000
1000
2000
,  // measure 16
0000
3000
0001
0002
0000
1003
0200
0000
,  // measure 17
0320
0030
0011
0000
0000
0001
1000
0010
,  // measure 18
0100
0001
2000
0000
3010
0100
0002
0000
,  // measure 19
1003
0001
0020
0000
0031
1000
0001
2002
,  // measure 20
0000
0000
3003
1001
,  // measure 21
0010
0000
1000
0100
0000
0110
0000
0002
,  // measure 22
2003
3010
0200
0302
1003
0200
2300
3010
,  // measure 23
0200
0302
0023
0000
0031
0100
0001
2000
,  // measure 24
3200
1300
0020
0230
0301
2000
3020
1030
,  // measure 25
0200
0320
0032
0000
0003
1000
0001
0200
,  // measure 26
0000
0301
0010
0000
0000
0001
1000
0020
,  // measure 27
0000
0130
0001
0000
0000
1000
0001
0200
,  // measure 28
0000
0000
0301
0000
2000
0000
0000
0000
3200
0000
0000
0300
0110
0000
0000
0000
,  // measure 29
0011
0000
0101
0000
2020
0000
3030
2000
,  // measure 30
3002
0103
0020
2030
3100
0020
0032
1003
,  // measure 31
0020
0230
0302
0000
1000
1003
0000
0010
,  // measure 32
0100
0001
1000
0200
0000
1300
0002
0000
,  // measure 33
1003
0010
1010
0000
0000
0010
0100
0002
,  // measure 34
0000
1003
1100
0000
0000
1000
0000
1002
,  // measure 35
0000
0000
0103
0000
0020
0000
0000
0030
1010
0000
0000
0000
0000
0000
0101
0000
,  // measure 36
0000
0110
0000
1010
0000
1000
0001
2000
,  // measure 37
0000
3001
0100
0000
0000
0001
1000
0020
,  // measure 38
0000
0000
0130
0000
0002
0000
0000
0000
2000
0003
3010
0000
0100
0000
0002
0000
,  // measure 39
0000
1003
0020
0000
0230
0301
1000
0020
,  // measure 40
0000
1030
0002
0000
0200
0000
0303
1010
,  // measure 41
0000
0000
0200
0000
0000
0000
0301
0000
2000
0000
0000
3000
1100
0000
0000
0000
,  // measure 42
1000
1010
0000
0000
0010
0110
0000
0000
,  // measure 43
0100
0101
0001
0010
0000
0002
0000
0000
,  // measure 44
2003
0000
0000
3000
1010
0000
0001
0100
,  // measure 45
0101
0000
0100
0010
1010
0000
1000
0000
,  // measure 46
2002
3003
0000
0000
;

//---------------dance-single - Medium----------------
#NOTES:
     dance-single:
     Ace Of Hearts (2008):
     Medium:
     6:
     0.610,0.281,0.062,1.000,0.008:
0000
0000
0000
0000
0000
0000
0000
1001
,
0000
0001
0100
0000
0002
0000
0003
0101
,
0000
0001
1000
0000
0020
0000
0030
0200
,
0000
0000
0320
0000
1030
0010
1000
0000
,
0001
0000
0100
0000
0001
1000
0001
0000
,
0000
1000
0100
1000
0200
0000
0300
0000
,
0000
1000
0001
1000
2000
0000
3001
0200
,
0000
0301
2000
0000
3200
0000
1300
0002
,
0000
1003
0020
0000
1030
0100
1000
0000
,
0000
0001
0010
0001
0020
0000
0032
0000
,
2003
0000
0000
0000
3001
0000
0010
0000
0000
0001
0000
0000
1000
0000
0002
0000
,
0000
1003
0200
0000
0300
0000
1000
0001
,
1000
0001
0200
0000
0301
0100
0001
2000
,
0000
0000
0000
3000
0002
0000
1003
0200
,
0000
0000
0000
0300
1000
0000
0001
0200
,
0000
0300
0001
0200
0000
0301
2000
0000
,
3002
0000
0023
0000
0030
0001
1000
0001
,
0100
0001
0200
0000
0301
1000
0002
0000
,
1003
0100
2000
0000
3001
1000
0002
2000
,
0000
0000
3003
1001
,
1000
0000
0001
0100
0000
0000
0000
0001
,
0200
0000
0301
2000
0000
3001
0200
0000
,
0301
1000
0002
0000
0000
0003
0000
1000
,
0200
0000
1300
0002
0000
1003
0200
0000
,
1300
0001
0010
0000
0000
0001
1000
0002
,
0000
1003
0100
0000
0000
1000
0010
2000
,
0000
3001
0100
0000
0000
0001
0010
0002
,
0000
1003
0020
0000
0230
0000
0301
0000
,
1000
0000
0100
0000
0020
0000
0030
0001
,
2000
0000
3001
0200
0000
0301
2000
0000
,
3001
0100
0002
0000
0003
0000
0000
1000
,
0010
1000
0010
2000
0000
3001
0200
0000
,
0301
0100
0020
0000
0030
1000
0001
2000
,
0000
0000
3010
0000
0200
0000
0000
0300
0000
0000
0001
0000
0000
0000
0020
0000
,
0000
0000
0031
0000
2000
0000
0000
0000
3200
0000
0000
0300
0000
0000
1000
0000
,
0000
1000
0000
1000
0000
0001
0100
0002
,
0000
0100
0103
0000
0000
0001
1000
0020
,
0000
1030
2000
0000
3200
0000
0000
0000
,
0000
0300
0000
0000
0000
1000
0001
0200
,
0000
0301
2000
0000
3200
0000
0000
0300
,
0000
2000
0000
3001
0200
0000
0310
0000
,
0100
0001
0000
0000
1000
0100
0000
0000
,
1000
0002
1003
0010
0000
0200
0000
0000
,
0302
0000
0000
0000
0013
0000
0001
0010
,
0001
0000
1000
0100
1000
0000
0010
0000
,
2002
3003
0000
0000
;

//---------------dance-single - Easy----------------
#NOTES:
     dance-single:
     Ace Of Hearts (2008):
     Easy:
     4:
     0.242,0.105,0.031,0.171,0.000:
0000
0000
0000
0000
0000
0000
0000
0001
,
0000
0000
0001
0000
0000
0000
0000
1000
,
0000
0000
1000
0000
0000
0000
0000
0200
,
0000
0000
0300
1000
,
1000
1000
0000
0000
,
0000
0001
0000
0001
0000
0000
0000
0000
,
0000
1000
0000
1000
0000
0000
0000
0010
,
0000
0000
0000
0010
0000
0000
0000
0100
,
0000
0000
0000
0100
0000
0000
0000
0000
,
0000
0001
0000
0001
0000
0000
0000
1000
,
0000
0000
0000
1000
0000
0000
0000
0020
,
0000
0000
0000
0030
0000
0000
0000
1000
,
0000
0000
0000
1000
0000
0000
0000
0002
,
0000
0000
0000
0003
0000
0000
0000
0200
,
0000
0000
0000
0300
0000
0000
0000
0001
,
0000
0000
0000
0001
0000
0000
1000
0000
,
1000
0000
1000
0000
0000
0000
0000
0001
,
0000
0001
0000
1000
,
0000
0000
1000
0000
0000
0000
0000
2002
,
0000
0000
3003
0001
,
0001
0000
0000
0010
0000
0000
0000
0001
,
0000
0001
0000
0001
0000
0000
0000
1000
,
0000
1000
0000
1000
0000
0000
0000
0100
,
0000
0100
0000
0100
0000
0000
0000
0010
,
0000
0010
0000
0010
0000
0000
0000
0100
,
0000
0000
0000
1000
0000
0000
0000
0001
,
0000
0000
0000
1000
0000
0000
0000
0001
,
0000
1000
0000
0010
,
0010
0000
0010
0000
0020
0000
0030
1000
,
0000
1000
0000
1000
0000
0000
0000
0001
,
0000
0001
0000
0001
0000
0000
0000
0100
,
0000
0100
0000
0100
0000
0000
0000
0010
,
0000
0010
0000
0010
0000
0000
0000
1000
,
0000
0000
1000
0000
0000
0000
0000
0001
,
0000
0000
0001
0000
0000
0000
0000
0010
,
0000
0010
0000
0010
0000
0000
0000
0100
,
0000
0000
0000
0000
0000
0000
0000
2000
,
0000
0000
0000
0000
0000
0000
0000
3000
,
0000
0000
0000
0000
0000
0000
0000
0002
,
0000
0000
0000
0000
0000
0000
0000
0003
,
0000
1000
0000
1000
0000
0000
0001
0000
,
0000
0100
0000
0000
0000
0100
0000
0000
,
0000
0010
0000
0010
0000
2000
0000
0000
,
3002
0000
1003
0000
,
0010
0000
0100
0001
,
1001
0000
0000
0000
;

//---------------dance-single - Novice----------------
#NOTES:
     dance-single:
     Ace Of Hearts (2008):
     Beginner:
     2:
     0.146,0.070,0.047,0.186,0.000:
0000
0000
0000
0000
0000
0000
0000
0001
,
0000
0000
0000
0000
0000
0000
0000
0001
,
0000
0000
0000
0000
0000
0000
0000
0002
,
0000
0003
0000
0000
,
0000
0000
0000
0000
,
0000
1000
0000
0000
0000
0000
0000
0000
,
0000
1000
0000
0000
0000
0000
0000
0010
,
0000
0000
0000
0000
0000
0000
0000
0010
,
0000
0000
0000
0000
,
0000
1000
0000
0000
0000
0000
0000
1000
,
0000
0000
0000
0000
0000
0000
0000
0200
,
0000
0000
0000
0300
0000
0000
0000
1000
,
0000
0000
0000
0000
0000
0000
0000
0020
,
0000
0000
0000
0030
0000
0000
0000
1000
,
0000
0000
0000
0000
0000
0000
0000
0001
,
0000
0000
0000
0001
0000
0000
0000
0002
,
0000
0000
0003
0000
0000
0000
0000
0100
,
0000
0000
0000
0000
0000
0000
0000
0001
,
0000
0000
0000
0000
0000
0000
0000
2002
,
0000
0000
3003
1001
,
0000
0000
0000
0000
0000
0000
0000
0001
,
0000
0000
0000
0001
0000
0000
0000
0002
,
0000
0000
0000
0003
0000
0000
0000
1000
,
0000
0000
0000
1000
0000
0000
0000
2000
,
0000
0000
0000
3000
0000
0000
0000
0010
,
0000
0000
0000
0000
0000
0000
0000
0100
,
0000
0000
0000
0000
0000
0000
0000
0001
,
0000
0000
0000
0020
,
0000
0000
0000
0000
0030
0000
0000
0001
,
0000
0000
0000
0001
0000
0000
0000
0001
,
0000
0000
0000
0000
0000
0000
0000
1000
,
0000
0000
0000
1000
0000
0000
0000
1000
,
0000
0000
0000
0000
0000
0000
0000
0001
,
0000
0000
0000
0000
0000
0000
0000
0010
,
0000
0000
0000
0000
0000
0000
0000
0001
,
0000
0001
0000
0001
0000
0000
0000
0000
,
0000
0000
0000
0000
0000
0000
0000
0002
,
0000
0000
0000
0003
0000
0000
0000
0000
,
0000
0000
0000
0000
0000
0000
0000
2000
,
0000
0000
0000
3000
0000
0000
0000
0000
,
0000
0000
0000
0000
,
0000
0010
0000
0000
0000
0010
0000
0000
,
0000
0010
0000
0000
0000
2000
0000
0000
,
0000
0000
3001
0000
,
0001
0000
0001
0000
,
1001
0000
0000
0000
;

//---------------dance-single - AOH 2011----------------
#NOTES:
     dance-single:
     AOH 2011:
     Edit:
     9:
     -1.000,-1.000,-1.000,-1.000,-1.000:
// measure 1
0000
0000
0000
0000
0000
0000
0000
0000
0000
0000
0000
0000
1000
0100
0010
0000
,  // measure 2
0000
0000
0001
0000
1000
0000
0000
0000
0040
0000
0000
0000
1030
0001
0100
0000
,  // measure 3
0000
0001
1000
0000
0400
0000
0000
2300
,  // measure 4
0000
0000
3004
0000
0103
0010
1000
0000
,  // measure 5
0001
0000
0010
0000
0100
0010
0001
2002
,  // measure 6
0003
3010
0100
0010
4000
0000
3001
0100
,  // measure 7
0000
0010
1000
0001
0040
0000
0130
2000
,  // measure 8
3001
0010
0200
1300
0004
0000
0103
0020
,  // measure 9
1030
0001
0020
0000
0031
1000
0040
0200
,  // measure 10
0030
0302
0000
1003
0020
0000
0032
0000
,  // measure 11
2003
0000
0000
0000
3100
0000
0020
0000
0000
2000
0030
0000
3001
0000
0020
0000
,  // measure 12
0031
1000
0040
0000
0000
1030
0001
0010
,  // measure 13
0100
0010
0002
0000
1003
0010
0100
0002
,  // measure 14
0000
0100
0000
2003
3100
0000
0010
0200
,  // measure 15
0000
0010
0000
2300
3002
0000
0103
0020
,  // measure 16
1030
0001
0010
0200
1300
0100
0020
0031
,  // measure 17
1000
0000
0010
0000
0000
1000
0001
0010
,  // measure 18
0001
1000
0020
0000
1030
0001
0020
0000
,  // measure 19
0130
1000
0020
0000
0130
0001
1000
2004
,  // measure 20
0000
0000
3003
0101
,  // measure 21
1010
0000
1000
1200
0000
0300
0000
0110
,  // measure 22
0010
0001
1000
1010
0010
0100
0102
0000
,  // measure 23
1003
0100
0020
0000
0130
1000
0001
0101
,  // measure 24
0100
0010
1000
1001
0001
0010
0210
0000
,  // measure 25
1300
0001
0100
0000
0000
0010
1000
1200
,  // measure 26
0310
0001
1000
0000
0001
0100
0010
2010
,  // measure 27
3001
0010
0100
0000
1000
0001
0100
0120
,  // measure 28
1030
0001
0020
0000
0031
0000
0200
0000
,  // measure 29
0002
0000
1000
0000
0010
0000
0303
0101
,  // measure 30
2000
3100
0010
0200
1300
0001
0201
0000
,  // measure 31
0310
1000
0002
0000
0013
0100
1000
1001
,  // measure 32
0002
0103
0010
2000
3100
0010
0012
0000
,  // measure 33
1003
0010
0100
0000
0000
0001
0010
0210
,  // measure 34
1300
0001
0100
0000
0010
2000
3001
0201
,  // measure 35
0310
1000
0001
0010
0400
0000
0300
0110
,  // measure 36
0010
0011
0000
1001
0000
1000
0010
0210
,  // measure 37
0301
1000
0100
0000
0010
0100
1000
0002
,  // measure 38
0103
0010
2000
0000
3200
0310
0100
1100
,  // measure 39
1000
0001
0200
0000
0320
1030
0001
0011
,  // measure 40
0010
0100
1000
0000
0004
0000
0003
0101
,  // measure 41
0000
0200
0000
0301
2000
3010
1001
0000
,  // measure 42
1000
1100
0000
0000
0001
0101
0000
0000
,  // measure 43
1000
0020
1030
0100
0000
4000
0000
0000
,  // measure 44
3004
0000
0000
0003
0011
0000
0010
0100
,  // measure 45
1100
0000
0001
0100
0110
0000
1010
0000
,  // measure 46
0111
0000
0000
0000
;
