#TITLE:God Knows;
#SUBTITLE:(English Fandub);
#ARTIST:Cristina Vee;
#TITLETRANSLIT:;
#SUBTITLETRANSLIT:;
#ARTISTTRANSLIT:;
#GENRE:J-Pop;
#CREDIT:Ace Of Hearts & DMAxel;
#BANNER:God Knows - Bn.png;
#BACKGROUND:God Knows - Bg.jpg;
#LYRICSPATH:God Knows (English Fandub) Lyrics.lrc;
#CDTITLE:DMAxel & Ace Of Hearts.png;
#MUSIC:God Knows (English Fandub).ogg;
#OFFSET:-0.600;
#SAMPLESTART:52.420;
#SAMPLELENGTH:12.000;
#SELECTABLE:YES;
#BPMS:0.000=150.000;
#STOPS:;
#BGCHANGES:-5.000=God Knows Video.avi=1.000=0=0=1=====,
99999=-nosongbg-=1.000=0=0=0 // don't automatically add -songbackground-
;
#KEYSOUNDS:;

//---------------dance-single - Ace Of Hearts (2008)----------------
#NOTES:
     dance-single:
     Ace Of Hearts (2008):
     Challenge:
     10:
     0.773,0.356,0.580,1.000,0.347: // measure 1
0000
0000
0000
0000
,  // measure 2
10M0
0100
0000
100M
0M10
0000
M100
0001
00M0
1000
0M01
0000
M010
010M
1000
00M1
,  // measure 3
0100
M010
000M
0100
00M1
M000
0100
0010
000M
1000
0M01
00M0
1000
010M
10M0
0001
,  // measure 4
0100
M010
000M
1M00
0010
000M
M100
0001
00M0
1000
010M
0000
2M00
0000
301M
0000
,  // measure 5
0210
0302
2003
0200
3000
0320
0032
2003
,  // measure 6
30M1
0100
000M
M001
0M10
0000
010M
10M0
0000
010M
M010
0000
0M01
10M0
0001
0100
,  // measure 7
M010
100M
0M00
0001
M010
0000
0M01
10M0
0000
001M
M100
0000
00M1
1000
0100
0010
,  // measure 8
0001
1000
0010
0100
0001
1000
0001
0010
0100
1000
0001
0100
0010
1000
0001
0010
,  // measure 9
0002
0000
0023
0000
0230
0000
2300
0000
0000
0000
3002
0000
0203
0000
0320
0030
,  // measure 10
1020
0000
0000
0000
0230
0000
0302
2003
0000
3010
0100
0000
0001
0000
1000
0000
,  // measure 11
0010
0100
0001
0010
0120
1030
0002
1003
,  // measure 12
1020
0000
0000
0000
0230
0000
0000
0301
0020
0000
0031
0000
1000
0000
0010
0000
,  // measure 13
0100
0001
0100
0000
0010
0000
1000
0100
0000
1000
0001
0000
0100
0000
0001
0000
,  // measure 14
1002
0000
0000
0000
0023
0000
0000
0031
0200
0000
0301
0000
0010
0000
0100
0000
,  // measure 15
2100
3010
0100
0001
2001
3010
0020
0130
,  // measure 16
0102
0000
0000
2003
0000
0000
0020
0000
0000
0000
0000
0000
0000
0000
0000
0000
,  // measure 17
3030
0000
M0MM
0000
,  // measure 18
1002
0000
0000
0000
0023
0000
0130
2000
0000
3001
0100
0000
0010
0100
0001
0000
,  // measure 19
1000
0000
0100
0000
0010
0000
0002
0003
0201
0000
0310
0000
1000
0000
0001
0000
,  // measure 20
0021
0000
0000
0000
0130
0000
1000
0002
0000
1003
0010
0000
0100
0001
1000
0000
,  // measure 21
0100
0010
0100
1000
0001
0000
1000
0010
0000
1000
0001
0000
0010
0001
1000
0010
,  // measure 22
0120
0000
0000
0000
1030
0000
0001
0200
0000
0310
1000
0000
0001
1000
0100
0000
,  // measure 23
0010
0000
0100
0000
1000
0000
0001
0000
0201
0000
0310
0000
1000
0000
0002
0003
,  // measure 24
0201
0000
0000
0302
0000
0000
0020
0000
0000
0000
0000
0000
0000
0000
0000
0000
,  // measure 25
0033
0000
MM0M
0000
,  // measure 26
2002
0000
3003
0000
0202
0000
0000
0010
,  // measure 27
0000
03M3
0000
0001
2001
3100
0020
0031
,  // measure 28
2001
0000
3020
0000
0230
0000
0301
0021
,  // measure 29
0000
0000
0130
0000
1000
0000
0001
0010
0000
0001
1000
0000
0010
0000
1000
0000
,  // measure 30
1020
0000
0130
0000
0002
0000
1003
0010
0000
0010
1000
0000
0001
0000
0000
0200
,  // measure 31
0000
0301
2000
3010
0100
0001
0010
0000
,  // measure 32
0210
0000
2300
0002
0000
0000
0000
0000
,  // measure 33
3003
0000
0000
0000
2000
0000
0000
3000
1002
0000
0013
0000
00M0
0000
0120
0000
,  // measure 34
0000
0000
0031
0000
2001
0000
3010
0200
0000
0301
1000
0000
0010
0000
0210
0000
,  // measure 35
0000
0000
0301
0000
1000
0000
0010
0100
0000
0001
1000
0000
0100
0000
0120
0000
,  // measure 36
0031
1000
0010
0210
0301
1000
0010
0120
,  // measure 37
1030
0001
0010
0210
1300
0001
1000
0010
,  // measure 38
0210
0301
0010
0210
1300
0001
0100
0120
,  // measure 39
2030
3001
0020
0130
2100
3001
0200
0310
,  // measure 40
2010
0000
0100
0000
3002
0103
0001
MM11
,  // measure 41
00MM
0001
2000
3010
0210
0301
1000
1020
,  // measure 42
0000
0000
0130
0000
0001
0000
1000
0010
0000
0010
0100
0000
0001
0000
0102
0000
,  // measure 43
0013
0000
0100
0000
1000
0000
0001
0100
0000
0100
0010
0000
1000
0000
1200
0000
,  // measure 44
0010
1000
0310
0120
0001
0100
0031
2002
,  // measure 45
3003
0000
0220
0000
0330
0000
2100
0000
0000
0000
3001
0000
0020
0000
0230
0300
,  // measure 46
2100
0000
0000
0020
0000
0000
3030
1000
,  // measure 47
1200
0010
1300
0000
2010
0001
3020
0000
,  // measure 48
0230
0000
0000
0004
0000
0000
0000
0000
,  // measure 49
0303
0000
0000
0000
0040
0000
0000
0000
0032
0000
0000
2003
0000
0000
3001
0000
,  // measure 50
2000
0000
0000
0000
0000
0000
0000
0400
,  // measure 51
0000
0000
0000
3300
,  // measure 52
1020
0130
0001
1002
0013
0100
1000
4200
,  // measure 53
0000
0000
0000
0000
3300
0000
0000
1000
,  // measure 54
1020
0130
0001
0102
1003
0200
1300
1020
,  // measure 55
0000
0130
0M00
0201
0000
0301
0100
0010
,  // measure 56
4000
0000
3000
0020
,  // measure 57
0130
0000
0000
0000
0001
0000
0000
0020
0000
0000
0000
0000
0000
0000
0032
0000
,  // measure 58
0000
2003
0040
0000
0000
0000
0000
0000
,  // measure 59
3030
0000
M00M
0000
,  // measure 60
1200
0310
0001
0201
0310
2000
3001
0202
,  // measure 61
0300
1000
1000
0000
0010
0000
0103
0000
,  // measure 62
0120
1030
0001
0201
0310
1000
0000
1020
,  // measure 63
0130
0001
000M
1002
0000
0013
0002
2000
,  // measure 64
0040
0000
0000
0000
,  // measure 65
3033
0000
2001
3010
0210
0301
0102
0003
,  // measure 66
1002
0000
0000
0000
0000
0200
0020
2000
,  // measure 67
0000
0000
0000
0000
,  // measure 68
3333
0000
MM04
0000
1003
0010
00M0
0M0M
,  // measure 69
M0M0
0M00
0400
0000
0301
0010
00M0
0210
,  // measure 70
0000
0000
1300
0001
2000
0000
3010
0100
0000
0001
1000
0000
0100
0000
4100
0000
,  // measure 71
0000
0000
3001
0000
0100
0000
0010
1000
0000
0001
0010
0000
0100
0000
2100
0000
,  // measure 72
0000
3002
0013
0210
0000
1300
0001
0M21
,  // measure 73
0000
0000
0230
0000
0000
0300
2100
0000
0000
0000
3001
0000
1000
0000
0010
0000
,  // measure 74
1002
0013
0100
4100
0000
3000
0000
1000
,  // measure 75
1020
0001
1030
0000
2100
0010
3100
0000
,  // measure 76
0040
0000
0000
0000
0000
0130
1000
1MM1
,  // measure 77
M00M
0000
0002
1003
1200
0310
0000
0012
,  // measure 78
0000
0000
1003
0000
1020
0000
0130
0001
0000
1000
0010
0000
0100
0000
0102
0000
,  // measure 79
0000
0000
1003
0000
0010
0000
0100
0001
0000
1000
0100
0000
0010
0000
0021
0000
,  // measure 80
0130
1100
1001
0102
0000
2003
3100
M21M
,  // measure 81
0000
0000
2300
0000
0000
3000
1020
0000
0000
0000
0130
0000
0001
0000
1000
0000
,  // measure 82
0102
0000
0000
0020
0000
0033
0000
0001
,  // measure 83
2001
0100
3001
0000
0201
0010
0301
0000
,  // measure 84
2000
3020
0230
0002
0000
0000
0000
0000
,  // measure 85
0303
0000
0000
0000
2001
0000
3010
0000
0210
0000
0000
0301
0000
0000
1000
0000
,  // measure 86
2200
0000
0000
0000
0000
0000
0000
0002
,  // measure 87
0000
0000
0000
3303
,  // measure 88
1000
0001
0000
1000
0010
0000
0100
0001
0000
1000
0100
0000
1000
0010
0100
0001
,  // measure 89
1000
0100
0000
1000
0010
0000
0100
0001
0000
1000
0010
0000
2000
0000
3010
0000
,  // measure 90
0100
0001
0100
0000
0001
0000
0020
0000
0000
0000
0130
0000
1000
0000
0010
0000
,  // measure 91
0100
0001
0000
1000
0100
0000
1000
0001
0000
0100
0010
0000
1000
0001
1000
0010
,  // measure 92
0100
0001
0000
0010
0100
0000
1000
0100
0000
0010
0001
0000
2000
0000
3010
0000
,  // measure 93
0100
0010
0100
0000
0001
0000
2000
0000
0000
0000
3100
0000
0010
0000
0001
0000
,  // measure 94
2000
3020
0230
0302
0000
2003
3020
0030
,  // measure 95
2002
3003
0000
0000
;

//---------------dance-single - Ace Of Hearts (2008)----------------
#NOTES:
     dance-single:
     Ace Of Hearts (2008):
     Medium:
     6:
     0.407,0.178,0.025,0.819,0.050:
0000
0000
0000
0000
,
1000
0000
0000
1000
0000
0000
2000
0000
0000
0000
0010
0000
3010
0000
0000
0000
,
0100
0000
0000
0100
0000
0000
0200
0000
0000
0000
0001
0000
0301
0000
0000
0000
,
0010
0000
0000
0010
0000
0000
0020
0000
0000
0000
0100
0000
0130
0000
0000
0000
,
2000
0000
3002
0203
0000
0000
0310
0000
,
1000
0000
0000
1000
0000
0000
2000
0000
0000
0000
0100
0000
3100
0000
0000
0000
,
0010
0000
0000
0010
0000
0000
0020
0000
0000
0000
0001
0000
0031
0000
0000
0000
,
0002
0000
2003
0000
,
3020
0000
0230
0302
0000
0000
0003
0000
,
1000
0000
0000
0000
1000
0000
0000
0001
0000
0000
0000
0000
0000
0000
0000
0000
,
0000
0000
0000
1000
0010
0000
1000
0000
,
0002
0100
0200
0303
,
0000
0000
0000
0000
,
2000
3001
0010
0000
,
0000
0000
0000
0001
2000
0000
3100
0000
,
1000
0000
0000
0001
0000
0000
0020
0000
0000
0000
0000
0000
0000
0000
0000
0000
,
0030
0000
0000
0000
,
0002
1000
0103
0000
,
0000
0000
0000
0001
0020
0000
0130
0000
,
2000
3010
0200
0300
,
0000
0000
0000
0000
,
0002
1003
0020
0030
,
0000
0000
0000
1000
0002
0000
0103
0000
,
0001
0000
0000
0020
0000
0000
0000
0000
,
0030
0000
0000
0000
,
0002
0000
0000
0000
2003
0000
0000
3100
,
0000
0000
0000
1000
0020
0000
0130
0000
,
0002
0000
2003
0000
3200
0000
1300
0002
,
0000
0000
0003
0000
0000
0000
0000
1000
,
0010
0000
0000
0000
2000
0000
0000
3001
0000
0000
0000
0000
0000
0000
0000
2000
,
0000
3001
0010
0001
,
2000
0000
3001
0200
0000
0000
0000
0000
,
0300
0000
0002
0000
1000
1003
0000
0002
,
0000
0000
1003
0000
0001
0100
0000
0002
,
0000
0000
1003
0000
0010
1000
0000
0002
,
0000
1003
0100
2000
0000
3001
0100
0020
,
0000
1030
0000
0002
0000
0103
0001
0000
,
2000
0000
0000
3010
0000
0000
0000
1000
,
0002
1003
0020
0130
,
0002
0000
0000
0000
0000
0010
0000
0013
,
0000
0000
0002
0000
1003
0000
0000
0020
,
0000
0000
0130
0000
0001
1000
0000
0002
,
0000
0000
1003
0000
0010
1000
0000
0002
,
0000
1003
0010
2000
0000
3001
0100
0002
,
0000
1003
0000
0020
0000
0000
0130
0000
,
0002
0000
0000
2003
0000
0000
3000
0100
,
2000
3001
0020
0031
,
2000
0000
0000
3002
0000
0000
0000
0000
,
0003
0000
0000
0000
2000
0000
0000
0000
3002
0000
0000
0103
0000
0000
0001
0000
,
2000
0000
0000
0000
0000
0000
0000
3200
,
0000
0000
0000
0300
,
2000
0000
3001
0200
0000
0310
0000
2000
,
0000
0000
3000
0000
0000
0000
0000
0001
,
0020
0000
0031
2000
0000
3001
0000
0020
,
0000
0031
0000
2000
0000
3001
0100
0000
,
0002
0000
0003
2000
,
3100
0000
0000
0000
2000
0000
0000
3001
0000
0000
0000
0000
0000
0000
2000
0000
,
0000
3001
0200
0000
0000
0000
0000
0000
,
0300
0000
0000
0000
,
0002
0000
1003
0200
0000
1300
0000
0002
,
0000
0000
0003
0000
,
2000
0000
3001
2000
0000
3100
0000
0020
,
0000
0130
0000
2000
0000
3001
0100
0002
,
0020
0000
0000
0000
,
0033
0000
0002
0000
0023
0000
0230
0300
,
2200
0000
0300
0000
3000
0001
0100
0202
,
0000
0000
0000
0000
,
0303
0000
0002
0000
1003
0010
0000
0000
,
0000
0000
2000
0000
3001
0010
0000
0002
,
0000
1003
0200
0000
1300
0001
0000
0200
,
0000
0301
1000
0000
0100
1000
0000
0002
,
0000
1003
0100
2000
0000
3010
0100
0020
,
0000
1030
0000
0200
0000
0310
0001
0000
,
2000
0000
0000
3020
0000
0030
0000
1000
,
0002
1003
0020
0130
,
0002
0000
0000
0000
0000
1003
0100
1000
,
0000
0000
0200
0000
1300
0001
0000
2000
,
0000
3001
0100
0000
0001
1000
0000
0200
,
0000
1300
0001
0000
0100
0001
0000
2000
,
0000
3001
0100
0002
0000
1003
0010
2000
,
0000
3001
0000
0200
0000
0000
0310
0000
,
2000
0000
0000
3020
0000
0030
0000
1000
,
0002
0013
0002
1003
,
0020
0000
0000
0230
0000
0000
0000
0000
,
0300
0000
0000
0000
0101
0000
0000
0000
0001
0000
0000
1000
0000
0000
0001
0000
,
0020
0000
0000
0000
0000
0000
0000
0200
,
0000
0000
0000
0330
,
0100
0000
0000
0100
0000
0000
0200
0000
0000
0000
1000
0000
1300
0000
0000
0000
,
0001
0000
0000
0001
0000
0000
0002
0000
0000
0000
0010
0000
0013
0000
0000
0000
,
0001
0100
0001
0000
1000
0100
1000
0000
,
0010
0000
0000
0010
0000
0000
0020
0000
0000
0000
1000
0000
1030
0000
0000
0000
,
0100
0000
0000
0100
0000
0000
0200
0000
0000
0000
0010
0000
0310
0000
0000
0000
,
0001
1000
0001
0000
0100
0001
0100
0000
,
0002
1003
0000
0020
0000
0130
0001
0000
,
2002
3003
0000
0000
;

//---------------dance-single - DMAxel (2008)----------------
#NOTES:
     dance-single:
     DMAxel (2008):
     Beginner:
     2:
     0.097,0.030,0.063,0.000,0.000:
0000
0000
0000
0000
,
0000
0010
0000
0000
,
0000
0010
0000
0000
,
0000
0100
0000
0000
,
0000
0100
0000
0000
,
0000
0001
0000
0000
,
0000
0001
0000
0000
,
0000
1000
0000
0000
,
0000
1000
0000
0000
,
0001
0000
0000
0000
,
0000
0000
0000
0000
,
0010
0000
0000
0000
,
0000
0000
0000
0000
,
0001
0000
0000
0000
,
0000
0000
0000
0000
,
0100
0000
0000
0000
,
0000
0000
0000
0000
,
0010
0000
0100
0000
,
0010
0000
0100
0000
,
0010
0000
1000
0000
,
0001
0000
1000
0000
,
0001
0000
1000
0000
,
0001
0000
0010
0000
,
0001
0000
0010
0000
,
0001
0000
0000
0000
,
0000
1000
0000
0100
,
0000
1000
0000
0100
,
0000
1000
0000
0010
,
0000
0100
0000
0010
,
0000
0000
0000
0000
,
0010
0000
0000
0000
,
0100
0000
0000
0000
,
1001
0000
0000
0000
,
0010
0000
0000
0000
,
0010
0000
0000
0000
,
0100
0000
0000
0000
,
0100
0000
0000
0000
,
0001
0000
0000
0000
,
0001
0000
0000
0000
,
1000
0000
0000
0000
,
0000
0000
0000
0000
,
0010
0000
0000
0000
,
0100
0000
0000
0000
,
0010
0000
0000
0000
,
0000
0000
0000
0000
,
1001
0000
0000
0000
,
0100
0000
0100
0000
,
0010
0000
0000
0000
,
0000
0000
0000
0000
,
1000
0000
0000
0000
,
0001
0000
0000
0000
,
1001
0000
0000
0000
,
0000
0000
0000
0000
,
1001
0000
0000
0000
,
0000
0000
0000
0000
,
1001
0000
0000
0000
,
0000
0000
0000
0000
,
1001
0000
0000
0000
,
0000
0000
0000
0000
,
0100
0000
0000
0000
,
0000
0000
0000
0000
,
0010
0000
0000
0000
,
0000
0000
0000
0000
,
0100
0000
0000
0000
,
0000
0000
0000
0000
,
0001
0000
0000
0000
,
1000
0000
0000
0000
,
1001
0000
0000
0000
,
0010
0000
0000
0000
,
0010
0100
0000
0100
,
0000
0100
0000
0010
,
0000
0010
0000
1000
,
0000
1000
0000
0001
,
0000
0001
0000
0010
,
0000
0010
0000
0001
,
0000
0010
0000
0100
,
0000
1000
0000
0000
,
0010
0000
0000
0000
,
0100
0000
0000
0000
,
0010
0000
0000
0000
,
0100
0000
0000
0000
,
0001
0000
0000
0000
,
1000
0000
0000
0000
,
0001
0000
0000
0000
,
1000
0000
0000
0000
,
1001
0000
0000
0000
,
1001
0000
0000
0000
,
0010
0000
0000
0000
,
0000
0000
0000
0000
,
0100
0000
0000
0000
,
0000
0000
0000
0000
,
0100
0000
0000
0000
,
0010
0000
0000
0000
,
1001
0000
0100
0000
,
0010
0000
0000
0000
;

//---------------dance-single - DMAxel (2008)----------------
#NOTES:
     dance-single:
     DMAxel (2008):
     Easy:
     3:
     0.221,0.089,0.050,0.038,0.000:
0000
0000
0000
0000
,
0000
1001
0000
0010
,
0000
0100
0000
0010
,
0000
1000
0000
0001
,
0000
1000
0000
0001
,
0000
0010
0000
0001
,
0000
0100
0000
0010
,
0000
1000
0000
0100
,
0000
1000
0000
0010
,
0200
0000
0000
0000
,
0000
0000
0000
0000
,
0302
0000
0000
0000
,
0000
0000
0000
0000
,
2003
0000
0000
0000
,
3020
0000
0000
0000
,
0230
0000
0000
0000
,
0310
0000
0000
0000
,
1000
0100
0010
0001
,
0010
0100
1000
0001
,
0010
0100
1000
0100
,
0010
0001
1000
0010
,
0100
0001
0100
0010
,
1000
0001
1000
0010
,
0100
0010
1000
0100
,
0010
0001
1000
0001
,
1000
0010
0000
0010
,
0000
0010
0000
0010
,
0000
0100
0000
0100
,
0000
0100
0000
0100
,
0000
0001
0000
0001
,
0000
0001
0000
0001
,
0000
1000
0000
1000
,
0000
0000
0000
0000
,
0010
0100
0010
0000
,
1000
0001
1000
0000
,
0001
0000
0010
0000
,
0100
0000
1000
0000
,
0010
0000
0000
0000
,
1001
0100
0010
1000
,
0001
0000
0000
0000
,
0000
0000
0100
0000
,
0010
0100
0001
0000
,
1000
0010
0100
0000
,
0001
0000
1000
0000
,
0001
0000
0010
0000
,
0001
0000
0000
0000
,
1000
0000
0100
0000
,
1000
0000
0000
0000
,
0010
0100
0010
1000
,
0001
0000
0000
0000
,
0000
0000
0000
0000
,
1000
0010
0100
0001
,
0010
0100
1000
0100
,
0010
0001
0100
0010
,
1000
0001
0010
0100
,
1000
0010
0100
0001
,
1000
0001
1000
0100
,
0010
0001
0100
0010
,
1000
0000
0000
0000
,
0001
0010
0100
1000
,
0010
0100
0001
0010
,
0100
1000
0001
1000
,
0001
1000
0010
0100
,
0010
0010
0010
0010
,
0010
0010
0010
0010
,
0100
0100
0100
0100
,
0100
0100
0100
0100
,
1001
0000
0000
0000
,
1001
0000
0000
0000
,
0010
0000
0000
0000
,
0100
0000
0000
0000
,
0010
1000
0001
0010
,
0001
0010
0100
1000
,
1001
0000
0000
0000
,
0010
0100
0001
1000
,
0010
0000
0000
0000
,
0000
0000
0000
0000
,
1001
0100
0010
1000
,
0100
1000
0100
0010
,
0001
0100
0010
1000
,
0001
0010
0100
1000
,
1001
0000
0000
0000
,
0010
0100
0001
1000
,
0010
0000
0000
0000
,
0000
0100
0001
1000
,
0010
0000
0000
0000
,
1001
0000
0000
0000
,
0001
0010
0100
1000
,
0100
0010
0001
1000
,
0100
0010
0001
0010
,
0100
1000
0001
1000
,
0010
0000
0000
0000
,
0100
0000
0000
0000
,
0020
0000
0000
0000
,
0130
0000
0000
0000
;

//---------------dance-single - Ace Of Hearts (2008)----------------
#NOTES:
     dance-single:
     Ace Of Hearts (2008):
     Hard:
     8:
     0.547,0.327,0.246,0.920,0.205:
0000
0000
0000
0000
,
0001
1000
0000
0001
0100
0000
0001
0100
0000
0001
0100
0000
0002
0000
0013
0000
,
0100
1000
0000
0010
0100
0000
0010
0100
0000
0010
0100
0000
0002
0000
1003
0000
,
0010
0100
0000
0010
1000
0000
0010
1000
0000
0010
1000
0000
0002
0000
0013
0000
,
0200
0320
0032
2000
0003
3200
0320
0032
,
1003
0100
0000
1000
0001
0000
1000
0001
0000
1000
0001
0000
0200
0000
0310
0000
,
0100
0001
0000
1000
0100
0000
1000
0100
0000
1000
0100
0000
2000
0000
3010
0000
,
1000
0010
0100
0001
1000
0100
0010
0001
,
1000
0010
0100
0002
0000
1003
0010
0000
,
2000
0000
0000
0000
3010
0000
0100
0004
0000
0000
0000
0000
0003
0000
0000
0000
,
0000
0000
0000
1000
0100
0010
0100
1000
,
0002
0000
0000
0000
0203
0000
0000
0310
4000
0000
0000
0000
0000
0000
3000
0000
,
0000
0000
0000
0000
,
0002
0000
0000
0000
2003
0000
0000
3001
0040
0000
0000
0000
0030
0000
0000
0000
,
0000
0000
0000
0001
1000
0100
0010
0001
,
1000
0000
0000
0010
0000
0000
0020
0000
0000
0000
0000
0000
0000
0000
0000
0000
,
0030
0000
0000
0000
,
2000
0000
0000
0000
3002
0000
0000
0103
0040
0000
0000
0000
0030
0000
0000
0000
,
0000
0000
0000
1000
0010
0100
0001
1000
,
0200
0000
0000
0000
0320
0000
0000
0031
4000
0000
0000
0000
0000
3000
0000
0000
,
0000
0000
0000
0000
,
2010
0000
0000
0000
3002
0000
0000
0103
0040
0000
0000
0000
0000
0000
0030
0000
,
0000
0000
0000
1000
0010
0100
0001
1000
,
0002
0000
0000
0013
0000
0000
0020
0000
0000
0000
0000
0000
0000
0000
0000
0000
,
0030
0000
0000
0000
,
0022
0000
0033
0000
0220
0000
0330
2200
,
0000
3300
0000
1000
0002
0103
0020
1030
,
1200
0000
2300
0000
3200
0000
1300
0002
,
0000
0403
0000
0300
0000
0000
0000
0001
,
0010
0000
0100
0000
1000
0000
0001
0010
0000
0000
0000
0000
0000
0000
0000
0020
,
0000
0031
1000
0001
0010
0001
1000
0000
,
0001
0000
0010
0200
0000
0000
0000
0000
,
0300
0000
2000
0000
3002
0013
0000
0210
,
0000
0000
0000
0000
2300
0000
3001
0100
0000
0010
0000
0000
0000
0000
1020
0000
,
0000
0000
0130
0000
0001
0000
1000
0200
0000
0310
0000
0000
0000
0000
0120
0000
,
0000
0031
1000
2010
0000
3001
0010
0021
,
0000
0130
0000
2100
0000
3001
0010
0100
,
2000
0000
3000
0020
0000
0030
0000
1000
,
0200
0320
0032
2003
,
3020
0000
0000
0000
0000
0130
0001
2000
,
3000
0000
0002
0000
1003
0010
0000
1020
,
0000
0000
0130
0000
0001
0000
1000
0200
0000
0310
0000
0000
0000
0000
0012
0000
,
0000
0000
1003
0000
0010
0000
0100
0001
0000
1000
0000
0000
0000
0000
1020
0000
,
0000
0130
0001
1001
0000
1000
0100
0110
,
0000
1100
0000
0201
0000
0310
1000
0001
,
2000
0000
0000
3020
0000
0000
0030
0100
,
0002
1003
0020
0130
,
0102
0000
0000
4000
0000
0000
0000
0000
,
3003
0000
0000
0000
0012
0000
0000
0000
0203
0000
0000
0310
0000
0000
1000
0000
,
0200
0000
0000
0000
0000
0000
0000
2000
,
0000
0000
0000
3300
,
0002
0000
0103
0020
0000
2030
0000
3200
,
0000
0000
0000
0000
0300
0000
0000
1000
,
0002
0000
0013
0200
0000
0320
0000
0032
,
0000
1000
0000
2003
0000
3010
0100
0001
,
0200
0000
0300
0020
,
1030
0000
0000
0000
0001
0000
0000
2000
0000
0000
0000
0000
0000
0000
3200
0000
,
0000
1300
0004
0000
0000
0000
0000
0000
,
0003
0000
0000
0000
,
0201
0000
0301
2000
0000
3001
0000
0204
,
0000
0000
0303
0000
,
2100
0000
3001
0200
0000
0310
0000
2010
,
0000
3001
0000
0201
0000
0310
1000
0100
,
0040
0000
0000
0000
,
0030
0012
2003
3200
,
2000
0000
0000
0000
0000
0010
0001
0020
,
0000
0000
0000
0000
,
3330
0000
2000
0000
3001
0010
0000
0000
,
0000
0000
0002
0000
0103
0010
0000
2010
,
0000
0000
3001
0000
1000
0000
0100
2000
0000
3001
0000
0000
0000
0000
0021
0000
,
0000
0000
0130
0000
1000
0000
0001
0200
0000
0310
0000
0000
0000
0000
2010
0000
,
0000
3001
0010
0021
0000
0130
1000
1002
,
0000
0103
0000
0120
0000
1030
0001
0100
,
0002
0000
0000
0023
0000
0030
0000
0001
,
2000
3200
0320
0032
,
4003
0000
0000
0000
0000
3100
0010
0001
,
0000
0000
0200
0000
0301
1000
0000
1020
,
0000
0000
0130
0000
0001
0000
2000
3020
0000
0130
0000
0000
0000
0000
0120
0000
,
0000
0000
1030
0000
0001
0000
1000
0200
0000
0310
0000
0000
0000
0000
0020
0000
,
0000
0130
1000
0002
0000
1003
0010
1020
,
0000
0130
0000
0102
0000
1003
0100
0010
,
0200
0000
0300
2000
0000
3000
0000
0010
,
0200
0301
0102
1003
,
2100
0000
0000
0002
0000
0000
0000
0000
,
3003
0000
0000
0000
0002
0000
0000
0000
0013
0000
0000
0100
0000
0000
1000
0000
,
0002
0000
0000
0000
0000
0000
0000
0200
,
0000
0000
0000
0303
,
0001
0100
0000
0010
1000
0000
0010
1000
0000
0010
1000
0000
0002
0000
0013
0000
,
0100
1000
0000
0001
1000
0000
0001
1000
0000
0001
1000
0000
0020
0000
1030
0000
,
0001
1000
0100
0010
0001
1000
0010
0100
,
0001
0010
0000
0001
0100
0000
0001
0100
0000
0001
0100
0000
0002
0000
1003
0000
,
0100
1000
0000
0001
0100
0000
0001
0100
0000
0001
0100
0000
0002
0000
0013
0000
,
0100
1000
0010
0100
0001
1000
0100
0010
,
0002
2003
3020
0230
0000
0302
0023
0030
,
2002
3003
0000
0000
;
