#TITLE:Galaxy Bang Bang;
#SUBTITLE:;
#ARTIST:Angel-Tai;
#TITLETRANSLIT:;
#SUBTITLETRANSLIT:;
#ARTISTTRANSLIT:;
#GENRE:J-Pop;
#CREDIT:Ace Of Hearts;
#BANNER:Galaxy Bang Bang - Bn.png;
#BACKGROUND:Galaxy Bang Bang - Bg.png;
#LYRICSPATH:;
#CDTITLE:Ace Of Hearts.png;
#MUSIC:Galaxy Bang Bang -Long Version-.ogg;
#OFFSET:0.010;
#SAMPLESTART:58.310;
#SAMPLELENGTH:23.900;
#SELECTABLE:YES;
#DISPLAYBPM:163.000;
#BPMS:0.000=163.000,447.000=81.500,462.000=163.000;
#STOPS:;
#BGCHANGES:;
#KEYSOUNDS:;

//---------------dance-single - Copied from AceOfHea----------------
#NOTES:
     dance-single:
     Ace Of Hearts (2008):
     Challenge:
     10:
     1.000,0.417,1.000,1.000,0.448: // measure 1
0000
0000
0000
0000
,  // measure 2
0000
0000
0000
0000
,  // measure 3
0000
0000
0000
0000
,  // measure 4
0000
0000
0000
0000
0000
0000
0011
0022
,  // measure 5
0033
0110
0220
0330
1100
2200
3300
1010
,  // measure 6
2020
0000
3030
0000
0220
0000
0330
0000
2002
0000
3003
0000
4000
0004
0000
0000
,  // measure 7
0000
0000
3003
0001
0010
0100
2200
3300
,  // measure 8
0000
0010
0220
0330
0000
0022
0033
0022
,  // measure 9
0033
0010
0220
0330
2200
3300
2200
3300
,  // measure 10
1000
0100
0100
0010
0001
0022
0033
0022
,  // measure 11
0033
0010
0220
0330
2200
3300
0200
0300
,  // measure 12
0100
0100
0020
0000
0031
0100
0000
0100
,  // measure 13
0000
0100
0102
0000
1003
0000
1200
0000
,  // measure 14
0310
0010
0012
0000
0103
0120
0000
0100
,  // measure 15
0030
0010
1000
0100
1000
0100
0010
0001
,  // measure 16
0100
0010
0200
0000
0310
1000
0000
1000
,  // measure 17
0000
0000
1000
0000
0100
0000
1000
0000
0100
0000
1000
0000
0004
0400
0000
0000
,  // measure 18
0000
0000
0000
0000
0000
0303
0202
0000
,  // measure 19
0000
0000
0010
0000
0010
0303
2002
3003
,  // measure 20
1100
1000
0100
0010
0001
0022
0033
0022
,  // measure 21
0033
0010
0220
0330
2200
3300
2100
3100
,  // measure 22
1000
1000
0100
0010
0001
0022
0033
0022
,  // measure 23
0033
0010
0010
0010
0100
0100
1000
0010
,  // measure 24
0100
0001
0010
0100
1000
2020
3030
2020
,  // measure 25
3030
0000
0100
0000
0201
0000
0301
0000
0010
0000
0100
0000
4000
0400
0000
0000
,  // measure 26
0000
0000
0000
0000
0000
3300
0200
0000
,  // measure 27
0010
0000
0310
0001
0001
0010
0200
0000
,  // measure 28
1300
0010
0100
0001
0010
0022
0033
0022
,  // measure 29
0033
0000
0010
0000
0220
0000
0330
0000
2200
0000
3300
0000
1000
0100
0010
0001
,  // measure 30
1000
0100
0010
0001
1000
0100
0010
0001
0100
0000
0000
0000
0002
0000
0000
0000
,  // measure 31
0203
0000
0310
0000
0000
0000
0000
0000
0000
0000
0000
0000
0001
0010
0100
1000
,  // measure 32
0001
0010
0100
1000
0001
0010
0100
1000
0010
0000
0000
0000
2000
0000
0000
0000
,  // measure 33
3002
0000
0003
0000
0101
0000
0000
0000
0000
0000
0000
0000
0001
0010
0100
1000
,  // measure 34
0100
0010
0001
0010
0100
1000
0001
0100
0010
0000
0000
0000
0020
0000
0000
0000
,  // measure 35
0130
0101
0000
0001
0010
0100
2100
0000
,  // measure 36
3010
0102
0013
0120
,  // measure 37
0031
0000
0000
0000
2001
0000
0000
0000
0002
3000
0000
0000
0403
0040
0000
0000
,  // measure 38
0000
0000
0000
0000
0000
0330
0220
0330
,  // measure 39
0000
0010
2010
3000
0000
0100
0110
0010
,  // measure 40
0011
0001
0202
0303
0000
2020
3030
1000
,  // measure 41
0100
0000
0100
0000
0021
0000
0000
0000
0100
0000
0130
0000
1000
0100
1000
0000
,  // measure 42
0001
0010
0001
0000
1000
0100
1000
0000
0001
0000
0001
0000
1000
0000
0100
0000
,  // measure 43
0010
0001
0100
0010
1000
0100
0010
0000
,  // measure 44
0000
0000
0000
0000
0002
0000
0000
0203
0000
0000
0310
0000
2010
0000
0000
0000
,  // measure 45
3200
0320
0032
0203
,  // measure 46
0320
2030
3002
0203
,  // measure 47
0000
0302
0000
2000
,  // measure 48
0010
0000
0010
3003
0000
2010
0000
3100
,  // measure 49
0010
0000
0001
0000
0100
0000
0010
0000
1010
0000
0010
0000
1000
0010
1000
0000
,  // measure 50
0001
0100
0001
0000
1000
0010
1000
0000
0001
0000
0001
0000
0010
0000
0100
0000
,  // measure 51
1000
0010
0100
0001
0020
0000
0130
0000
,  // measure 52
0000
0000
0000
0000
2000
0000
0000
3020
0000
0000
0130
0000
0201
0000
0000
0000
,  // measure 53
0302
0023
0230
2300
,  // measure 54
3020
0000
0230
0000
0301
0001
0012
0000
,  // measure 55
0103
0020
0000
0000
0030
0000
2000
0000
,  // measure 56
3020
0230
0302
0023
,  // measure 57
0100
0001
0100
0001
0100
0100
0000
0100
,  // measure 58
0000
0001
0001
0000
0100
0000
0130
0000
,  // measure 59
0001
0001
0100
0010
1000
2010
3100
0200
,  // measure 60
0310
0020
0031
0002
1003
2000
3001
0000
,  // measure 61
0001
0010
0200
0000
0010
0310
0000
0001
,  // measure 62
0000
0001
0201
0010
0301
0000
0021
0000
,  // measure 63
0130
1000
0020
0100
1000
0130
0000
0101
,  // measure 64
0000
0001
0021
0001
0200
0030
2300
0000
,  // measure 65
3010
0100
0001
0010
0100
0220
0330
0220
,  // measure 66
0330
0000
0100
0000
2200
0000
3300
0000
0012
0000
0003
0000
4000
0040
0000
0000
,  // measure 67
0000
0000
0000
0000
0000
3030
2020
0000
,  // measure 68
0000
0000
0001
0000
0001
3030
1020
0000
,  // measure 69
1030
0001
1000
0010
0100
0202
0303
0202
,  // measure 70
0303
0010
0220
0330
2200
3300
0220
0330
,  // measure 71
0010
0000
0002
0000
0103
0202
0303
0202
,  // measure 72
0303
0010
2020
3030
0202
0303
0120
0130
,  // measure 73
0010
1000
0200
0000
0010
0310
0000
0001
,  // measure 74
0000
0000
0100
0000
0220
0000
0330
0000
0202
0000
0303
0000
0004
0040
0000
0000
,  // measure 75
0000
0000
0000
0000
0000
0033
0022
0000
,  // measure 76
1000
0000
1033
0001
0010
0100
0220
0330
,  // measure 77
2200
3300
1000
0100
0010
0022
0033
0022
,  // measure 78
0033
0000
0100
0000
2200
0000
3300
0000
0202
0000
0303
0000
0001
0100
0010
1000
,  // measure 79
0001
0100
0010
1000
0001
0100
0010
1000
0100
0000
0000
0000
0020
0000
0000
0000
,  // measure 80
0230
0000
0300
0000
1100
0000
0000
0000
0000
0000
0000
0000
1000
0100
0010
0001
,  // measure 81
1000
0100
0010
0001
1000
0010
0100
0001
1000
0000
0000
0000
0200
0000
0000
0000
,  // measure 82
0320
0000
0030
0000
0011
0000
0000
0000
0000
0000
0000
0000
0001
0010
0100
1000
,  // measure 83
0001
0010
0100
1000
0001
0100
0010
1000
0100
0000
0000
0000
0200
0000
0000
0000
,  // measure 84
0310
0011
0000
0001
0100
0010
2010
0000
,  // measure 85
0010
0001
0001
0100
,  // measure 86
0100
0000
0000
0000
0001
0000
0000
0000
0001
0000
0000
0000
0002
3000
4003
0004
,  // measure 87
0000
0000
0000
0000
0000
3003
1001
0000
,  // measure 88
0000
0001
0101
0000
0000
0001
0011
0010
,  // measure 89
0110
0100
1100
0000
0000
2010
0000
3100
,  // measure 90
0010
0000
0010
0000
0012
0000
0000
0000
0103
0000
0100
0000
0010
1000
0010
0000
,  // measure 91
0100
0001
0100
0000
0010
1000
0010
0000
1000
0000
0100
0000
0010
0000
0001
0000
,  // measure 92
1000
0000
0010
0000
0200
0000
0000
0000
0001
0000
0301
0000
0010
0001
0010
0000
,  // measure 93
0100
1000
0100
0000
0010
0001
0010
0000
0100
0000
0100
0000
2000
0000
0000
0000
,  // measure 94
3020
0230
0302
0023
,  // measure 95
0230
2300
3020
0230
,  // measure 96
0000
0302
0000
2000
,  // measure 97
0010
0000
0010
3003
0000
2001
0000
3100
,  // measure 98
0010
0000
0001
0000
0100
0000
0010
0000
1000
0000
1010
0000
1000
0001
1000
0000
,  // measure 99
0010
0100
0010
0000
1000
0001
1000
0000
0100
0000
0010
0000
0001
0000
0001
0000
,  // measure 100
0010
0000
0010
0000
0100
0000
1000
0000
0100
0000
0010
0000
0001
0010
0001
0000
,  // measure 101
1000
0100
1000
0000
0001
0010
0001
0000
1000
0000
0100
0000
0020
0000
0000
0000
,  // measure 102
0032
0203
0320
2030
,  // measure 103
3200
0320
0032
0203
,  // measure 104
0302
0020
0000
0000
0033
0000
0200
0000
,  // measure 105
2300
3020
0230
0302
,  // measure 106
0013
0100
1000
0100
1000
1100
0000
1001
,  // measure 107
0000
0100
0102
0000
2003
3000
1100
0000
,  // measure 108
0010
0001
0010
0020
0030
1100
0000
0101
,  // measure 109
0000
0010
2000
0000
3020
0000
0030
0000
,  // measure 110
0200
0301
0000
0202
0303
0001
0000
0001
,  // measure 111
0000
0010
0210
0000
2300
0000
3001
0202
,  // measure 112
0300
1003
2200
3000
0310
0022
0000
0033
,  // measure 113
1000
0100
0010
0001
1000
0100
0010
0001
2000
0000
3200
0000
0310
0001
0100
0010
,  // measure 114
1000
0100
0010
0001
0200
0000
0010
0310
0000
0100
0001
0010
0100
1000
0010
0100
,  // measure 115
0002
0000
0023
0000
0230
0000
2300
3000
1010
0000
0000
0000
1000
0100
0010
0001
,  // measure 116
1000
0010
0100
0001
0020
0000
0100
0130
0000
0000
1000
0000
0100
0000
0010
0000
,  // measure 117
0002
0013
0020
0130
0200
1300
2000
3010
,  // measure 118
0020
0130
0200
0301
0002
0013
0020
0100
,  // measure 119
0230
0000
4300
0004
0000
0000
0000
0000
0000
0000
0000
0000
0000
0000
3003
0000
,  // measure 120
2002
3003
0000
1000
2200
3300
0000
0010
,  // measure 121
0011
0001
0101
0100
0220
0000
0330
1020
,  // measure 122
0000
1030
0100
0010
0002
0000
0103
0100
,  // measure 123
0001
0010
0100
0000
1000
0010
0100
0000
0001
0010
0100
0000
1000
0000
0010
0000
,  // measure 124
0100
0001
0010
0100
1000
0010
0100
0001
,  // measure 125
0010
0100
1000
0000
0010
0100
0001
0000
0010
0100
1000
0000
0010
0000
0100
0000
,  // measure 126
0002
0023
0230
2300
,  // measure 127
3020
0230
0302
0023
,  // measure 128
0230
0000
2300
0000
,  // measure 129
0002
0000
0010
0000
0010
3003
0000
2001
,  // measure 130
0000
3100
0010
0001
0100
0010
1010
1000
,  // measure 131
1000
0100
0010
0000
0001
0100
0010
0000
1000
0100
0010
0000
0001
0000
0010
0000
,  // measure 132
0100
1000
0010
0000
0010
1000
0100
0010
,  // measure 133
0001
0010
0100
0000
1000
0010
0100
0000
0001
0010
0100
0000
1000
0000
0010
0000
,  // measure 134
0200
0302
0023
0230
,  // measure 135
2300
0000
3020
0000
0230
0000
0301
0010
,  // measure 136
0200
0000
2300
0020
0000
0000
3030
0000
,  // measure 137
0200
0302
0023
0230
,  // measure 138
2000
0000
0000
0000
,  // measure 139
0000
0000
0000
3300
,  // measure 140
1100
0000
1000
0100
0010
0001
0010
0011
,  // measure 141
0000
0022
0033
0010
0100
0000
1100
0000
,  // measure 142
0220
0330
0001
0010
0100
0010
0001
0220
,  // measure 143
0330
0220
0330
0100
2200
3300
0022
0033
,  // measure 144
0011
0002
0003
0001
0022
0033
0010
0100
,  // measure 145
0110
0200
0300
0100
0220
0330
0100
1000
,  // measure 146
1100
0200
0300
0010
0220
0330
0100
2002
,  // measure 147
0000
3003
0000
0000
0000
0000
0000
0000
;

//---------------dance-single - AceOfHearts----------------
#NOTES:
     dance-single:
     Ace Of Hearts (2008):
     Hard:
     8:
     1.000,0.209,0.333,1.000,0.081:
0000
0000
0000
0000
,
0000
0000
0000
0000
,
0000
0000
0000
0000
,
0000
0000
0000
0000
0000
0000
0001
0002
,
0003
0010
0020
0030
0100
0200
0300
1000
,
2000
0000
3000
0000
0020
0000
0030
0000
0220
0000
0330
0000
4000
0004
0000
0000
,
0000
0000
3003
0001
0010
0100
1100
0000
,
0000
0010
0110
0000
0000
0011
0000
0011
,
0000
0010
0200
0300
2000
3000
1100
0000
,
1000
0100
0010
0001
0010
0011
0000
0011
,
0000
0010
0200
0300
2000
3000
0200
0300
,
0010
0001
0020
0000
0031
0100
0000
0100
,
0000
0100
0001
0000
0101
0000
0002
0000
,
0013
0100
2000
0000
3100
0020
0000
0130
,
0000
0100
1000
0100
1000
0100
0010
0001
,
0010
0001
2000
0000
3010
0100
0000
0100
,
0000
0000
0001
0000
1000
0000
0100
0000
1000
0000
0100
0000
4000
0400
0000
0000
,
0000
0000
3300
2000
,
0000
0000
0100
0000
3100
0000
0020
0030
,
0001
0100
0001
0100
0001
2000
3000
2000
,
3000
0010
0200
0300
0200
0300
0002
0003
,
1000
0100
0010
0001
0010
0200
0300
0200
,
0300
0010
0001
1000
0001
1000
0010
0100
,
0010
0100
0001
1000
0001
0020
0030
0020
,
0030
0000
0001
0000
0200
0000
0000
0000
0310
0000
0000
0000
0400
0004
0000
0000
,
0000
0000
0303
0002
,
1000
0000
1003
0010
0100
0001
0002
0000
,
0103
0010
0100
0001
1000
0020
0030
0020
,
0030
0100
0002
0003
0002
0000
2003
0000
,
0000
3100
0020
0000
0032
0000
0023
0000
,
0230
0310
0000
0000
0000
0000
0002
0000
,
0000
0103
0020
0000
2030
0000
3020
0000
,
0230
0301
0000
0020
,
0000
0130
2000
0000
3020
0000
0230
0000
,
0301
0101
0000
1000
0100
0010
0001
0000
,
0002
0003
0010
0000
0020
0030
0100
0000
,
0200
0300
1000
0000
2000
3000
2002
0000
,
0000
0000
3003
1000
0100
0010
0011
0000
,
0000
1000
1100
0000
0000
0010
0001
0010
,
0100
0010
0001
0000
0000
2000
3000
0100
,
0010
0001
0200
0000
0010
0310
0000
0000
,
0000
0000
0000
1000
0010
0100
0001
0010
,
0100
1000
0100
0010
0001
0100
0010
0000
,
0000
0000
0000
0000
2000
0000
0000
3200
0000
0000
0310
0000
0002
0000
0000
0000
,
0023
0230
2300
3200
,
0320
0032
2003
3020
,
0000
0230
0000
0302
,
0010
0000
0013
0000
0000
0020
0000
0130
,
1000
0001
0100
0010
1000
0010
0200
0000
,
0300
0000
0000
0000
0001
0100
0001
1000
,
0001
0010
0100
1000
0020
0000
0130
0000
,
0000
0000
0000
0000
0002
0000
0000
0023
0000
0000
0130
0000
2000
0000
0000
0000
,
3200
0320
0032
2003
,
3020
0000
0230
0000
0301
1000
0002
0000
,
0103
0020
0000
0000
0030
0000
2000
0000
,
3200
0000
0320
0000
0032
0003
0011
0000
,
1000
0100
0010
0001
0010
0001
0000
0001
,
0000
0010
0200
0000
2300
0000
3001
0000
,
0001
0010
0001
0010
0001
0010
0100
0020
,
0130
0020
0130
0020
0130
0020
0130
0000
,
1000
0100
0020
0000
0001
0031
0000
0001
,
0000
0001
0010
0100
1000
0000
0020
0000
,
0130
0001
1000
0010
0100
0001
0000
0101
,
0000
0001
0020
0130
1000
0000
2000
0000
,
3001
0010
0100
1000
0001
0200
0300
0200
,
0300
0000
0100
0000
0002
0000
0003
0000
0020
0000
0030
0000
0004
0040
0000
0000
,
0000
0000
0033
0002
,
0000
0100
0103
0200
,
0310
1000
0001
0100
0010
1000
0000
2000
,
3000
0100
0010
0000
0020
0030
0010
0000
,
0100
0000
1000
0000
0001
0100
0000
0101
,
0000
0010
1010
0000
0101
0000
0010
1000
,
0010
1000
0200
0000
0010
0310
0000
0001
,
0000
0000
0100
0000
0020
0000
0030
0000
2000
0000
3000
0000
4000
0040
0000
0000
,
0000
0000
3030
2000
,
0100
0000
3100
0010
0100
0010
0002
0000
,
0200
0303
0010
1000
0010
1000
0000
2000
,
3000
0100
0020
0030
0002
0000
2003
0000
,
0000
3010
0200
0000
0302
0000
0023
0000
,
0230
0300
1100
0000
0000
0000
2000
0000
,
0000
3001
0200
0000
0320
0000
0230
0000
,
0302
0003
0101
0000
0000
0000
0002
0000
,
0000
0013
0200
0000
2300
0000
3200
0000
,
0310
0110
0000
0010
0001
0100
0020
0000
,
1000
0100
1000
0100
,
1000
0100
1000
0200
,
0000
0000
0330
0100
0001
0100
0101
0000
,
0000
1000
1010
0000
0000
1000
1100
0000
,
0110
0000
0022
0033
0000
0002
0000
0103
,
0010
1000
0200
0000
0010
0310
0000
0000
,
0000
0000
0000
0010
0001
1000
0010
0100
,
0001
0010
0200
0000
1000
1300
0000
0000
,
0000
0000
0000
0000
2000
0000
0000
3010
0000
0000
0100
0000
0002
0000
0000
0000
,
0023
0230
2300
3020
,
0230
0302
0023
0230
,
0000
2300
0000
3020
,
0100
0000
0130
0000
0000
0002
0000
0103
,
0010
1000
0020
0000
1000
1030
0000
0000
,
0000
0000
0000
1000
0100
0010
0001
0001
,
0010
0100
1000
1000
0010
0010
0100
0000
,
0000
0000
0000
0000
0002
0000
0000
1003
0000
0000
0010
0000
0200
0000
0000
0000
,
0302
0023
0230
2300
,
3200
0320
0032
0203
,
0302
2000
0000
0000
3003
0000
0002
0000
,
0023
0230
2300
3020
,
0130
0001
0010
0100
1000
0020
0030
0010
,
0000
0100
0002
0000
0013
0000
0020
0000
,
0130
1000
0001
2000
0000
3001
0000
0001
,
0000
0001
0020
0000
0230
0000
0300
0000
,
2000
3001
0000
0101
0000
0001
0000
0010
,
0000
0010
0200
0000
1300
0000
0010
0020
,
0030
0100
0200
0300
0001
0002
0000
0003
,
0000
0000
0000
0000
0000
0000
0000
0001
2000
3000
0200
0300
0020
0000
0030
0001
,
0020
0030
0200
0300
2000
0000
0001
3001
0000
0000
0000
0000
0002
0000
0003
0010
,
0200
0300
2000
3000
0020
0030
0200
0300
0001
0000
0000
0000
0002
0000
0003
1000
,
0200
0300
0020
0030
0002
0000
1000
1003
0000
0000
1000
0000
0100
0000
0010
0000
,
0002
0013
0020
0130
,
0200
1300
2000
0001
,
0002
0000
0000
0000
3003
1000
0100
0010
,
0022
0033
0000
1000
2200
3300
0000
0010
,
0022
0033
0220
0330
2200
3300
0000
2000
,
3000
1000
0100
0010
0002
0000
0100
0103
,
0000
0000
0000
0000
0000
0010
1000
0010
,
0100
0001
0100
0001
0010
0100
1000
0100
,
1000
0000
0000
0000
0000
0000
0000
0000
0002
0000
0000
0203
0000
0000
0310
0000
,
2000
3200
0320
0032
,
2003
3020
0230
0302
,
0023
0000
0230
0000
,
2300
0000
0010
0000
3010
0000
0000
0102
,
0000
0013
0100
1000
0010
0100
0001
0020
,
0200
0330
0000
0000
0000
1000
0001
0010
,
0100
1000
0010
0000
0010
1000
0010
0100
,
0001
0000
0000
0000
0000
0000
0000
0000
0002
0000
0000
2003
0000
0000
3010
0000
,
0200
0302
2003
3020
,
2030
0000
3002
0000
0203
0000
0310
1000
,
0200
0000
0310
0002
0000
0000
0003
0000
,
0002
2003
3200
0320
,
0002
0000
0000
0000
,
0000
0000
0000
0033
,
1100
0000
1000
0100
0010
0001
0010
0001
,
0000
0002
0003
0010
0100
0000
1000
0000
,
2000
3000
0100
0010
0001
0010
0100
1000
,
0000
2000
3000
0100
0020
0030
0200
0300
,
1000
0020
0030
0010
2000
3000
0001
0100
,
0001
0200
0300
0100
0002
0003
1000
0010
,
0010
0200
0300
0100
0020
0030
0100
0220
,
0000
0330
0000
0000
0000
0000
0000
0000
;

//---------------dance-single - Medium----------------
#NOTES:
     dance-single:
     Ace Of Hearts (2008):
     Medium:
     6:
     1.000,0.209,0.238,1.000,0.057:
0000
0000
0000
0000
,
0000
0000
0000
0000
,
0000
0000
0000
0000
,
0000
0000
0000
0000
0000
0000
0001
0002
,
0003
0010
0020
0030
0100
0200
0300
1000
,
2000
3000
1001
0000
1001
0000
0000
0020
,
0000
0000
0000
0030
1000
0001
1000
0000
,
0000
0100
0010
0000
0000
0001
0000
0001
,
0000
1000
0100
0000
0110
0000
0001
0000
,
1000
0100
1000
0000
0000
0101
0000
0101
,
0000
0010
1000
0000
1010
0000
1000
0000
,
0001
0100
0002
0000
1003
0100
0000
0000
,
0000
0020
0031
0100
,
0001
1000
0002
0000
1003
0010
0000
0000
,
0000
0000
0100
0010
0100
0000
0001
0100
,
0001
0000
2000
0000
3001
0100
0000
0000
,
0000
0000
0001
1000
0001
0000
0200
0000
,
0000
0000
0000
0300
,
0000
0010
0010
0200
,
0301
0000
1000
0100
1000
0100
0000
0000
,
0000
0000
0010
0000
0001
0000
0100
0010
,
0100
0000
0001
0100
0001
0100
0000
0000
,
0000
0000
0001
1000
0001
0000
0010
0100
,
0010
0000
0001
0010
0001
0010
0000
0000
,
0000
0000
0001
0100
0001
0000
0020
0000
,
0000
0000
0000
0030
,
0100
0000
0100
1000
0100
1000
0002
0000
,
0200
0303
0000
0000
,
0000
0010
2000
0000
3002
0000
0203
0000
,
0000
0302
2003
0000
3002
0000
0203
0000
,
0301
1000
0000
0000
0000
0000
0020
0000
,
0000
0130
0002
0000
0203
0000
0302
0000
,
2003
3100
0000
0020
,
0000
0031
2000
0000
3200
0000
0320
0000
,
0031
0001
0000
1000
0100
0010
0001
0000
,
0002
0003
0010
0000
0020
0030
0100
0000
,
0200
0300
1000
0000
2000
0000
0002
0000
,
0000
0000
3003
1000
0100
1000
0100
0000
,
0000
1000
1001
0000
0000
0001
0200
0300
,
0020
0030
0200
0300
0000
0002
0000
1003
,
0100
1000
0200
0000
0310
0010
0000
0000
,
0000
0000
0000
0001
1000
0001
0100
0000
,
0001
0010
0001
0000
1000
0100
1000
0000
,
0000
0000
0000
0000
2000
0000
0000
3100
0000
0000
0010
0000
0001
0000
0000
0000
,
0100
0010
1000
0001
,
0010
0100
1000
0020
,
0030
0200
0300
0110
,
1001
0000
1001
0000
0000
0002
0000
0103
,
0001
1000
0200
0000
1300
0001
2000
3000
,
0000
0000
0000
0001
1000
0001
0100
0000
,
0010
0000
1000
0100
1000
0000
0001
0000
,
0000
0000
0000
0000
0200
0000
0000
0310
0000
0000
1000
0000
0001
0000
0000
0000
,
0100
0010
1000
0100
,
0010
0000
0001
0000
0100
0010
0200
0000
,
0001
0002
0000
0000
0303
0000
0002
0000
,
0023
0230
0320
0002
,
0000
0000
0000
0000
,
0000
0000
0033
1100
,
0100
0010
0100
0000
0000
1000
0000
0000
,
0200
0320
0032
1003
,
0100
0010
0100
0000
0010
0001
0000
0000
,
0000
0001
0100
0001
,
1000
0010
2000
0000
3001
0100
0000
0000
,
0000
0000
0010
0100
0010
0000
0100
0001
,
0100
0000
0010
0000
0100
0001
0000
0000
,
0000
1000
0010
0200
,
0000
0000
0000
0300
,
0000
0010
0010
0100
,
0001
0000
1000
0000
0100
0100
0000
0000
,
0000
1000
0010
0100
,
0001
0000
0010
0000
0100
0100
0000
0000
,
1000
0001
1000
0001
0000
0000
0100
0001
,
0100
0000
0010
0000
1000
0010
0000
0000
,
0000
1000
0001
0020
,
0000
0000
0000
0030
,
0100
0000
0100
1000
0001
1000
0200
0000
,
0020
0330
0000
0000
,
0000
0001
2000
0000
3010
0000
0200
0000
,
0300
0001
2000
0000
3100
0000
0200
0000
,
1300
0001
0000
0200
,
0000
0301
2000
0000
3010
0000
0200
0000
,
0302
0013
0000
0210
,
0000
1300
0001
0000
0100
0000
0010
0000
,
1000
0100
0000
0010
0001
0010
0001
0000
,
0002
0013
0020
0130
,
0200
1300
2000
0002
,
0000
0000
3003
0001
0100
0001
0100
0000
,
0000
0010
1000
0000
0000
0100
0020
0000
,
0230
0000
2000
0000
3300
0002
0000
0103
,
0010
0100
0020
0000
1000
1030
0000
0000
,
0000
0000
0000
0000
0100
0010
0100
0000
,
1000
0100
1000
0000
0001
0100
0000
0000
,
0000
0000
0000
0000
0002
0000
0000
0013
0000
0000
0100
0000
2000
0000
3000
0000
,
1000
0000
0020
0030
0010
0000
0200
0300
,
0100
0000
0002
0003
0001
0000
2000
0000
,
3000
0002
0003
0100
,
1001
0000
1001
0000
0000
2000
0000
3100
,
1000
0100
2000
0000
0001
3001
0000
0000
,
0000
0000
0000
0000
0010
0100
0010
0000
,
0001
0100
0001
0000
1000
0100
1000
0000
,
0000
0000
0000
0000
0002
0000
0000
0103
0000
0000
0010
0000
0200
0000
0000
0000
,
0301
2000
3100
0020
,
0031
0100
0010
1000
,
0002
0200
0000
0000
0303
0000
0020
0000
,
1030
0002
0203
0020
,
0000
0000
0000
0000
,
0000
0000
0330
0010
,
0100
0001
1000
2000
0000
3001
0000
0001
,
0000
0010
0200
0000
0020
0330
0000
0000
,
0002
0103
0000
1010
0000
0010
0000
0010
,
0000
0010
2000
0000
0200
3300
0010
0020
,
0030
0100
0200
0300
0010
0020
0000
0000
,
0030
0000
0000
0000
0000
0000
0000
0100
0020
0000
0031
0000
2000
0000
0000
3010
,
0200
0000
0301
0000
2000
0000
0100
3100
0000
0000
0000
0000
2000
0000
0000
3001
,
0200
0000
0301
0000
2000
0000
3200
0000
0310
0000
0000
0000
0020
0000
0000
0031
,
0020
0000
0130
0000
2000
0000
0010
3010
0000
0000
1000
0000
0001
0000
1000
0000
,
0020
0230
0320
0230
,
0302
2003
3002
2003
,
0200
0000
0000
0000
3300
1000
0100
0010
,
0011
0000
0000
1000
1100
0000
0000
0010
,
0022
0033
0220
0330
2200
3300
0000
2000
,
0000
3010
0100
0010
0200
0000
0001
0002
,
0000
0303
0000
0000
0000
1000
0010
1000
,
0001
0100
0001
0100
0002
0000
1003
0001
,
1000
0000
0000
0000
0000
0000
0000
0000
0020
0000
0000
0130
0000
0000
0001
0000
,
2000
3020
0230
0302
,
0023
0230
2300
3002
,
0203
0000
0302
0000
,
1003
0000
0110
0000
0110
0000
0000
0002
,
0000
1003
0010
1000
0020
0000
0130
0001
,
0200
0000
0300
0000
0000
0001
1000
0001
,
0100
0010
0200
0000
0301
0100
0002
0000
,
1003
0000
0000
0000
0000
0000
0000
0000
0002
0000
0000
0103
0000
0000
0010
0000
,
0200
0302
0023
0230
,
2300
0000
3020
0000
0230
0000
0301
0100
,
0002
0000
0023
0002
0000
0000
0033
0000
,
0002
0203
0320
2030
,
0020
0000
0000
0000
,
0000
0000
0000
3030
,
1010
0000
0010
0100
0010
0100
0010
0100
,
0000
0100
0000
0001
2000
0000
3100
0000
,
0110
0000
0010
0001
0010
0001
0010
0001
,
0000
0001
0000
0100
0020
0000
0130
0000
,
0010
0020
0000
0130
0200
0000
0301
1000
,
0001
0002
0000
1003
2000
0000
3010
0100
,
0010
0020
0000
1030
2000
3000
0001
2002
,
0000
3003
0000
0000
0000
0000
0000
0000
;

//---------------dance-single - Easy----------------
#NOTES:
     dance-single:
     Ace Of Hearts (2008):
     Easy:
     3:
     0.448,0.070,0.152,0.352,0.000:
0000
0000
0000
0000
,
0000
0000
0000
0000
,
0000
0000
0000
0000
,
0000
0000
0000
0001
,
0000
0000
0010
0000
0000
0100
0000
0000
,
0000
1000
0000
0020
,
0000
0000
0000
0030
,
0000
0100
0000
0001
,
0001
0001
0000
0010
,
0000
0100
0000
1000
,
1000
1000
0000
0001
,
0001
0001
0000
0100
,
0000
0000
0000
0100
,
0100
0100
0000
0001
,
0000
0000
0000
0010
,
0010
0010
0000
1000
,
0000
0000
0000
0200
,
0000
0000
0000
0300
,
0000
0000
0000
1000
,
0000
0010
0000
1000
,
1000
1000
0000
0001
,
0000
0010
0000
0001
,
0001
0001
0000
1000
,
0000
0010
0000
0100
,
0100
0100
0000
0020
,
0000
0000
0000
0030
,
0000
0000
0000
0100
,
0000
0001
0000
0100
,
0100
0100
0000
0002
,
0000
0000
0000
1003
,
0000
1000
0000
2000
,
0000
0000
0000
3001
,
0000
0001
0000
0200
,
0000
0000
0000
0301
,
0000
0001
0000
0010
,
0010
0010
0000
0100
,
0100
0100
0000
2000
,
0000
0000
0000
3000
,
0000
0001
0000
2002
,
0000
3003
0000
0100
,
0000
0100
0000
0100
,
0000
0000
0000
0010
,
0000
0010
0000
0010
,
0000
0000
0000
0001
,
0000
0001
0000
0001
,
0000
0000
0000
1000
,
0000
0001
0000
1000
,
1001
1001
0000
0010
,
0000
0010
0000
0200
,
0000
0300
0000
0001
,
0000
0001
0000
1000
,
0000
0000
0000
0100
,
0000
0100
0000
0010
,
0000
0010
0000
0002
,
0000
0003
0000
1000
,
1000
1000
0000
0020
,
0000
0000
0000
0000
,
0000
0030
0000
0100
,
0000
0010
0000
0110
,
0000
0000
0000
1000
,
1000
1000
0000
0100
,
0000
0010
0000
0001
,
0001
0001
0000
0100
,
0000
0020
0030
0100
,
0100
0100
0000
0001
,
0000
1000
0000
0200
,
0000
0000
0000
0300
,
0000
0010
0010
0010
,
0000
0001
0000
1000
,
1000
1000
0000
0010
,
0000
0100
0000
0001
,
0001
0001
0000
0010
,
0000
0100
0000
0010
,
0010
0010
0000
0002
,
0000
0000
0000
0003
,
0000
0000
1000
1000
,
1000
0000
0000
0000
,
0000
0001
0000
2000
,
0000
0001
0000
3001
,
0000
0000
0000
0002
,
0000
1000
0000
1003
,
0000
0000
0000
0200
,
0000
0010
0000
0310
,
0000
0000
0000
0010
,
0010
0010
0000
0100
,
0100
0100
0000
2000
,
0000
0000
0000
3000
,
0000
1001
0000
0220
,
0000
0330
0000
0001
,
0000
0001
0000
1000
,
0000
0000
0000
0100
,
0000
0100
0000
0010
,
0000
0000
0000
0001
,
0000
0001
0000
1000
,
0000
1000
0000
2000
,
0000
3002
0000
1003
,
1001
1001
0000
0100
,
0000
0100
0000
0100
,
0000
0000
0000
0001
,
0000
0001
0000
0001
,
0000
0000
0000
0100
,
0000
0100
0000
0100
,
0000
0000
0000
0002
,
0000
0000
0003
1000
,
1000
1000
0000
0020
,
0000
0000
0000
0000
,
0000
0030
0000
0100
,
0100
0000
0100
0000
0000
0001
0000
0001
,
0000
1000
0000
0000
,
0002
0003
0000
1000
0000
0001
0000
0001
,
0000
1000
0000
0010
,
0000
0000
0100
0000
0000
0020
0000
0000
,
0030
0000
0000
1000
,
0001
0000
1000
1000
1000
0000
0001
0000
,
0010
0000
0001
0001
0001
0000
0010
0000
,
0100
0000
0010
0010
0010
0000
0000
0000
,
0001
0000
1000
0000
,
0010
0000
1000
0000
,
0200
0000
0000
0300
,
1001
0000
0110
0000
,
1001
1001
1001
0000
,
0001
0000
1000
0000
,
0001
0000
0000
0000
,
0100
0000
0010
0000
,
0100
0000
0000
0000
,
0001
0010
0001
0000
,
1000
0100
1000
0000
,
0002
0000
2003
0000
,
3001
0110
0110
0000
,
0001
0000
0100
0000
,
0001
0000
0000
0000
,
1000
0000
0010
0000
,
1000
0000
0000
0000
,
0010
0010
0010
0000
,
0100
0100
0100
0000
,
0002
0000
0003
0000
,
1000
0001
1000
0001
,
0020
0000
0000
0000
,
0000
0000
0000
0030
,
0001
0000
0001
0000
0001
0000
0000
1000
,
0000
0000
0100
0000
,
0010
0000
0010
0000
0010
0000
0000
0001
,
0000
0000
0100
0000
,
0002
0000
1003
0001
,
0002
0000
1003
0010
,
0020
0000
0000
0000
0130
0000
0000
2002
,
0000
3003
0000
0000
0000
0000
0000
0000
;

//---------------dance-single - Novice----------------
#NOTES:
     dance-single:
     Ace Of Hearts (2008):
     Beginner:
     1:
     0.249,0.069,0.076,0.133,0.000:
0000
0000
0000
0000
,
0000
0000
0000
0000
,
0000
0000
0000
0000
,
0000
0000
0000
0010
,
0000
0000
0000
0000
,
0000
0100
0000
0000
,
0000
0000
0000
1000
,
0000
0000
0000
1000
,
0000
0000
0000
0001
,
0000
0000
0000
0001
,
0000
0000
0000
1000
,
0000
0000
0000
0000
,
0000
0000
0000
1000
,
0000
0000
0000
0000
,
0000
0000
0000
1000
,
0000
0000
0000
0000
,
0000
0000
0000
0020
,
0000
0000
0000
0030
,
0000
0000
0000
0100
,
0000
0000
0000
0000
,
0000
0000
0000
0010
,
0000
0000
0000
0000
,
0000
0000
0000
0100
,
0000
0000
0000
0000
,
0000
0000
0000
0020
,
0000
0000
0000
0030
,
0000
0000
0000
0010
,
0000
0000
0000
0000
,
0000
0000
0000
1000
,
0000
0000
0000
1000
,
0000
0000
0000
0001
,
0000
0000
0000
0001
,
0000
0000
0000
0010
,
0000
0000
0000
0010
,
0000
0000
0000
0100
,
0000
0100
0000
0100
,
0000
0100
0000
0200
,
0000
0000
0000
0300
,
0000
0010
0000
1001
,
0000
0000
0000
0001
,
0000
0000
0000
0000
,
0000
0000
0000
1000
,
0000
0000
0000
0000
,
0000
0000
0000
0010
,
0000
0000
0000
0000
,
0000
0000
0000
0100
,
0000
0000
0000
0000
,
0000
0000
0000
0001
,
0000
0000
0000
0000
,
0000
0000
0000
1000
,
0000
0000
0000
0000
,
0000
0000
0000
0010
,
0000
0000
0000
0010
,
0000
0000
0000
0010
,
0000
0000
0000
1000
,
0000
1000
0000
2000
,
0000
0000
0000
0000
,
0000
3000
0000
0001
,
0000
1000
0000
1001
,
0000
0000
0000
0001
,
0000
0001
0000
0001
,
0000
0000
0000
1000
,
0000
1000
0000
1000
,
0000
0000
0000
0100
,
0000
0100
0000
0100
,
0000
0000
0000
0002
,
0000
0000
0000
0003
,
0000
0000
0000
0001
,
0000
0001
0000
0001
,
0000
0000
0000
0100
,
0000
0100
0000
0100
,
0000
0000
0000
0010
,
0000
0010
0000
0010
,
0000
0000
0000
0200
,
0000
0000
0000
0300
,
0000
0000
0000
0010
,
0000
0000
0000
0000
,
0000
0000
0000
0002
,
0000
0000
0000
1000
,
0000
1003
0000
2000
,
0000
0000
0000
0001
,
0000
3001
0000
0200
,
0000
0000
0000
0010
,
0000
0310
0000
1000
,
0000
0000
0000
0001
,
0000
0000
0000
0200
,
0000
0000
0000
0300
,
0000
0001
0000
0110
,
0000
0000
0000
1000
,
0000
1000
0000
1000
,
0000
0000
0000
0001
,
0000
0001
0000
0001
,
0000
0000
0000
0100
,
0000
0000
0000
0010
,
0000
0000
0000
1000
,
0000
1000
0000
1000
,
0000
1001
0000
0001
,
0000
0001
0000
0001
,
0000
0000
0000
0100
,
0000
0100
0000
0100
,
0000
0000
0000
0010
,
0000
0000
0000
1000
,
0000
0000
0000
0001
,
0000
0000
0000
0010
,
0000
0010
0000
0020
,
0000
0000
0000
0000
,
0000
0030
0000
0001
,
0000
0001
0000
0000
,
0000
0000
0000
0000
,
0110
0000
0000
0000
,
0000
0000
0000
1000
,
0000
0000
0001
0000
0000
1000
0000
0000
,
0000
0000
0000
1000
,
1000
1000
0000
0001
,
0001
0001
0000
0100
,
0100
0100
0000
0000
,
0010
0000
0010
0000
,
0100
0000
0100
0000
,
0200
0000
0000
0300
,
0110
0000
1001
0000
,
0010
0010
0010
0000
,
1000
0000
1000
0000
,
1000
0000
0000
0000
,
0001
0000
0001
0000
,
0001
0000
0000
0000
,
0100
0000
0000
0000
,
0001
0000
0000
0000
,
1000
0000
1000
0000
,
2000
0001
3001
0000
,
0010
0000
0010
0000
,
0010
0000
0000
0000
,
0100
0000
0100
0000
,
0100
0000
0000
0000
,
0001
0000
0000
0000
,
1000
0000
0000
0000
,
0100
0000
0000
0000
,
0010
0000
0010
0000
,
0002
0000
0000
0000
,
0000
0000
0000
0003
,
1000
0000
0000
0000
,
0000
0000
0000
0000
,
0001
0000
0000
0000
,
0000
0000
0000
0000
,
0100
0000
0010
0000
,
0100
0000
0010
0000
,
1000
0000
0000
0000
0001
0000
0000
1001
;
