#TITLE:Bouken Desho Desho;
#SUBTITLE:(English Fandub);
#ARTIST:Cristina Vee;
#TITLETRANSLIT:;
#SUBTITLETRANSLIT:;
#ARTISTTRANSLIT:;
#GENRE:J-Pop;
#CREDIT:Ace Of Hearts;
#BANNER:Bouken Desho Desho (English Fandub) - Bn.png;
#BACKGROUND:The Melancholy of Haruhi Suzumiya Title.jpg;
#LYRICSPATH:Bouken Desho Desho (English Fandub) Lyrics.lrc;
#CDTITLE:Ace Of Hearts.png;
#MUSIC:Bouken Desho Desho (English Fandub).ogg;
#OFFSET:-1.495;
#SAMPLESTART:31.842;
#SAMPLELENGTH:20.180;
#SELECTABLE:YES;
#BPMS:0.000=75.010,12.000=150.030;
#STOPS:;
#BGCHANGES:0.000=Bouken Desho Desho Video.avi=1.000=1=0=0=StretchNoLoop==CrossFade==,
204.000=Bouken Desho Desho Ending.jpg=1.000=1=0=1===CrossFade==,
99999=-nosongbg-=1.000=0=0=0 // don't automatically add -songbackground-
;
#KEYSOUNDS:;

//---------------dance-single - Hard----------------
#NOTES:
     dance-single:
     Ace Of Hearts (2008):
     Hard:
     7:
     0.467,0.436,0.168,0.681,0.047:
0000
0000
0000
0000
0000
0000
0000
0000
0000
0000
0000
0000
0000
0000
0000
0001
,
1000
0010
0000
0020
0000
0130
0001
1000
0002
0000
0013
0200
0000
1000
0310
0100
,
0004
0000
0000
0003
,
1001
0000
1000
1000
1000
0100
0010
0011
,
0000
0001
0000
0101
0000
0020
0000
0030
,
0110
0000
0001
0001
0001
0100
0010
1010
,
0000
1000
0000
1100
0000
0010
0000
0000
,
0002
0000
0000
0000
0000
0000
0000
0000
4003
0040
0000
0000
0000
0000
0000
0000
,
3030
0000
2000
0000
3001
1000
0100
0040
,
0000
0030
0000
0002
0000
1003
0100
1000
,
0020
0000
0130
0000
0001
1000
0100
0020
,
0000
0130
1000
0002
0000
0020
0000
0000
,
0033
0000
0002
0000
1003
0100
0010
0004
,
0000
0003
0000
2000
0000
3001
0001
1000
,
0200
0000
2300
0000
3001
0100
0000
0010
,
0000
1000
0100
0012
0000
1003
0100
0000
,
0020
0000
0000
0000
0230
0000
0300
1001
,
0000
1000
0001
0100
0001
0100
0000
0002
,
0000
1003
0100
0000
1000
0010
0000
0200
,
0000
0301
0010
0210
0000
1000
1300
0000
,
0021
0000
0000
0000
0230
0000
0300
1100
,
0000
1000
0010
0100
0010
0100
0001
1000
,
0000
0100
0010
0001
0000
1000
0001
0010
,
0000
0000
0001
2000
0000
3010
0100
0002
,
0000
0000
0000
0000
0000
1003
0010
0200
,
0000
0000
0300
0002
0000
1003
0100
0010
,
0002
0000
0103
0000
0020
0000
0130
0002
,
0000
1003
0100
0020
0000
0130
1000
0001
,
0000
0000
2000
0000
3002
0000
1003
0200
,
0000
1300
0001
0010
0000
0001
1000
0100
,
0020
0000
0130
0000
2000
0000
3001
0020
,
0000
0031
1000
0020
0000
1030
0001
0100
,
0000
0000
0002
0000
1003
0001
0010
0200
,
0000
2300
0000
3002
0000
0203
0000
0000
,
0300
0000
0001
0000
0020
0000
0031
1000
,
0000
0100
1000
0001
0000
0020
0000
0030
,
0000
0001
0100
0000
0020
0000
1030
0002
,
0000
2003
0000
3020
0000
0130
0000
0101
,
0000
0000
0002
0000
1003
0001
1000
0020
,
0000
1030
0100
0010
0000
0001
1000
0010
,
1010
1000
0100
0010
0001
1000
1001
0001
,
0100
0001
0000
1000
0002
0000
0103
0000
,
0020
0000
0000
0000
,
0030
2000
3200
0320
,
0032
0000
1003
1000
1000
0001
0010
0011
,
0000
0001
0020
0000
0032
0000
2003
0000
,
3200
0000
1300
1000
1000
0100
0010
0011
,
0000
0001
2000
0000
3200
0000
0320
0000
,
0034
0000
0000
0000
,
0000
0000
0023
0000
,
0000
0000
0000
0000
,
0000
0000
0000
0000
,
0030
0000
0000
0000
;

//---------------dance-single - Expert----------------
#NOTES:
     dance-single:
     Ace Of Hearts (2008):
     Challenge:
     9:
     0.626,0.627,0.629,0.786,0.157:
0002
0000
0000
0000
0000
0000
0000
0000
2003
0000
0000
0000
3020
0000
0000
1030
,
0200
1300
0000
2000
0000
3010
0100
0001
2000
0000
3010
0200
0000
0301
0010
0001
,
0400
0000
0000
0000
0000
0000
0000
0000
0000
0000
0000
0000
0000
0000
0000
0000
0000
0000
0000
0000
0000
0000
0000
0000
0301
0010
0001
0010
0001
1000
0100
0010
,
0001
0000
1000
1000
1000
0001
0010
0110
,
0MM0
1000
0000
0101
0M0M
0020
0000
0030
,
0110
0000
0001
0001
0001
0100
0010
1010
,
M0M0
0100
0000
1100
MM00
0002
0000
0003
,
0200
0000
0000
0000
0000
0000
0000
0000
0301
1000
0001
1000
0100
0010
0001
1000
,
0010
0000
2000
0000
3001
0100
0001
0040
,
0000
0031
0001
2000
0000
3001
0100
1000
,
0100
0001
2000
0000
3001
0010
0100
2000
,
0000
3010
0100
0001
0000
1000
1000
0001
,
0201
0000
0320
0000
1030
0100
0010
0004
,
0000
1003
1000
0020
0000
0130
0001
1000
,
1100
MM00
0011
00MM
1001
0200
0000
0302
,
0000
1003
0100
M12M
0000
0031
0100
0000
,
2010
0000
3001
0010
0200
1000
1300
1002
,
0000
0103
0010
0100
0001
1000
0100
0210
,
0000
1300
0001
0000
1000
0010
0000
0210
,
0000
0301
0010
0210
0000
1300
0001
0000
,
0102
0000
1003
0010
0200
0001
0301
1001
,
0000
0001
0010
0100
0010
0001
1000
2010
,
0000
3001
0100
0210
0000
0301
1000
1010
,
0000
M0M0
0000
0000
0001
0000
0102
0000
0000
0000
0013
0000
0100
0000
4100
0000
,
0000
0000
0000
0000
3000
0001
0010
0210
,
0000
0000
0300
2100
0000
3001
0100
0001
,
0021
0000
0130
0000
2100
0000
3001
0201
,
0000
0310
0100
0102
0000
1003
0010
0100
,
0101
0M0M
1020
0000
0230
0000
0301
0021
,
0000
0130
1000
1001
0000
1000
0100
0010
,
0021
0000
0130
0000
2001
0000
3001
0020
,
0000
0130
0010
0012
0000
1003
0010
0100
,
0110
0MM0
2001
0000
3100
0010
0001
2001
,
0000
0000
3020
0000
0100
0030
0102
0000
0000
0000
1003
0100
0010
0001
0010
0100
,
1000
0000
0002
0000
2003
0000
3001
0200
,
0000
0301
1000
0001
00MM
0024
0000
0033
,
0011
0001
1000
0000
1010
M0M0
0100
1002
,
0000
M000
0203
0000
0000
0300
0210
0000
0000
00M0
0302
0000
0000
0003
0101
0000
,
0000
0000
0002
0000
1003
0001
0100
0021
,
0000
0130
1000
2002
3003
0001
0100
0010
,
1020
0130
0001
2001
3100
0010
0012
1003
,
0010
0110
0M00
0100
0102
0000
2M00
0000
,
0020
0000
0000
0000
0000
0000
0030
0000
0000
3003
0000
0000
4000
0040
0000
0000
0000
0000
0000
0000
0000
0000
0000
0000
,
3030
0000
0000
0000
0020
0000
1030
0000
0002
0000
0103
0000
0020
0000
1030
0100
,
0010
0100
1000
1000
1000
0001
1000
1010
,
M0M0
0100
0000
0101
0M0M
0020
0000
0030
,
1100
0000
0010
0010
0010
0100
1000
0011
,
00MM
0000
0100
0000
1200
0000
0000
M300
0120
0000
0000
0M30
0012
0000
0000
00M3
,
2004
0000
0000
0000
,
0000
0000
0000
0000
0000
3003
0000
2000
0040
0000
0000
0000
0000
0000
0000
0000
,
0000
0000
0000
0000
,
0000
0000
0000
0000
,
3030
0000
0000
0000
;

//---------------dance-single - Medium----------------
#NOTES:
     dance-single:
     Ace Of Hearts (2008):
     Medium:
     6:
     0.289,0.130,0.105,0.482,0.010:
0000
0000
0000
0000
,
0001
0000
0000
0001
0000
0000
0000
0000
1000
0000
0000
1000
0000
0000
0100
0000
,
0200
0000
0000
0300
,
1000
0000
0001
1000
0001
0000
0000
0010
,
0000
0001
0000
1000
0000
0002
0000
0000
,
0003
0000
1000
0100
1000
0000
0000
0001
,
0000
1000
0000
0001
0000
0020
0000
0000
,
0032
0000
0000
0000
,
0003
0000
1000
0000
0001
0000
0000
0100
,
0000
0000
0000
0010
0000
0000
1000
0000
,
0001
0000
1000
0000
1000
0000
0000
0001
,
0000
1000
0000
0002
0000
2000
0000
0000
,
3003
0000
2000
0000
3001
0000
0000
0010
,
0000
0000
0000
0002
0000
0000
1003
0000
,
0100
0000
1000
0000
0001
0000
0000
1000
,
0000
0100
0000
0020
0000
0000
0031
0000
,
0022
0000
0000
0033
2200
0000
3300
1001
,
0000
1000
0001
0000
0001
0000
0000
2000
,
0000
0000
3100
0000
1000
0000
0000
0002
,
0000
1003
0000
0200
0000
0000
1300
0000
,
2020
0000
0000
3030
0202
0000
0303
0110
,
0000
0010
1000
0000
1000
0000
0000
0001
,
0000
1000
0000
1000
0000
0100
0000
0100
,
0000
0000
1000
0020
0000
0130
0000
0200
,
0000
0000
0000
0000
0000
0301
0000
0002
,
0000
0000
0003
2000
0000
0000
3100
0000
,
1000
0000
0001
0000
0002
0000
0000
2003
,
0000
0000
0000
3020
0000
0000
0130
0000
,
0000
0000
0001
0000
0001
0000
0000
2000
,
0000
0000
0000
3010
0000
1000
0100
0000
,
2000
0000
3001
0000
0002
0000
0000
0203
,
0000
0000
0000
0310
0000
0000
1000
0000
,
0000
0000
0001
0000
1000
0000
0000
0002
,
0000
0023
0000
0230
0000
0000
0000
0000
,
0300
0000
1000
0000
1000
0000
0000
0001
,
0000
0000
0100
0000
0000
0020
0000
0030
,
0000
0000
1000
0000
0001
0000
0000
2000
,
0000
3200
0000
0320
0000
0230
0000
1300
,
0000
0000
0002
0000
1003
0000
0000
0020
,
0000
0000
0000
1030
0000
0000
1000
0000
,
1001
0000
0000
0101
0000
0000
1010
0000
,
0000
1100
0000
0000
2000
0000
3001
0000
,
0020
0000
0000
0000
,
0030
0001
0001
1000
,
2000
0000
0000
0000
,
3000
0010
0100
0001
,
0200
0000
0000
0000
,
0300
0001
1000
0100
,
0020
0000
0000
0000
,
0000
0000
0030
0000
;

//---------------dance-single - Easy----------------
#NOTES:
     dance-single:
     Ace Of Hearts (2008):
     Easy:
     3:
     0.144,0.078,0.031,0.210,0.000: // measure 1
0000
0000
0000
0000
,  // measure 2
0001
0001
0001
0000
,  // measure 3
0200
0000
0300
0000
,  // measure 4
0010
0010
0010
0000
,  // measure 5
0020
0000
0030
0000
,  // measure 6
1000
1000
1000
0000
,  // measure 7
2000
0000
3000
0000
,  // measure 8
2002
0000
0000
0000
,  // measure 9
3003
0000
0002
0000
,  // measure 10
0003
0000
1000
0000
,  // measure 11
1000
0000
1000
0000
,  // measure 12
0020
0000
0030
0000
,  // measure 13
0000
0000
0100
0000
,  // measure 14
0100
0000
0000
0000
,  // measure 15
0001
0000
0001
0000
,  // measure 16
0020
0000
0030
0000
,  // measure 17
0100
0000
0000
0000
0100
0000
0000
0100
,  // measure 18
0000
0000
0000
0000
,  // measure 19
1000
1000
1000
0000
,  // measure 20
0001
0001
0001
0000
,  // measure 21
0010
0000
0000
0000
0010
0000
0000
0010
,  // measure 22
0000
0000
0000
0000
,  // measure 23
0001
0000
0001
0000
,  // measure 24
0001
0000
0200
0000
,  // measure 25
0300
0000
0000
2002
,  // measure 26
0000
3003
1000
0000
,  // measure 27
1000
0000
0001
0000
,  // measure 28
0001
0000
0002
0000
,  // measure 29
1003
0000
1000
0000
,  // measure 30
1000
0000
0000
0000
,  // measure 31
0100
0000
0100
0000
,  // measure 32
0200
0000
0300
0000
,  // measure 33
0010
0000
0010
0000
,  // measure 34
0020
0000
0030
0000
,  // measure 35
0000
0000
0001
0000
,  // measure 36
0001
0000
0002
0000
,  // measure 37
0003
0000
0100
0000
,  // measure 38
0100
0000
0200
0000
,  // measure 39
0300
0000
0000
0000
,  // measure 40
0001
0000
0000
0000
,  // measure 41
1001
0000
0000
1000
0000
0000
0001
0000
,  // measure 42
0000
1000
0000
0000
0010
0000
0000
0000
,  // measure 43
0020
0000
0000
0000
,  // measure 44
0030
0000
0100
0000
,  // measure 45
0200
0000
0000
0000
,  // measure 46
0300
0000
0010
0000
,  // measure 47
0020
0000
0000
0000
,  // measure 48
0030
0000
1000
0000
,  // measure 49
2000
0000
0000
0000
,  // measure 50
0000
0000
3000
0000
;

//---------------dance-single - Novice----------------
#NOTES:
     dance-single:
     Ace Of Hearts (2008):
     Beginner:
     1:
     0.084,0.051,0.042,0.157,0.000: // measure 1
0000
0000
0000
0000
,  // measure 2
0001
0000
0001
0000
,  // measure 3
0002
0000
0003
0000
,  // measure 4
2000
0000
0000
0000
,  // measure 5
3000
0000
0000
0000
,  // measure 6
0002
0000
0000
0000
,  // measure 7
0003
0000
0000
0000
,  // measure 8
0220
0000
0000
0000
,  // measure 9
0330
0000
0000
0000
,  // measure 10
0001
0000
0000
0000
,  // measure 11
0001
0000
0000
0000
,  // measure 12
0001
0000
0000
0000
,  // measure 13
0000
0000
0000
0000
,  // measure 14
1000
0000
0000
0000
,  // measure 15
1000
0000
0000
0000
,  // measure 16
1000
0000
0000
0000
,  // measure 17
0020
0000
0000
0000
,  // measure 18
0030
0000
0000
0000
,  // measure 19
1000
0000
1000
0000
,  // measure 20
1000
0000
0000
0000
,  // measure 21
0200
0000
0000
0000
,  // measure 22
0300
0000
0000
0000
,  // measure 23
0010
0000
0010
0000
,  // measure 24
0010
0000
0000
0000
,  // measure 25
2002
0000
0000
0000
,  // measure 26
3003
0000
0000
0000
,  // measure 27
0001
0000
0000
0000
,  // measure 28
0001
0000
0000
0000
,  // measure 29
0010
0000
0000
0000
,  // measure 30
0010
0000
0000
0000
,  // measure 31
0100
0000
0000
0000
,  // measure 32
0100
0000
0000
0000
,  // measure 33
1000
0000
0000
0000
,  // measure 34
2000
0000
0000
0000
,  // measure 35
3000
0000
0000
0000
,  // measure 36
0110
0000
0000
0000
,  // measure 37
0000
0000
0000
0000
,  // measure 38
1001
0000
0000
0000
,  // measure 39
0000
0000
0000
0000
,  // measure 40
1000
0000
0000
0000
,  // measure 41
0002
0000
0000
0000
,  // measure 42
0000
0000
2000
0000
,  // measure 43
0000
0000
0000
0000
,  // measure 44
3003
0000
0000
0000
,  // measure 45
0020
0000
0000
0000
,  // measure 46
0030
0000
0000
0000
,  // measure 47
0200
0000
0000
0000
,  // measure 48
0300
0000
0000
0000
,  // measure 49
0002
0000
0000
0000
,  // measure 50
0003
0000
0000
0000
;
