#TITLE:Ben 10;
#SUBTITLE:;
#ARTIST:Moxy;
#TITLETRANSLIT:;
#SUBTITLETRANSLIT:;
#ARTISTTRANSLIT:;
#GENRE:Cartoon Theme;
#CREDIT:Ace Of Hearts Original;
#BANNER:Ben 10 Banner.jpg;
#BACKGROUND:Ben 10 Background.jpg;
#LYRICSPATH:;
#CDTITLE:Ace Of Hearts.png;
#MUSIC:Ben 10.mp3;
#OFFSET:-0.430;
#SAMPLESTART:21.620;
#SAMPLELENGTH:12.000;
#SELECTABLE:YES;
#BPMS:0.000=136.000;
#STOPS:;
#BGCHANGES:;

//---------------dance-single - Expert----------------
#NOTES:
     dance-single:
     Ace Of Hearts (2008):
     Challenge:
     9:
     0.758,0.771,0.740,1.000,0.173:
0000
0000
0000
0000
,
0000
0000
0000
0000
,
0000
0000
0000
0000
,
1100
0000
0000
0000
0101
0000
0000
0000
1000
0100
1000
0100
0010
0001
0010
0001
,
0012
0103
0120
1030
0200
0310
0001
0100
,
0100
0010
1000
2000
3001
0000
0000
0001
,
0102
0103
0210
0320
1030
0100
0010
0001
,
0200
0310
1000
0001
0020
0130
0000
1000
,
1002
0103
0210
0301
0020
0130
1000
0001
,
0200
0310
0020
1030
1010
1000
0200
0300
,
0022
0000
0033
0000
2200
0000
3300
0000
0000
0000
0000
0000
0001
0100
0001
0100
,
0001
0000
0000
0000
0000
0000
0000
1000
,
2100
0000
3100
0000
0210
0000
0310
0000
0002
0000
0103
0000
0020
0030
0010
0000
,
2000
3001
0020
0100
0130
0000
0000
1000
,
2001
3001
0102
0103
0020
1000
1030
0200
,
0310
0001
0200
0310
0020
2000
3030
1000
,
1200
0310
0120
0031
0011
0002
0103
0010
,
2000
3001
0200
0301
0101
0001
0022
0033
,
2020
3030
0202
0303
0000
0000
0000
0000
,
1000
0001
0100
0010
1000
0010
0100
0001
1000
0100
0010
0001
0100
0010
1000
0001
,
0200
0001
0302
1000
2003
3100
0010
0012
,
0103
1020
0130
0102
0013
0100
1000
0102
,
0010
1003
1000
0100
0020
0031
0100
1020
,
0130
0210
0301
2001
3010
0100
0001
2001
,
0100
0010
3002
0103
0110
0020
1030
2100
,
3001
0102
1003
2100
3010
0100
0001
0010
,
2100
3001
0102
1003
2010
3001
0012
1003
,
1010
0202
0000
0010
0303
0000
2002
3003
,
0202
0303
2200
3300
0000
0000
0000
0000
,
0000
0000
0000
0000
1000
0001
0100
0001
1000
0000
0000
0000
0000
0000
0000
0000
,
2200
3300
0022
0033
0000
0000
0000
0000
,
0000
0000
0000
0000
0001
1000
0100
1000
0001
0000
0000
0000
0000
0000
0000
0000
,
2002
3003
0220
0330
0000
0000
0000
0000
,
0001
0100
0010
1000
0001
0010
0100
1000
0200
0000
0000
0000
0300
0000
0000
0000
;

//---------------dance-single - Hard----------------
#NOTES:
     dance-single:
     Ace Of Hearts (2008):
     Hard:
     7:
     0.522,0.638,0.221,0.772,0.055:
0000
0000
0000
0000
,
0000
0000
0000
0000
,
0000
0000
0000
0000
,
1001
0000
1001
0000
1000
0100
1000
0001
,
2000
3001
0100
0001
0200
0301
1000
0001
,
0100
0001
2000
3100
0100
0000
0000
0010
,
0001
0200
0301
1000
1000
0100
0010
0001
,
0200
0310
1000
0001
0200
0300
0000
0001
,
2000
3001
0100
0010
2000
3001
0100
0001
,
2000
3100
0010
0001
0011
0001
0202
0303
,
2020
3030
0000
0000
0000
0000
1000
0010
,
1000
0000
0000
0000
0000
0000
0000
1000
,
0001
1000
0020
0130
0001
1000
0001
0100
,
0001
0010
0100
1000
1000
0000
0000
0001
,
0100
0100
0100
0001
2000
0100
3100
0010
,
0010
0001
0200
0301
2000
3000
0000
0001
,
0200
0301
0200
0310
1000
0001
1000
0100
,
0020
0031
1000
0001
1000
0010
0220
0330
,
0202
0303
0000
0000
0000
0000
0000
0000
,
1000
0001
1000
0001
0100
0010
0100
0010
,
2000
0000
3001
0010
0100
0100
1000
0002
,
0000
0203
0000
0020
0000
0330
0000
2000
,
0000
0000
3001
0010
0200
0310
0001
0200
,
0000
0320
0000
2000
0000
3030
0000
0002
,
0000
0000
1003
0010
0100
0001
1000
0020
,
0000
0230
0000
0002
0000
0303
0000
0100
,
0020
1030
0100
0100
0010
0001
0200
0310
,
0100
0002
0003
0101
0000
0000
0011
0000
,
1100
0000
0000
0000
,
0000
0000
0000
0000
1000
0100
1000
0100
1000
0000
0000
0000
0000
0000
0000
0000
,
0220
0330
0220
0330
0000
0000
0000
0000
,
0000
0000
0000
0000
0001
0100
0001
0100
0001
0000
0000
0000
0000
0000
0000
0000
,
2002
3003
2002
3003
0000
0000
0000
0000
,
1000
0010
1000
0000
0001
0010
0001
0010
0002
0000
0000
0000
0003
0000
0000
0000
;

//---------------dance-single - Medium----------------
#NOTES:
     dance-single:
     Ace Of Hearts (2008):
     Medium:
     5:
     0.320,0.372,0.189,0.299,0.000:
0000
0000
0000
0000
,
0000
0000
0000
0000
,
0000
0000
0000
0000
,
1000
1000
1000
0000
,
0001
0100
0001
0000
1000
0100
1000
0000
,
0001
0100
0002
0000
1003
0000
0000
0000
,
1000
0100
1000
0000
0001
0010
0001
0000
,
1000
0100
2000
0000
3001
0000
0000
0000
,
1000
0000
0100
0010
0100
0000
0010
0001
,
0020
0100
0130
1000
,
2200
0000
3300
0000
0000
0000
1000
0001
,
1000
0000
0000
0000
,
0001
0100
0001
0000
1000
0010
1000
0000
,
0010
0100
0020
0000
1030
0000
0000
0000
,
0001
0000
0100
0010
0200
0000
0301
0000
,
1000
0010
2000
0000
3100
0000
0000
1000
,
0002
0000
2003
0000
3010
0000
0100
0001
,
0100
0010
0110
0100
,
0101
0000
0000
0000
,
0200
0000
0000
0300
,
0002
0000
0100
0000
0103
0000
0000
0200
,
0000
0010
0000
0310
0000
0000
0000
2000
,
0000
0000
0100
0000
3100
0000
0000
0020
,
0000
0100
0000
0130
0000
0000
0000
2000
,
0000
0000
0001
0000
3001
0000
0000
0101
,
0000
0101
0000
0101
0000
0000
0000
0000
,
0002
0000
1003
0001
1000
0000
0001
0000
,
0100
0200
0000
0310
0000
0000
0101
0000
,
0101
0000
0000
0000
,
0000
0000
0001
0100
0001
0000
0000
0000
,
1010
1010
0000
0000
,
0000
0000
1000
0010
1000
0000
0000
0000
,
1001
1001
0000
0000
,
0001
0010
0100
1000
0002
0000
0003
0000
;

//---------------dance-single - Easy----------------
#NOTES:
     dance-single:
     Ace Of Hearts (2008):
     Easy:
     3:
     0.196,0.264,0.142,0.110,0.000: // measure 1
0000
0000
0000
0000
,  // measure 2
0000
0000
0000
0000
,  // measure 3
0000
0000
0000
0000
,  // measure 4
0010
0010
0010
0000
,  // measure 5
0001
0001
0001
0000
,  // measure 6
1000
1000
1000
0000
,  // measure 7
0100
0000
0010
0000
,  // measure 8
0001
0001
0001
0000
,  // measure 9
0100
0100
0100
0000
,  // measure 10
0002
0000
1003
1000
,  // measure 11
1001
0000
0000
0000
,  // measure 12
0000
0000
0000
0000
,  // measure 13
0001
0000
1000
0000
,  // measure 14
0100
0100
0100
0000
,  // measure 15
1000
0000
0001
0000
,  // measure 16
0010
0010
0010
0000
,  // measure 17
0001
1000
0001
0000
,  // measure 18
0010
0100
0010
0100
,  // measure 19
0110
0000
0000
0000
,  // measure 20
0200
0000
0300
0000
,  // measure 21
2000
0000
0000
0000
3001
0000
0000
0100
,  // measure 22
0000
0100
0000
0100
0000
0000
0000
0002
,  // measure 23
0000
0000
0000
0000
1003
0000
0000
0010
,  // measure 24
0000
0010
0000
0010
0000
0000
0000
0200
,  // measure 25
0000
0000
0000
0000
0310
0000
0000
0100
,  // measure 26
0000
0100
0000
0100
0000
0000
0000
0000
,  // measure 27
0002
0000
1003
0000
,  // measure 28
0100
0000
0000
0110
0000
0000
1001
0000
,  // measure 29
1001
0000
0000
0000
,  // measure 30
0000
1000
1000
0000
,  // measure 31
0110
0110
0000
0000
,  // measure 32
0000
0001
0001
0000
,  // measure 33
1001
1001
0000
0000
,  // measure 34
0002
0000
0103
0000
;

//---------------dance-single - ----------------
#NOTES:
     dance-single:
     Ace Of Hearts (2008):
     Beginner:
     1:
     0.110,0.132,0.000,0.063,0.000: // measure 1
0000
0000
0000
0000
,  // measure 2
0000
0000
0000
0000
,  // measure 3
0000
0000
0000
0000
,  // measure 4
0010
0000
0000
0000
,  // measure 5
1000
0000
1000
0000
,  // measure 6
1000
0000
0000
0000
,  // measure 7
0001
0000
0001
0000
,  // measure 8
0001
0000
0000
0000
,  // measure 9
0100
0000
0100
0000
,  // measure 10
0100
0000
0000
0010
,  // measure 11
0010
0000
0000
0000
,  // measure 12
0000
0000
0000
0000
,  // measure 13
1000
0000
0001
0000
,  // measure 14
1000
0000
0000
0000
,  // measure 15
0010
0000
0100
0000
,  // measure 16
0010
0000
0000
0000
,  // measure 17
1000
0000
0001
0000
,  // measure 18
1000
0000
0000
0100
,  // measure 19
0100
0000
0000
0000
,  // measure 20
0200
0000
0300
0000
,  // measure 21
0001
0000
1000
0000
,  // measure 22
0001
0000
0000
0000
,  // measure 23
0010
0000
0100
0000
,  // measure 24
0010
0000
0000
0000
,  // measure 25
0100
0000
1000
0000
,  // measure 26
0100
0000
0000
0000
,  // measure 27
0010
0000
0001
0000
,  // measure 28
0010
0000
0000
0100
,  // measure 29
0100
0000
0000
0000
,  // measure 30
0000
2000
3000
0000
,  // measure 31
0001
0001
0000
0000
,  // measure 32
0000
0002
0003
0000
,  // measure 33
0010
0010
0000
0000
,  // measure 34
0200
0000
0300
0000
;
