#TITLE:Alphabet Song;
#SUBTITLE:;
#ARTIST:Children's Song;
#TITLETRANSLIT:;
#SUBTITLETRANSLIT:;
#ARTISTTRANSLIT:;
#GENRE:Children's Song;
#CREDIT:Ace Of Hearts;
#BANNER:Alphabet Song - bn.png;
#BACKGROUND:Alphabet Song - bg.jpg;
#LYRICSPATH:;
#CDTITLE:Ace Of Hearts.png;
#MUSIC:Alphabet Song.ogg;
#OFFSET:-4.550;
#SAMPLESTART:8.180;
#SAMPLELENGTH:12.000;
#SELECTABLE:YES;
#BPMS:0.000=128.900;
#STOPS:;
#BGCHANGES:;
#KEYSOUNDS:;

//---------------dance-single - Blank----------------
#NOTES:
     dance-single:
     Ace Of Hearts (2008):
     Challenge:
     10:
     0.819,0.352,0.799,0.930,0.521: // measure 1
0110
0000
1010
0000
1001
0000
0000
0001
,  // measure 2
0202
0010
1010
0303
,  // measure 3
2001
0000
0000
3010
0100
0000
0001
0000
0102
0000
0000
1003
0010
0000
1000
0000
,  // measure 4
1200
0000
0000
0310
0001
0000
1000
0000
0120
0000
0130
0001
0100
0000
0000
0000
,  // measure 5
1020
0000
0000
1030
0001
0000
0100
0000
0201
0000
0000
0310
1000
0000
0100
0000
,  // measure 6
1000
0010
1000
0000
0001
0000
1000
0000
0200
0000
0000
0000
0300
0000
0000
0000
,  // measure 7
1200
0000
0000
1300
0001
0000
0100
0000
0010
0000
1000
0100
1000
0000
0000
0000
,  // measure 8
1020
0000
0000
1030
0100
0000
0010
0000
0100
0000
1000
0001
1000
0000
0000
0000
,  // measure 9
0011
0000
0001
0100
0001
0100
0000
0100
0010
0000
1000
0001
1000
0000
0000
0000
,  // measure 10
2010
0000
0000
3010
0100
0000
0001
0000
2001
0000
3001
0100
0001
0000
0000
0000
,  // measure 11
0201
0000
0000
0301
1000
0000
1000
0000
1020
0000
0000
1030
0001
0000
0100
0000
,  // measure 12
0210
0000
0000
0310
1000
0000
0100
0000
2100
0000
3100
1000
0001
0000
0000
0000
,  // measure 13
0201
0000
0000
0301
0010
0000
0001
0000
2001
0000
0000
3010
0100
0000
0001
0000
,  // measure 14
0012
0000
0000
1003
0010
0000
0100
0000
0202
0000
0303
0000
0000
0000
0000
0000
,  // measure 15
0004
0040
0000
0000
0000
0000
0000
0000
0000
0000
0000
0000
0033
0000
0000
0000
0000
0000
0000
0000
0000
0000
0000
0000
,  // measure 16
0400
4000
0000
0000
0000
0000
0000
0000
0000
0000
0000
0000
3300
0000
0000
0000
0000
0000
0000
0000
0000
0000
0000
0000
,  // measure 17
1100
0000
0011
0000
0101
0000
0000
0001
,  // measure 18
2002
0010
0100
3003
,  // measure 19
1002
0000
0000
1003
0010
0000
0100
0000
0201
0000
0000
0301
1000
0000
0100
0000
,  // measure 20
0120
0000
0000
0130
1000
0000
0001
0000
1002
0000
1003
0001
0100
0000
0010
0000
,  // measure 21
0120
0000
0000
0130
0001
0000
1000
0000
1200
0000
0000
1300
0001
0000
0100
0000
,  // measure 22
0010
1000
0001
0100
0001
0000
1000
0000
0020
0000
1000
0000
0130
0000
1000
0000
,  // measure 23
2010
0000
0000
3010
0100
0000
0001
0000
1002
0000
1003
0100
1000
0000
0001
0000
,  // measure 24
0201
0000
0000
0301
0010
0000
0001
0000
1200
0000
1300
0010
0100
0000
0001
0000
,  // measure 25
1020
0000
0130
0010
1000
0001
0000
0001
0100
0000
0010
0000
0110
0000
0100
0000
,  // measure 26
0201
0000
0000
0301
1000
0000
0100
0000
2100
0000
3100
0010
0001
0000
1000
0000
,  // measure 27
1020
0000
0000
1030
0100
0000
1000
0000
2001
0000
0000
3001
0010
0000
0001
0000
,  // measure 28
0201
0000
0000
0301
1000
0000
0100
0000
0210
0000
0310
0001
0010
0000
0001
0000
,  // measure 29
0102
0000
0000
0103
0010
0000
1000
0000
1200
0000
1300
0001
1000
0000
0100
0000
,  // measure 30
2200
0010
0011
3300
,  // measure 31
1000
0000
0001
0100
0001
0000
1000
0010
1000
0001
1000
0010
1000
0000
0001
0100
,  // measure 32
0001
0000
0100
0010
0100
0000
0001
0100
0001
1000
0001
0100
0001
0000
0100
0000
,  // measure 33
0110
0000
0010
1000
0010
0000
0100
0000
0001
1000
0100
0010
0001
0000
0100
0000
,  // measure 34
1010
0000
1000
0001
0100
0000
0001
0000
1000
0010
0100
0001
1000
0000
1001
0000
,  // measure 35
0001
0010
0001
0100
0001
1000
0001
0100
0001
0010
0001
1000
0010
0000
1001
0000
,  // measure 36
1000
0010
1000
0001
1000
0100
1000
0001
1000
0010
0100
0001
0100
0000
0101
0000
,  // measure 37
2010
0000
0000
3001
0200
0000
0310
0000
0210
0000
0000
0301
2000
0000
3100
0000
,  // measure 38
2100
0000
0000
3001
0020
0000
0031
0000
2001
0000
3010
0100
0001
0000
1000
0000
,  // measure 39
1020
0000
0000
0130
0002
0000
1003
0000
2100
0000
0000
3001
0200
0000
0310
0000
,  // measure 40
2000
0000
0000
3010
0000
0000
0200
0000
0000
0301
0000
0000
0020
0000
0000
0130
0000
0000
2000
0000
0000
3001
0000
0000
0400
0000
0040
0000
0000
0000
0000
0000
0000
0000
0000
0000
0000
0000
0000
0000
0000
0000
0330
0000
0000
0000
0000
0000
,  // measure 41
0102
0000
0000
1003
0020
0000
0130
0000
0202
0000
0000
0000
0010
0000
0303
0000
,  // measure 42
0021
0000
0000
0130
2000
0000
3100
0000
2200
0000
0000
0000
0001
0000
3300
0000
,  // measure 43
1020
0000
0130
0001
1000
0001
0000
0002
2000
0000
0000
0000
0010
0000
3003
0000
,  // measure 44
0210
0000
0000
0301
1000
0000
0010
0000
0100
0001
1000
0001
0010
0000
0011
0000
,  // measure 45
0201
0000
0000
0301
2000
0000
3010
0000
1020
0000
0000
0130
0002
0000
1003
0000
,  // measure 46
1200
0000
0000
0310
0002
0000
0103
0000
0120
0000
1030
0001
0100
0000
0010
0000
,  // measure 47
0210
0000
0000
0301
2000
0000
3001
0000
0201
0000
0000
0301
0020
0000
0130
0000
,  // measure 48
2100
0000
3001
0100
0001
0000
0010
0000
2100
0000
0001
0000
3001
0000
0000
0000
,  // measure 49
2001
0000
0000
3010
0200
0000
0301
0000
0020
0000
0130
0000
2000
0000
3001
0000
,  // measure 50
0202
0010
1010
0303
;

//---------------dance-single - Blank----------------
#NOTES:
     dance-single:
     Ace Of Hearts (2008):
     Hard:
     8:
     0.714,0.553,0.890,1.000,0.152:
0202
0303
2020
3030
2200
3300
0000
1000
,
1020
0000
0000
0000
0230
0000
0000
0300
0202
0000
0000
0000
0303
0000
0000
0000
,
0201
0000
0000
0000
0320
0000
0000
0030
2010
0000
0000
0000
3200
0000
0000
0300
,
0120
0000
0000
0000
0032
0000
0000
0003
2001
0000
0000
0000
3010
0000
0000
0000
,
0210
0000
0000
0000
0302
0000
0000
0003
0102
0000
0000
0000
2003
0000
0000
3000
,
0002
0023
0230
2300
3002
0100
0103
0000
,
0120
0000
0000
0000
2030
0000
0000
0000
3002
0000
0000
0003
0011
0000
0000
0000
,
2100
0000
0000
0000
3002
0000
0000
0000
0203
0000
0000
0300
0110
0000
0000
0000
,
0020
0000
2030
0000
3002
0000
0000
0003
0202
0000
0303
0000
1010
0000
0000
0000
,
2100
0000
0000
0000
3020
0000
0000
0030
0220
0000
0000
0000
0330
0000
0000
0000
,
0201
0000
0000
0000
0302
0000
0000
0003
0102
0000
0000
0000
2003
0000
0000
3000
,
1020
0000
0000
0000
0230
0000
0000
0300
0102
0000
1000
0000
1003
0000
0000
0000
,
1200
0000
0000
0000
0320
0000
0000
0030
0012
0000
0000
0000
2003
0000
0000
3000
,
2020
3030
0202
0303
2002
0000
3003
0000
,
4000
0040
0000
0000
0000
0000
0000
0000
0000
0000
0000
0000
3030
0000
0000
0000
0000
0000
0000
0000
0000
0000
0000
0000
,
0400
0004
0000
0000
0000
0000
0000
0000
0000
0000
0000
0000
0303
0000
0000
0000
0000
0000
0000
0000
0000
0000
0000
0000
,
1002
0000
0000
0000
0023
0000
0000
0030
0220
0000
0000
0000
0330
0000
0010
0000
,
0210
0000
0000
0000
2300
0000
0000
3000
2200
0000
0000
0000
3300
0000
0000
0000
,
1002
0000
0000
0000
0203
0000
0000
0300
0120
0000
0000
0000
2030
0000
0000
3000
,
2100
0000
0000
0000
3002
0000
0000
0003
0201
0000
0010
0000
0310
0000
0000
0000
,
2010
0000
0000
0000
3002
0000
0000
0003
0021
0000
0000
0000
0230
0000
0000
0300
,
2100
3002
0203
0320
2030
3001
0100
0001
,
2001
0000
0000
0000
3020
0000
0000
0030
0220
0000
0330
0000
0101
0000
0000
0000
,
0102
0000
0000
0000
2003
0000
0000
3000
1020
0000
0000
0030
0110
0000
0000
0000
,
0102
0103
0020
0030
2020
3030
1100
0000
,
0201
0000
0000
0000
0320
0000
0000
0030
0202
0000
0000
0000
0303
0000
0000
0000
,
1020
0000
0000
0000
0230
0000
0000
0300
0102
0000
0000
0000
2003
0000
0000
3000
,
1200
0000
0000
0000
0320
0000
0000
0030
0210
0000
1000
0000
1300
0000
0000
0000
,
1020
0000
0000
0000
0230
0000
0000
0300
0102
0000
0000
0000
2003
0000
0000
3000
,
2020
3030
0220
0330
0202
0000
0303
0000
,
0001
1000
0001
0100
0001
1000
0001
0000
0000
0000
0000
0000
,
1000
0010
1000
0001
1000
0010
1000
0000
0000
0000
0000
0000
,
0001
1000
0001
1000
0010
1000
0001
0100
0001
0010
0100
0010
,
0001
1000
0001
1000
0010
0100
0001
0000
0000
0000
0000
0000
,
1000
0001
1000
0001
0000
0000
1000
0100
0010
0001
0000
0000
,
1000
0010
0100
0001
1000
0100
1000
0000
0000
0000
0000
0000
,
1020
0000
0000
0230
0000
0300
0201
0000
0000
0320
0000
0030
,
2010
0000
0000
0000
0000
0000
3200
0000
0000
0000
0300
0000
0120
0000
0000
0001
0000
0000
0031
0000
0000
0000
0000
0000
,
0201
0000
0000
0000
0320
0000
0000
0030
0102
0000
0000
0000
2003
0000
0000
3000
,
1200
2300
3002
0023
0230
0000
0300
0000
,
2100
0000
0000
0000
3002
0000
0000
0003
0202
0000
0303
0000
1100
0000
0000
0000
,
2010
0000
0000
0000
3002
0000
0000
0003
0022
0000
0033
0000
1010
0000
0000
0000
,
1020
0230
0302
0003
2002
3003
0110
0000
,
1002
0000
0000
0000
0203
0000
0000
0300
0210
0000
0001
0000
0301
0000
0001
0000
,
2001
0000
0000
0000
3020
0000
0000
0030
0210
0000
0000
0000
0302
0000
0000
0003
,
0021
0000
0000
0000
0230
0000
0000
0300
2000
0000
0001
0000
3001
0000
0000
0000
,
0201
0000
0000
0000
0320
0000
0000
0030
2010
0000
0000
0000
3002
0000
0000
0003
,
0021
0000
0000
0000
0230
0000
0000
0300
2200
0000
0000
0000
3300
0000
0000
0000
,
2020
3030
0020
0230
0302
0023
0230
0300
,
2200
3300
2020
3030
0202
0000
0303
0000
;

//---------------dance-single - Blank----------------
#NOTES:
     dance-single:
     Ace Of Hearts (2008):
     Medium:
     5:
     0.384,0.327,0.121,0.768,0.000:
2000
0000
3002
0000
0203
0000
0300
0001
,
0002
2003
3200
0300
,
1000
1000
0001
0001
,
0010
0010
0200
0300
,
1000
1000
0001
0001
,
1000
0100
1000
0100
2000
0000
3000
0000
,
0001
0100
0002
0003
,
1000
0010
2000
3000
,
0001
0010
0001
0000
1001
0000
0000
0000
,
0001
1000
0200
0300
,
1000
1000
0001
0001
,
0010
0010
0200
0300
,
1000
1000
0001
0001
,
0010
0010
0200
0300
,
0220
0000
0330
0000
,
2002
0000
3003
0000
,
0002
0000
2003
0000
3200
0000
0300
1000
,
2000
3002
0203
0300
,
0001
0001
1000
1000
,
0010
0010
0200
0300
,
0001
0001
1000
1000
,
0001
0100
0001
0100
0002
0000
0003
0000
,
1000
0010
2000
3000
,
0001
0010
0002
0003
,
1000
0001
1000
0000
0110
0000
0000
0000
,
0001
1000
0200
0300
,
1000
1000
0001
0001
,
0010
0010
0002
0003
,
1000
1000
0001
0001
,
0100
0001
0200
0300
,
0001
0100
0001
0000
0101
0000
0000
0000
,
1000
0010
1000
0000
1010
0000
0000
0000
,
1000
0100
1000
0000
0001
0100
0001
0000
,
1000
0001
1000
0000
1001
0000
0000
0000
,
1002
0000
0000
0100
0103
0000
0001
0000
,
2001
0000
0000
0100
3100
0000
1000
0000
,
0002
2003
3002
0203
,
0320
0230
0302
0003
,
2000
3020
2030
3020
,
2030
3002
2003
3002
2003
0000
3000
0000
,
0002
0203
0302
0003
,
2000
3200
2300
3000
,
0001
1000
0002
0003
0101
0000
0000
0000
,
0002
2003
3200
0300
,
2000
3002
0023
0032
,
2003
3002
0203
0300
,
0002
2003
3020
0230
,
0302
2003
3200
0300
,
1000
2000
3001
0002
,
1003
1001
2002
3003
;

//---------------dance-single - Blank----------------
#NOTES:
     dance-single:
     Ace Of Hearts (2008):
     Easy:
     3:
     0.227,0.151,0.000,0.091,0.000:
0010
0010
0010
0000
,
0100
0100
0100
0000
,
0001
0001
0001
0000
,
1000
1000
1000
0000
,
0001
0001
0001
0001
,
0200
0000
0300
0000
,
0001
0001
0001
0000
,
1000
1000
1000
0000
,
0020
0030
1000
0000
,
0001
0001
0001
0000
,
1000
1000
1000
0000
,
0010
0010
0010
0000
,
1000
1000
1000
0000
,
0100
0100
0100
0000
,
2000
0000
3000
0000
,
0002
0000
0003
0000
,
0010
0010
0010
0000
,
0100
0100
0100
0000
,
1000
1000
1000
0000
,
0001
0001
0001
0000
,
0100
0100
0100
0001
,
0002
0000
0003
0000
,
1000
1000
1000
0000
,
0001
0001
0001
0000
,
2000
3000
0010
0000
,
0100
0100
0100
0000
,
0001
0001
0001
0001
,
0010
0010
0010
0000
,
0001
0001
0001
0001
,
0100
0100
0100
0000
,
0010
0010
0010
0000
,
1000
1000
1000
0000
,
0001
0001
0001
0100
,
0001
0001
0001
0000
,
1000
1000
1000
0010
,
1000
1000
1000
0000
,
0001
0001
0001
0001
,
1000
1000
1000
0000
,
0001
0001
0001
0001
,
0200
0000
0300
0000
,
0001
0001
0001
0000
,
1000
1000
1000
0000
,
0020
0030
0100
0000
,
0001
0001
0001
0000
,
1000
1000
1000
1000
,
0010
0010
0010
0000
,
1000
1000
1000
1000
,
0001
0001
0001
0000
,
0001
0001
1000
1000
,
0100
0100
0200
0300
;

//---------------dance-single - Blank----------------
#NOTES:
     dance-single:
     Ace Of Hearts (2008):
     Beginner:
     1:
     0.117,0.100,0.000,0.081,0.000:
0002
0000
0003
0000
,
2000
0000
3000
0000
,
0001
0000
0001
0000
,
0001
0000
0000
0000
,
1000
0000
1000
0000
,
2000
0000
3000
0000
,
0010
0000
0000
0000
,
1000
0000
0000
0000
,
0001
0000
0001
0000
,
0100
0000
0100
0000
,
0001
0000
0001
0000
,
0001
0000
0000
0000
,
1000
0000
1000
0000
,
1000
0000
0000
0000
,
0020
0000
0030
0000
,
0000
0000
0000
0000
,
2000
0000
3000
0000
,
0002
0000
0003
0000
,
1000
0000
1000
0000
,
1000
0000
0000
0000
,
0001
0000
0001
0000
,
0002
0000
0003
0000
,
1000
0000
0000
0000
,
0100
0000
0000
0000
,
1000
0000
1000
0000
,
0010
0000
0010
0000
,
1000
0000
1000
0000
,
1000
0000
0000
0000
,
0001
0000
0001
0000
,
0001
0000
0000
0000
,
1000
0000
0000
0000
,
0001
0000
0000
0000
,
0010
0000
0010
0000
,
0010
0000
0000
0000
,
0100
0000
0100
0000
,
0100
0000
0000
0000
,
1000
0000
1000
0000
,
1000
0000
0000
0000
,
0001
0000
0001
0000
,
0002
0000
0003
0000
,
1000
0000
1000
0000
,
0001
0000
0001
0000
,
1000
0000
1000
0000
,
0100
0000
0100
0000
,
1000
0000
1000
0000
,
1000
0000
0000
0000
,
0001
0000
0001
0000
,
0001
0000
0000
0000
,
1000
0000
0001
0000
,
0010
0000
0100
0000
;
