#TITLE:Ai no Senshi;
#SUBTITLE:;
#ARTIST:Yoko Ishida;
#TITLETRANSLIT:;
#SUBTITLETRANSLIT:;
#ARTISTTRANSLIT:;
#GENRE:J-Pop;
#CREDIT:Ace Of Hearts;
#BANNER:Ai no Senshi - Bn.png;
#BACKGROUND:Ai no Senshi - Bg.jpg;
#LYRICSPATH:;
#CDTITLE:Ace Of Hearts.png;
#MUSIC:Ai no Senshi.ogg;
#OFFSET:0.520;
#SAMPLESTART:59.780;
#SAMPLELENGTH:24.500;
#SELECTABLE:YES;
#BPMS:0.000=144.850;
#STOPS:;
#BGCHANGES:;
#KEYSOUNDS:;

//---------------dance-single - Ace Of Hearts (2008)----------------
#NOTES:
     dance-single:
     Ace Of Hearts (2008):
     Hard:
     8:
     0.607,0.477,0.092,0.854,0.127: // measure 1
0000
0000
0000
0000
,  // measure 2
1000
0100
1000
0000
0001
0000
1000
0100
1000
0000
0010
0000
0000
0000
0000
0000
,  // measure 3
0100
0001
0100
0000
0001
0000
0100
0001
0100
0000
0010
0000
0000
0000
0000
0000
,  // measure 4
1000
0010
1000
0000
0100
0000
1000
0010
1000
0000
0001
0000
0000
0000
0000
0000
,  // measure 5
1001
0000
0000
0000
0011
0000
0000
0000
0001
1000
0001
1000
0001
0000
0000
0000
,  // measure 6
2100
0000
3002
0000
,  // measure 7
0203
0000
0000
0000
0302
0000
0000
0023
,  // measure 8
0000
0000
0000
0030
0000
0001
1000
0010
,  // measure 9
0200
0000
0000
0000
0320
0000
2030
0000
0000
0000
3001
0000
1000
0010
1000
0010
,  // measure 10
2000
0000
3020
0000
,  // measure 11
0230
0000
0000
0000
0302
0000
0000
2003
,  // measure 12
0000
0000
0000
3000
0000
0100
0010
0001
,  // measure 13
1000
0001
1000
0000
0100
0000
1000
0010
1000
0000
0001
0000
1000
0000
0100
0000
,  // measure 14
0020
0000
0001
0031
0000
0001
1000
0010
,  // measure 15
0200
0000
0302
0000
1003
0020
0000
0230
,  // measure 16
0001
0000
0000
0320
0000
1000
1030
0000
,  // measure 17
0001
0000
0001
0020
0000
0130
1000
0001
,  // measure 18
2000
0000
0010
3010
0000
0010
0100
0002
,  // measure 19
0000
0000
0203
0000
0301
2000
0000
3200
,  // measure 20
0010
0000
0000
2300
0000
0001
3001
0000
,  // measure 21
0100
0000
0000
0000
0100
0000
0002
0000
0103
0000
0010
0100
0010
0000
1000
0000
,  // measure 22
0002
0000
0010
0013
0000
0010
0100
1000
,  // measure 23
0002
0000
0203
0000
0301
2000
0000
3020
,  // measure 24
0100
0000
0000
2030
0000
0001
3001
0000
,  // measure 25
0200
0000
0301
2000
0000
3100
0100
0010
,  // measure 26
0002
0000
1000
1003
0000
1000
0010
0200
,  // measure 27
0000
0000
0301
2000
0000
3020
0000
0230
,  // measure 28
0001
0000
0000
0320
0000
1030
0100
0010
,  // measure 29
0002
0000
0013
0200
0000
0000
1300
0001
,  // measure 30
0020
0000
0031
1000
0000
1000
0001
0100
,  // measure 31
0020
0000
1030
0001
0000
0100
0001
1000
,  // measure 32
0020
0000
0130
0001
0000
0010
0100
1000
,  // measure 33
0002
0000
1003
0010
0000
0000
0100
0001
,  // measure 34
2000
0000
0010
3010
0000
0000
0010
1000
,  // measure 35
0002
0000
0010
0013
0000
0001
1000
0020
,  // measure 36
0000
1000
1000
0000
0100
0000
0000
1000
,  // measure 37
0000
0130
0100
0000
0101
0000
0011
0000
,  // measure 38
2100
0000
3001
0000
0100
0010
0000
2000
,  // measure 39
3001
0100
0001
0000
1000
0000
0001
0100
0001
0000
1000
0000
0001
0000
0100
0000
,  // measure 40
0020
0000
0130
0000
0001
0010
0000
0200
,  // measure 41
1300
0100
1000
0000
0001
0000
1000
0100
1000
0000
0001
0000
0100
0000
0010
0000
,  // measure 42
1000
0100
0010
0002
0000
2003
0000
3010
,  // measure 43
0100
0001
1000
0002
0000
1003
0100
1000
,  // measure 44
0001
0100
0001
2000
0000
3100
0010
0200
,  // measure 45
0000
0310
0011
0000
0002
0000
2003
0000
,  // measure 46
3020
0000
0230
0000
0301
1000
0000
0020
,  // measure 47
0130
0001
0100
0000
0010
0000
0100
0001
0100
0000
0010
0000
1000
0000
0100
0000
,  // measure 48
0020
0000
0032
0000
1003
0020
0000
0230
,  // measure 49
0310
1000
0010
0000
0100
0000
0010
1000
0010
0000
0100
0000
0001
0000
1000
0000
,  // measure 50
0010
0100
0001
2000
0000
3100
0010
0002
,  // measure 51
0000
1003
0010
0200
0000
0301
0020
0000
,  // measure 52
0200
0000
0030
0000
,  // measure 53
2300
0000
0000
0000
3002
0000
0000
0023
,  // measure 54
0000
0000
0000
0030
0000
0001
1000
0010
,  // measure 55
0200
0000
0000
0000
0301
0000
2000
0000
0000
0000
3010
0000
0100
0001
0100
0001
,  // measure 56
0200
0000
0302
0000
,  // measure 57
0023
0000
0000
0000
0230
0000
0000
2300
,  // measure 58
0000
0000
0000
3000
0000
0001
0100
0010
,  // measure 59
1000
0001
1000
0000
0010
0000
0100
0001
0100
0000
0001
0000
1000
0000
0100
0000
,  // measure 60
0020
0000
0100
0130
0000
0100
1000
0001
,  // measure 61
0200
0000
0301
0000
1000
0010
0000
0200
,  // measure 62
0001
0000
0000
0320
0000
1000
1030
0000
,  // measure 63
0100
0000
0100
2000
0000
3001
1000
0100
,  // measure 64
0020
0000
0001
0031
0000
0001
0010
0200
,  // measure 65
0000
0000
1300
0000
0001
1000
0000
0200
,  // measure 66
0010
0000
0000
2300
0000
0001
3001
0000
,  // measure 67
0100
0000
0000
0000
0100
0000
0010
0000
1000
0001
1000
0000
0100
0000
0010
0000
,  // measure 68
0200
0000
1000
1300
0000
0001
1000
0010
,  // measure 69
0200
0000
0302
0000
1003
0100
0000
2000
,  // measure 70
0001
0000
0000
3020
0000
0100
0130
0000
,  // measure 71
0100
0000
0001
2000
0000
3010
0100
0001
,  // measure 72
0020
0000
0100
0130
0000
0100
1000
0002
,  // measure 73
0000
0000
1003
0200
0000
1300
0000
0020
,  // measure 74
0000
0000
0130
0002
0000
1003
0010
0100
,  // measure 75
0002
0000
0013
0200
0000
0300
1000
0010
,  // measure 76
2000
0000
0010
3010
0000
0010
0100
0001
,  // measure 77
2000
0000
0100
3100
0000
0100
1000
0010
,  // measure 78
0200
0000
0301
1000
0000
0010
0100
0001
,  // measure 79
0020
0000
0130
1000
0000
0000
0100
1000
,  // measure 80
0002
0000
0010
0013
0000
0000
0010
0100
,  // measure 81
2000
0000
0010
3010
0000
1000
0001
0200
,  // measure 82
0000
0010
0010
0000
0001
0000
0000
0010
,  // measure 83
0000
0301
0001
0000
1001
0000
1100
0000
,  // measure 84
0012
0000
1003
0000
0100
0010
0000
0002
,  // measure 85
1003
0100
1000
0000
0001
0000
0100
0001
0100
0000
0010
0000
1000
0000
0100
0000
,  // measure 86
0020
0000
0032
0000
1003
0020
0000
0130
,  // measure 87
0001
0100
0001
0000
1000
0000
0010
1000
0010
0000
0100
0000
0001
0000
1000
0000
,  // measure 88
0100
0010
0100
2000
0000
3002
0000
1003
,  // measure 89
0010
0100
0001
0020
0000
0100
0130
0000
,  // measure 90
0100
1000
0001
0200
0000
0301
0010
0200
,  // measure 91
0000
1300
1010
0000
0101
0000
1001
0000
,  // measure 92
1020
0000
0230
0000
0301
2000
0000
3020
,  // measure 93
1030
0100
0010
0000
0001
0000
1000
0100
0010
0000
0001
0000
1000
0000
0010
0000
,  // measure 94
2000
0000
3002
0000
0103
0020
0000
2030
,  // measure 95
3001
0010
0100
0000
1000
0000
0001
0010
0100
0000
1000
0000
0010
0000
0100
0000
,  // measure 96
0001
1000
0010
0200
0000
0301
0010
0200
,  // measure 97
0000
1300
0001
2000
0000
3010
0200
0000
,  // measure 98
0002
0000
0000
0000
0300
0000
1003
0200
,  // measure 99
0000
0000
0000
0000
0000
0000
0000
0000
0300
0000
0000
0000
1000
0001
1000
0001
,  // measure 100
0020
0000
0000
0000
0030
0000
0001
4000
,  // measure 101
0000
0000
0000
0000
0000
0000
0000
0000
3000
0000
0001
0100
0001
0000
1000
0000
,  // measure 102
0002
0000
0000
0000
0003
0000
0010
0200
,  // measure 103
0000
0000
0000
0000
0000
0000
0000
0000
0300
0000
0000
0000
1000
0001
0100
0010
,  // measure 104
2000
0000
0000
0000
3000
0000
0001
0201
,  // measure 105
0000
0300
0110
0000
0110
0000
0000
0000
0200
0000
0000
0000
0302
0000
0003
0000
,  // measure 106
2001
0000
3200
0000
1300
0002
0000
2003
,  // measure 107
3001
0100
0010
0000
1000
0000
0001
0100
0010
0000
1000
0000
0010
0000
0100
0000
,  // measure 108
0002
0000
2003
0000
3100
0020
0000
0032
,  // measure 109
1003
0010
0100
0000
0001
0000
1000
0010
0100
0000
0001
0000
1000
0000
0100
0000
,  // measure 110
0010
0001
1000
0002
0000
0203
0000
0310
,  // measure 111
1000
0001
1000
0200
0000
1300
0001
0100
,  // measure 112
0010
1000
0100
0020
0000
0031
1000
0002
,  // measure 113
0000
1003
1010
0000
0020
0000
0230
0300
,  // measure 114
0102
0000
2003
0000
3100
0020
0000
0032
,  // measure 115
0013
0001
0100
0000
0001
0000
0010
0001
0100
0000
0001
0000
1000
0000
0001
0000
,  // measure 116
0020
0000
0230
0000
1300
0002
0000
2003
,  // measure 117
3010
1000
0100
0000
1000
0000
0010
1000
0100
0000
1000
0000
0001
0000
0100
0000
,  // measure 118
0010
1000
0100
0002
0000
0103
1000
0020
,  // measure 119
0000
0130
0001
0020
0000
0130
2000
0000
,  // measure 120
0002
0000
3000
0000
,  // measure 121
0203
0000
0000
0000
0302
0000
0000
0023
,  // measure 122
0000
0000
0000
0030
0000
0100
1000
0001
,  // measure 123
0200
0000
0000
0000
0310
0000
2000
0000
0000
0000
3001
0000
0010
0100
1000
0001
,  // measure 124
0200
0000
0302
0000
,  // measure 125
2003
0000
0000
0000
3020
0000
0000
0230
,  // measure 126
0000
0000
0000
0300
0000
0001
1000
0100
,  // measure 127
0020
0000
0031
2000
0000
3001
1000
0100
,  // measure 128
0010
0001
1000
0000
0100
0000
1000
0001
0100
0000
0010
0000
0000
0000
0000
0000
,  // measure 129
1000
0001
0100
0000
0001
1000
0100
0000
0010
0000
0100
0000
1000
0001
1000
0001
,  // measure 130
2000
0200
3300
0000
0000
0000
0000
0000
;

//---------------dance-single - Ace Of Hearts (2008)----------------
#NOTES:
     dance-single:
     Ace Of Hearts (2008):
     Challenge:
     11:
     0.846,0.716,0.471,0.499,0.633: // measure 1
0000
0000
0000
0000
,  // measure 2
1000
0100
0010
0001
1000
0000
0001
0100
0010
1000
0001
0000
0000
0000
0000
0000
,  // measure 3
0100
0010
1000
0001
0100
0000
0001
1000
0100
0010
0001
0000
0000
0000
0000
0000
,  // measure 4
0100
0001
0010
0100
1000
0000
0001
1000
0010
0100
0001
0000
1000
0010
1000
0001
,  // measure 5
1000
0100
1000
0001
0100
0010
1000
0100
0010
0001
1000
0010
0100
0001
1000
0100
,  // measure 6
0020
0000
0130
1000
0001
0000
1000
0000
0010
0100
0001
0000
1000
0000
0100
0000
,  // measure 7
0020
0000
0130
1000
0001
0000
0100
0000
0010
0100
0001
0000
1000
0000
0020
0000
,  // measure 8
0000
0000
1030
0001
0010
0000
0100
0000
1000
0000
0001
0100
0010
0100
0001
1000
,  // measure 9
0020
0000
0000
1030
0001
0000
0100
0000
0000
0010
1000
0000
0001
1000
0010
0100
,  // measure 10
0020
0000
1030
0001
0100
0000
0010
0000
1000
0001
0010
0000
0001
0000
1000
0000
,  // measure 11
0020
0000
0130
0001
1000
0000
0100
0000
0010
0100
1000
0000
0010
0000
0200
0000
,  // measure 12
0000
0000
0301
1000
0010
0000
0100
0000
0010
0000
1000
0001
0010
0001
1000
0010
,  // measure 13
0100
0000
0000
0001
1000
0000
0001
0000
0000
0010
0100
0000
1000
0001
0100
0010
,  // measure 14
1000
0000
1000
0001
0100
0000
0010
0000
0100
0001
1000
0000
0100
0000
0010
0000
,  // measure 15
0011
0000
0001
0100
0010
0000
0100
0000
0001
1000
0010
0000
0110
0000
0100
0000
,  // measure 16
0001
0000
1000
0100
1000
0000
0020
0000
0000
0000
0100
0000
0130
0000
0001
0000
,  // measure 17
1000
0000
0000
0001
0100
0000
0020
0000
0000
0000
1030
0000
0001
0100
0010
0000
,  // measure 18
1010
0000
1000
0001
0100
0000
0010
0000
1000
0001
0010
0000
0100
0000
1000
0000
,  // measure 19
1001
0000
0001
0100
0010
0000
0100
0000
0001
1000
0100
0000
1000
0000
0001
0000
,  // measure 20
0101
0000
0100
0010
1000
0000
0200
0000
0000
0000
0010
0000
0310
0000
0001
0000
,  // measure 21
1001
0000
1000
0100
0010
0000
0012
0000
0000
0000
0013
0100
1000
0000
0001
0000
,  // measure 22
0100
0000
0010
1000
0100
0000
0010
0000
0001
1000
0010
0000
1000
0000
0001
0000
,  // measure 23
0011
0000
0010
0100
1000
0000
0001
0000
1000
0100
0020
0000
0030
0000
0001
0000
,  // measure 24
0101
0000
0100
0010
1000
0000
2100
0000
0000
0000
3001
0000
0100
0010
1000
0000
,  // measure 25
1001
0000
0001
0010
0100
0000
0020
0000
0000
0000
0031
0000
1000
0010
0100
0000
,  // measure 26
0101
0000
0001
1000
0010
0000
1000
0000
0100
1000
0001
0000
1000
0000
0010
0000
,  // measure 27
0110
0000
0100
0001
1000
0000
0100
0000
1000
0001
0100
0000
0010
0000
1000
0000
,  // measure 28
1002
0000
0000
0000
0100
0000
0200
0003
0000
0000
0010
0000
1000
0000
0010
0000
,  // measure 29
0001
0000
0000
0000
0010
0000
0301
0000
1001
0000
1000
0000
0010
1000
0001
0000
,  // measure 30
0011
0000
0010
0100
1000
0000
1001
0000
0000
0000
1000
0000
0010
1000
0001
0000
,  // measure 31
0011
0000
0010
0001
1000
0000
1010
0000
0000
0000
1000
0000
0001
0100
0010
0000
,  // measure 32
1010
0000
1000
0001
0010
0000
0110
0000
0000
0000
0100
0000
1000
0001
0100
0000
,  // measure 33
1010
0000
0010
0100
0001
0000
1001
0000
0000
0000
0000
0000
1000
0100
0010
0000
,  // measure 34
0110
0000
0010
0100
1000
0000
1100
0000
0000
0000
0000
0000
0001
0100
0010
0000
,  // measure 35
0110
0000
0010
0100
0001
0000
0101
0000
0000
0000
0100
0000
0001
0000
0040
0000
,  // measure 36
0000
0001
0001
0000
0100
0000
0000
1000
,  // measure 37
0000
0100
0130
0000
1100
1000
0001
0000
,  // measure 38
0101
0000
0001
1000
0010
0000
0000
0000
0010
0100
0001
0000
0000
0000
0101
0000
,  // measure 39
0001
1000
0100
0010
0001
0000
0001
0010
0100
1000
0001
0000
1000
0001
0100
0000
,  // measure 40
0110
0000
0010
1000
0001
0000
0000
0000
1000
0100
0010
0000
0000
0000
0110
0000
,  // measure 41
0100
1000
0001
0010
0100
1000
0100
0010
0001
1000
0010
0100
0001
1000
0100
0010
,  // measure 42
0001
1000
0010
0000
0100
0000
0002
0000
0000
0000
0013
0100
1000
0000
0001
0000
,  // measure 43
0100
0001
1000
0000
0100
0000
0020
0000
0000
0000
0031
1000
0010
0000
1010
0000
,  // measure 44
0010
1000
0001
0000
1000
0000
2100
0000
0000
0000
3001
0000
0100
0000
0202
0000
,  // measure 45
0000
0000
0010
0000
0010
0000
0303
0000
0001
1000
0010
0100
0001
0010
0100
1000
,  // measure 46
0001
0000
1000
0010
0100
0000
0001
0000
1000
0001
0100
0000
0000
0000
0110
0000
,  // measure 47
0100
0001
1000
0100
0001
0000
0100
1000
0001
0100
0010
0000
1000
0000
0001
0000
,  // measure 48
0010
0100
1000
0000
0001
0000
0100
0010
1000
0000
0001
0000
0000
0000
0101
0000
,  // measure 49
0100
0000
0010
0000
1000
0000
0100
0000
0001
0000
0100
0000
1000
0000
0001
0000
0100
0001
0100
0000
0010
0000
1000
0000
0001
0000
0010
0000
0100
0000
1000
0000
,  // measure 50
1001
0000
0001
0100
0010
0000
2010
0000
0000
0000
3001
0010
0100
0000
0120
0000
,  // measure 51
0000
0000
0031
1000
0010
0000
0210
0000
0000
0000
0001
0000
0302
0000
0000
0003
,  // measure 52
1002
0000
1003
0010
0100
0000
0001
0000
1000
0100
0010
0000
0001
0000
1000
0000
,  // measure 53
1020
0000
0130
0001
1000
0000
0001
0000
0010
0100
1000
0000
0001
0000
0021
0000
,  // measure 54
0000
0000
0100
0000
0130
0000
1000
0000
1001
0000
0001
0000
0100
0010
1000
0001
,  // measure 55
2000
0000
3001
0100
0010
0000
1000
0000
0001
0010
0001
1000
0010
0100
0001
0010
,  // measure 56
0002
0000
0000
0000
0020
0000
0000
0003
,  // measure 57
2000
0000
0000
0030
0002
0000
3000
0200
,  // measure 58
0000
0000
0000
0003
0000
1300
0001
1000
,  // measure 59
1010
0000
0010
0100
0001
0000
0101
0000
0100
0010
1000
0001
1000
0100
0010
0001
,  // measure 60
1000
0000
0001
0100
1000
0000
0200
0000
0000
0000
0301
0000
1000
0100
0010
0000
,  // measure 61
0021
0000
0000
0000
0230
0000
0000
0300
1100
0000
0002
0000
0000
0000
0103
0000
,  // measure 62
0220
0000
0000
1000
0000
0030
0300
0000
,  // measure 63
0202
0000
0000
0000
1000
0000
0010
0000
0303
0000
0001
0000
1000
0001
0100
0000
,  // measure 64
0110
0000
0010
1000
0001
0000
0011
0000
0000
0000
0001
0000
0010
0000
2200
0000
,  // measure 65
0000
0000
3300
0000
0002
0000
0000
0003
0101
0000
0020
0000
0000
0000
1030
0000
,  // measure 66
2002
0000
0000
0010
0000
0003
3000
0000
,  // measure 67
2200
0000
0010
0001
3300
1000
0100
0010
,  // measure 68
0011
0000
0001
1000
0100
0000
1000
0000
0010
0001
0010
0000
1000
0000
0100
0000
,  // measure 69
1000
0000
0001
0100
1000
0000
0100
0000
0001
1000
0020
0000
0000
0000
1030
0000
,  // measure 70
1010
0000
0010
0100
0001
0000
0021
0000
0000
0000
0130
0000
1100
0000
1000
0000
,  // measure 71
2002
0000
0000
0000
0010
0000
0100
0000
3003
0000
0001
0000
0100
1000
0100
0000
,  // measure 72
0110
0000
0010
1000
0001
0000
0101
0000
0000
0000
0100
0000
1000
0100
0002
0000
,  // measure 73
0000
0000
1003
0200
0000
2300
0001
3001
,  // measure 74
0101
0000
0100
0020
0000
1000
0100
0001
,  // measure 75
0100
0000
0000
0000
1000
0000
0130
0000
0101
0000
0001
0000
1000
0010
0100
0000
,  // measure 76
0101
0000
0001
1000
0100
0000
0011
0000
0000
0000
0001
0000
1000
0010
0100
0000
,  // measure 77
0101
0000
0001
0010
0100
0000
1100
0000
0000
0000
1000
0000
0001
1000
0100
0000
,  // measure 78
0110
0000
0010
0001
1000
0000
0100
0000
0000
0000
1000
0000
0001
0100
0010
0000
,  // measure 79
1010
0000
1000
0001
0010
0000
0100
0000
0000
0000
0000
0000
1000
0001
0100
0000
,  // measure 80
0220
0000
0000
0000
1000
0000
1000
0000
0330
0000
0000
0000
0100
0001
1000
0000
,  // measure 81
2200
0000
0001
0001
3300
1000
0001
0400
,  // measure 82
0000
0010
0010
0000
0001
0000
0000
1000
,  // measure 83
0000
0000
0010
0000
0310
0000
0000
0000
1000
0010
0100
0001
0010
0100
1000
0001
,  // measure 84
0010
0000
0001
0100
0010
0000
1000
0000
0010
0100
0010
0000
0000
0000
1000
0000
,  // measure 85
0001
0100
1000
0100
0001
0000
1000
0100
0001
0100
1000
0000
0100
0000
1000
0000
,  // measure 86
0020
0000
0100
0000
0230
0000
0000
0300
0101
0000
0020
0000
0000
0000
1030
0000
,  // measure 87
0001
0010
1000
0010
0001
0000
1000
0010
0001
0010
1000
0000
1100
0000
0200
0300
,  // measure 88
0120
0000
0031
0000
1000
0000
0200
0000
0000
0300
0200
0000
0000
0000
0310
0000
,  // measure 89
0001
1000
0100
0000
2000
0000
0020
0000
0000
0000
0001
0000
0001
0000
3030
0000
,  // measure 90
1000
0100
0010
0000
0001
0000
2001
0000
0000
0000
3010
0000
0100
0000
0202
0000
,  // measure 91
0000
0000
0010
0000
1010
0000
0303
0000
0100
0010
1000
0100
0010
0001
1000
0001
,  // measure 92
0100
0000
0010
1000
0100
0000
1000
0000
0001
0100
0010
0000
0000
0000
1000
0000
,  // measure 93
0010
0001
0010
1000
0100
0000
0001
0100
1000
0001
0010
0000
0100
1000
0001
0000
,  // measure 94
1001
0000
1000
0010
0100
0000
0001
0000
0010
0100
1000
0000
0000
0000
0001
0000
,  // measure 95
0100
0000
0010
0000
1000
0000
0100
0000
0001
0000
0100
0000
1000
0000
0001
0000
0100
0010
0100
0000
0001
0000
0010
0000
1000
0000
0010
0000
0001
0000
1000
0000
,  // measure 96
0010
0100
0001
0000
1000
0000
1200
0000
0000
0000
1300
0001
0100
0000
0120
0000
,  // measure 97
0000
0000
1030
0010
0100
0000
0102
0000
0000
0000
2003
0000
0020
0000
0000
0000
,  // measure 98
0200
0000
0000
0000
0330
0000
3001
0200
,  // measure 99
0000
0000
0000
0000
0000
0000
0301
1000
,  // measure 100
0020
0000
0000
0000
0030
0000
1000
0004
,  // measure 101
0000
0000
0000
0000
0000
0000
0000
0000
0000
0000
1003
0010
0001
0010
1000
0001
,  // measure 102
0200
0000
0000
0000
0300
0000
0001
4000
,  // measure 103
0000
0000
0000
0000
0000
0000
0000
0000
3000
0000
0000
0000
0001
1000
0010
0001
,  // measure 104
0020
0000
0000
0000
0030
0000
1000
2012
,  // measure 105
0000
0000
0010
0000
0010
0000
3003
0000
0001
0100
0010
0001
0010
1000
0001
0100
,  // measure 106
0010
0000
1000
0001
0010
0000
0100
0000
1000
0001
0100
0000
0000
0000
0110
0000
,  // measure 107
0010
1000
0100
0001
0100
0000
1000
0010
0001
0010
1000
0000
0010
0100
0001
0000
,  // measure 108
1001
0000
1000
0100
0010
0000
0001
0000
1000
0010
0100
0000
0000
0000
0101
0000
,  // measure 109
0001
0010
1000
0010
0001
0000
1000
0100
0001
0100
1000
0001
0100
0010
1000
0001
,  // measure 110
0010
0000
0100
1000
0001
0000
0201
0000
0000
0300
0200
0000
0000
0000
0301
0000
,  // measure 111
0010
0100
1000
0000
0010
0000
0220
0000
0000
0000
0001
0000
0001
0000
0330
0000
,  // measure 112
0010
1000
0001
0000
0010
0000
0210
0000
0000
0000
1300
0000
0100
0000
2200
0000
,  // measure 113
0000
0000
0001
0000
0011
0000
3300
0000
1000
0001
0100
0010
1000
0100
0001
0100
,  // measure 114
1000
0000
0010
1000
0001
0000
0010
0000
0100
1000
0001
0000
0000
0000
0100
0000
,  // measure 115
0010
0100
1000
0100
0001
0000
1000
0100
0010
1000
0010
0000
0001
0000
1000
0000
,  // measure 116
0010
0000
1000
0010
0100
0000
0001
0000
1000
0100
0010
0000
0000
0000
0001
0000
,  // measure 117
1000
0000
0010
0000
0100
0000
1000
0000
0100
0000
0000
0000
0001
0000
1000
0000
0001
0100
0001
0000
1000
0000
0100
0000
0010
0000
1000
0000
0010
0000
0001
0000
,  // measure 118
2000
3001
0010
0210
0000
1300
0001
0021
,  // measure 119
0000
0130
1000
1020
0000
0230
0002
0000
,  // measure 120
2000
0000
3000
0000
,  // measure 121
0300
0000
0000
0000
0003
0000
0000
1011
,  // measure 122
0000
0000
0000
0000
0000
0001
0100
0010
,  // measure 123
2000
0000
0000
0000
3001
0000
0101
0000
0000
0000
0100
0000
0010
1000
0100
0001
,  // measure 124
0200
0000
2300
0000
,  // measure 125
0002
0000
0000
0000
0020
0000
0000
0200
,  // measure 126
0000
0000
0000
3333
0000
1000
0001
0010
,  // measure 127
0110
0000
0100
1000
0001
0000
0101
0000
0100
0010
1000
0100
0010
0001
1000
0010
,  // measure 128
0100
0010
0001
0010
1000
0000
0001
0010
1000
0010
0100
0000
0000
0000
0000
0000
,  // measure 129
1000
0001
0100
0010
0001
0000
0010
1000
0001
1000
0100
0000
1000
0001
0100
0001
,  // measure 130
0202
1010
0303
0000
0000
0000
0000
0000
;

//---------------dance-single - Ace Of Hearts (2008)----------------
#NOTES:
     dance-single:
     Ace Of Hearts (2008):
     Medium:
     6:
     0.441,0.238,0.000,0.799,0.000:
0000
0000
0000
0000
,
1000
0001
1000
0000
0010
0000
0000
0000
,
0100
0001
0100
0000
0010
0000
0000
0000
,
1000
0010
1000
0000
0100
0000
0000
0000
,
1000
0100
1000
0000
0001
0010
0001
0000
,
2000
0000
3002
0000
,
2003
0000
0000
0000
3200
0000
0000
0320
,
0000
0000
0000
0000
0030
0001
1000
0000
,
0200
0000
1300
0002
0000
1003
0100
1000
,
0002
0000
2003
0000
,
3020
0000
0000
0000
0230
0000
0000
0302
,
0000
0000
0000
0003
0000
1000
0001
0000
,
0200
0000
0301
1000
0000
0000
0010
1000
,
0020
0000
0030
0000
0000
1000
0001
0000
,
0200
0000
0302
0000
0103
0002
0000
1003
,
0000
0000
0000
0020
0000
0030
0000
0000
,
0100
0000
0001
2000
0000
3001
1000
0000
,
0020
0000
0030
0000
0000
1000
0001
2000
,
0000
0000
3200
0000
1300
0001
0000
0100
,
0000
0000
0000
0020
0000
0030
0000
0000
,
1000
0000
0001
0020
0000
0030
0001
0010
,
0002
0000
0003
0000
0000
1000
0010
0000
,
2000
0000
3002
0000
1003
0010
0000
0100
,
0000
0000
0000
0002
0000
0003
0000
0000
,
0100
0000
0001
2000
0000
3001
0010
0000
,
0001
0000
0000
0000
0000
1000
0010
2000
,
0000
0000
3001
1000
0000
0100
0000
2000
,
0000
0000
3001
0100
0000
0001
1000
0001
,
0100
0000
0010
0100
0000
0000
0001
1000
,
0002
0000
1003
0010
0000
0000
1000
0001
,
2000
0000
3001
0100
0000
0001
1000
0000
,
0200
0000
1300
0001
0000
1000
0010
0000
,
2000
0000
3001
0100
0000
0000
0001
0100
,
0002
0000
1003
0010
0000
0000
1000
0100
,
2000
0000
3001
0100
0000
0001
1000
0002
,
0000
0000
0000
0000
,
0003
0000
2000
3002
,
2003
0000
3200
0000
1300
0001
0000
0020
,
0000
0000
0030
0000
0000
0000
0001
0010
,
0002
0000
1003
0000
0001
0010
0000
0200
,
0000
0000
0000
0300
0000
0000
0000
0000
,
2000
0000
3001
0100
0000
0100
0000
0001
,
2000
0000
3001
0010
0000
0000
0000
0000
,
0001
1000
0001
0100
0000
0001
1000
0200
,
0000
0300
2000
3002
,
0023
0000
0230
0000
1300
0001
0000
0200
,
0000
0000
0300
0000
0000
0000
0001
1000
,
0002
0000
0203
0000
0301
2000
0000
3200
,
0000
0000
0300
0000
0000
1000
0001
0000
,
1000
0100
1000
0200
0000
1300
0001
2000
,
0000
3001
0010
0002
0000
0000
1003
0000
,
0200
0000
0000
0000
,
0300
0000
0000
0000
1000
0000
0000
0002
,
0000
0000
0003
0000
0000
1000
0001
1000
,
0200
0000
1300
0001
0000
1000
0010
0000
,
2000
0000
3002
0000
,
0023
0000
0000
0000
0032
0000
0000
0203
,
0000
0000
0000
0300
0000
0001
1000
0001
,
0200
0000
0301
0100
0000
0000
0001
1000
,
0020
0000
0030
0000
0000
1000
0001
0000
,
0200
0000
0302
0000
1003
0020
0000
0230
,
0000
0000
0000
0301
0000
0000
0000
0000
,
0001
0000
1000
0020
0000
1030
0001
0000
,
0020
0000
0030
0000
0000
0001
1000
0002
,
0000
0000
0203
0000
0301
1000
0000
0200
,
0000
0000
0000
1300
0000
0000
0000
0000
,
0001
0000
1000
0020
0000
0030
1000
0001
,
2000
0000
0000
3000
0000
0001
0010
0000
,
0002
0000
2003
0000
3010
2000
0000
3200
,
0000
0000
0000
1300
0000
0000
0000
0000
,
0001
0000
0100
0020
0000
1030
0001
0000
,
0200
0000
0000
0300
0000
0001
1000
0002
,
0000
0000
1003
0002
0000
0203
0000
0320
,
0000
0000
1030
2000
0000
3001
0100
0010
,
0100
0000
0001
0100
0000
0000
0001
1000
,
0002
0000
0100
0103
0000
0001
1000
0000
,
0020
0000
0130
0001
0000
1000
0001
0000
,
0200
0000
0301
1000
0000
0100
1000
0000
,
0002
0000
1003
0100
0000
0000
1000
0001
,
2000
0000
0010
3010
0000
0000
0010
0100
,
0002
0000
0010
0013
0000
0001
1000
0020
,
0000
0000
0000
0000
,
0030
0000
2000
3002
,
0023
0000
0032
0000
1003
0200
0000
0320
,
0000
0000
0030
0000
0000
0000
0001
1000
,
0020
0000
2030
0000
3001
0020
0000
0230
,
0000
0300
0000
0000
,
1000
0001
1000
0020
0000
0230
0000
0301
,
0100
0001
1000
0002
0000
0003
0000
0000
,
1000
0100
1000
0002
0000
1003
0010
0200
,
0000
0300
0002
2003
,
3020
0000
0230
0000
0301
2000
0000
3020
,
0000
0000
0030
0000
0000
0000
1000
0001
,
0020
0000
0032
0000
1003
0002
0000
0203
,
0000
0000
0300
0000
0000
0001
0100
0000
,
0001
1000
0001
0200
0000
0301
1000
0020
,
0000
1030
0001
2000
0000
0000
3002
0000
,
0200
0000
0000
0000
,
0303
0000
0000
0000
,
0200
0000
0000
0000
0000
0000
0301
2000
,
0000
0000
3000
0000
,
0200
0000
0000
0000
0000
0000
1300
0002
,
0000
0000
0000
0000
0003
0000
1000
0010
,
0200
0000
0000
0000
0300
0000
0001
2000
,
0000
0010
3010
0000
2000
0000
3002
0000
,
0023
0000
0230
0000
1300
0002
0000
1003
,
0001
1000
0010
0000
1000
0001
1000
0100
,
2000
0000
3002
0000
1003
0020
0000
0130
,
0001
0100
0010
0000
1000
0001
0000
0000
,
1000
0001
1000
0002
0000
0203
0000
0301
,
1000
0001
0100
0020
0000
0030
0000
0000
,
0100
0001
0100
0002
0000
1003
0010
2000
,
0000
0001
3001
0000
2000
0000
3200
0000
,
0320
0000
0032
0000
1003
0020
0000
0130
,
0001
1000
0001
0000
1000
0010
1000
0001
,
2000
0000
3002
0000
0103
0002
0000
1003
,
0010
1000
0010
0000
0100
0001
0000
0000
,
1000
0100
1000
0002
0000
1003
0001
0020
,
0000
0031
1000
0002
0000
0000
0023
0000
,
0230
0000
2300
0000
,
3002
0000
0000
0000
0203
0000
0000
0320
,
0000
0000
0030
0000
0000
0001
1000
0001
,
0200
0000
0310
0100
0000
0001
1000
0100
,
2000
0000
3002
0000
,
0023
0000
0000
0000
0230
0000
0000
2300
,
0000
0000
3000
0000
0000
0001
1000
0001
,
0020
0000
0031
1000
0000
0001
0100
0000
,
0001
1000
0001
0000
1000
0010
0000
0000
,
1000
0001
1000
0000
0001
0100
0002
0000
,
0010
0013
0000
0000
0000
0000
0000
0000
;

//---------------dance-single - Ace Of Hearts (2008)----------------
#NOTES:
     dance-single:
     Ace Of Hearts (2008):
     Easy:
     3:
     0.187,0.179,0.005,0.189,0.000:
0000
0000
0000
0000
,
0001
0001
0001
0000
,
1000
1000
1000
0000
,
0100
0100
0100
0000
,
0010
0010
0020
0030
,
0001
0000
0001
0000
,
0001
0000
0000
0000
0002
0000
0000
0003
,
0000
0000
0000
0000
,
0100
0100
0100
0000
,
0010
0000
0010
0000
,
0010
0000
0000
0000
0020
0000
0000
0030
,
0000
0000
0000
0000
,
1000
1000
1000
0000
,
0001
0000
0000
0000
,
1000
0000
1000
0000
,
2000
0000
0000
3000
0000
0000
0000
0000
,
0002
0000
0000
0003
0000
0000
0000
0000
,
0010
0000
0000
0000
,
0001
0000
0001
0000
,
0002
0000
0000
0003
0000
0000
0000
0000
,
2000
0000
0000
3000
0000
0000
0000
0000
,
0001
0000
0000
0000
,
0100
0000
0100
0000
,
0200
0000
0000
0300
0000
0000
0000
0000
,
0020
0000
0000
0030
0000
0000
0000
0000
,
1000
0000
0000
0000
,
0001
0000
0001
0000
,
0002
0000
0003
0000
,
0020
0000
0000
0030
0000
0000
0000
0000
,
0001
0001
0001
0000
,
1000
1000
1000
0000
,
0010
0000
0010
0000
,
0020
0000
0030
0000
,
2000
0000
0000
3000
0000
0000
0000
0000
,
0002
0000
0000
0003
0000
0000
0000
0000
,
0010
0010
0010
0000
,
0002
0003
0000
0000
,
0001
0001
0001
0000
,
0020
0000
0030
0000
,
0100
0100
0100
0000
,
2000
0000
3000
0000
,
0001
0001
0001
0000
,
0100
0100
0100
0000
,
0010
0000
0010
0000
,
0020
0000
0030
0000
,
1000
1000
1000
0000
,
0002
0000
0003
0000
,
0010
0010
0010
0000
,
0200
0000
0300
0000
,
1000
1000
1000
0000
,
0010
0010
0020
0000
,
0230
0000
0000
0000
,
0000
0000
0000
0000
0000
0000
0000
0300
,
0000
0000
0000
0000
,
0001
0001
0001
0000
,
1000
0000
0001
0000
,
1000
0000
0000
0000
0200
0000
0000
0300
,
0000
0000
0000
0000
,
1000
1000
1000
0000
,
0001
0000
0000
0000
,
1000
0000
1000
0000
,
2000
0000
0000
3000
0000
0000
0000
0000
,
0200
0000
0000
0300
0000
0000
0000
0000
,
0010
0000
0000
0000
,
0001
0000
0001
0000
,
0002
0000
0000
0003
0000
0000
0000
0000
,
0020
0000
0000
0030
0000
0000
0000
0000
,
0001
0000
0000
0000
,
1000
0000
1000
0000
,
2000
0000
0000
3000
0000
0000
0000
0000
,
0020
0000
0000
0030
0000
0000
0000
0000
,
0100
0000
0000
0000
,
0001
0000
0001
0000
,
0002
0000
0000
0003
0000
0000
0000
0000
,
0020
0000
0000
0030
0000
0000
0000
0000
,
0100
0100
0100
0000
,
1000
1000
1000
0000
,
0001
0000
0001
0000
,
0002
0000
0003
0000
,
0100
0100
0100
0000
,
0001
0001
0001
0000
,
0010
0010
0010
0000
,
0100
0100
0100
0000
,
1000
1000
1000
0000
,
0001
0000
0001
0000
,
0100
0100
0100
0000
,
0010
0000
0010
0000
,
1000
1000
1000
0000
,
0001
0001
0001
0000
,
0100
0000
0100
0000
,
0200
0000
0300
0000
,
0001
0001
0001
0000
,
1000
0000
1000
0000
,
0010
0010
0010
0000
,
0100
0000
0100
0000
,
0001
0001
0001
0000
,
1000
1000
1000
0000
,
0002
0000
0000
0000
,
0003
0000
0000
0000
,
2000
0000
0000
0000
,
3000
0000
0000
0000
,
0020
0000
0000
0000
,
0030
0000
0000
0000
,
0200
0000
0000
0000
,
0300
0000
0001
0001
,
0001
0000
1000
0000
,
0010
0010
0010
0000
,
1000
1000
1000
0000
,
0100
0100
0100
0000
,
0010
0010
0010
0000
,
0001
0001
0001
0000
,
1000
1000
1000
0000
,
0002
0000
0013
0010
,
0010
0000
0001
0000
,
0100
0100
0100
0000
,
0001
0001
0001
0000
,
1000
1000
1000
0000
,
0010
0000
0010
0000
,
0010
0000
2000
0000
,
3200
0000
0000
0000
,
0000
0000
0000
0000
,
0300
0000
0000
0000
,
0010
0010
0010
0000
,
0001
0000
1000
0000
,
0001
0000
0000
0000
0200
0000
0000
0300
,
0000
0000
0000
0000
,
0001
0001
0001
0000
,
1000
1000
1000
0000
,
0100
0100
0100
0000
,
1001
0000
0000
0000
;

//---------------dance-single - Ace Of Hearts (2008)----------------
#NOTES:
     dance-single:
     Ace Of Hearts (2008):
     Beginner:
     1:
     0.088,0.060,0.005,0.069,0.000:
0000
0000
0000
0000
,
0001
0000
0000
0000
,
0001
0000
0000
0000
,
0001
0000
0000
0000
,
0001
0000
0000
0000
,
2000
0000
0000
0000
,
3000
0000
0000
0000
,
1000
0000
0000
0000
,
1000
0000
0000
0000
,
0002
0000
0000
0000
,
0003
0000
0000
0000
,
0001
0000
0000
0000
,
0001
0000
0000
0000
,
1000
0000
0000
0000
,
1000
0000
0000
0000
,
1000
0000
0000
0000
,
0000
0000
0000
0000
,
0001
0000
0000
0000
,
0001
0000
0000
0000
,
0001
0000
0000
0000
,
0000
0000
0000
0000
,
0100
0000
0000
0000
,
0100
0000
0000
0000
,
0100
0000
0000
0000
,
0000
0000
0000
0000
,
0001
0000
0000
0000
,
0001
0000
0000
0000
,
0001
0000
0000
0000
,
0020
0000
0030
0000
,
0100
0000
0000
0000
,
0100
0000
0000
0000
,
0100
0000
0000
0000
,
0000
0000
0000
0000
,
1000
0000
0000
0000
,
1000
0000
0000
0000
,
2000
0000
3000
0000
,
0000
0000
0000
0000
,
0010
0000
0010
0000
,
0010
0000
0000
0000
,
1000
0000
1000
0000
,
1000
0000
0000
0000
,
0001
0000
0000
0000
,
0001
0000
0000
0000
,
0010
0000
0010
0000
,
0010
0000
0000
0000
,
0001
0000
0001
0000
,
0001
0000
0000
0000
,
0100
0000
0100
0000
,
0100
0000
0000
0000
,
0001
0000
0000
0000
,
0002
0000
0000
0000
,
0003
0000
0000
0000
,
1000
0000
0000
0000
,
1000
0000
0000
0000
,
0000
0000
0000
0000
,
0001
0000
0000
0000
,
0001
0000
0000
0000
,
0001
0000
0000
0000
,
0000
0000
0000
0000
,
0100
0000
0000
0000
,
0100
0000
0000
0000
,
0100
0000
0000
0000
,
0000
0000
0000
0000
,
0001
0000
0000
0000
,
0001
0000
0000
0000
,
0001
0000
0000
0000
,
0000
0000
0000
0000
,
1000
0000
0000
0000
,
1000
0000
0000
0000
,
1000
0000
0000
0000
,
0000
0000
0000
0000
,
0100
0000
0000
0000
,
0100
0000
0000
0000
,
0100
0000
0000
0000
,
0020
0000
0030
0000
,
0001
0000
0000
0000
,
0001
0000
0000
0000
,
0001
0000
0000
0000
,
0000
0000
0000
0000
,
1000
0000
0000
0000
,
1000
0000
0000
0000
,
2000
0000
3000
0000
,
0000
0000
0000
0000
,
0010
0000
0010
0000
,
0010
0000
0000
0000
,
1000
0000
1000
0000
,
1000
0000
0000
0000
,
0001
0000
0000
0000
,
0001
0000
0000
0000
,
0100
0000
0000
0000
,
0100
0000
0000
0000
,
0001
0000
0001
0000
,
0001
0000
0000
0000
,
1000
0000
1000
0000
,
1000
0000
0000
0000
,
0010
0000
0000
0000
,
0020
0000
0000
0000
,
0000
0000
0000
0000
,
0030
0000
0000
0000
,
2000
0000
0000
0000
,
3000
0000
0000
0000
,
0002
0000
0000
0000
,
0003
0000
0000
0000
,
0200
0000
0000
0000
,
0300
0000
0000
0000
,
0001
0000
0001
0000
,
0001
0000
0000
0000
,
0100
0000
0100
0000
,
0100
0000
0000
0000
,
0010
0000
0000
0000
,
0010
0000
0000
0000
,
0010
0000
0000
0000
,
0000
0000
0000
0000
,
1000
0000
1000
0000
,
1000
0000
0000
0000
,
0010
0000
0010
0000
,
0010
0000
0000
0000
,
0100
0000
0000
0000
,
0200
0000
0000
0000
,
0300
0000
0000
0000
,
0001
0000
0000
0000
,
0001
0000
0000
0000
,
0000
0000
0000
0000
,
2000
0000
0000
0000
,
3000
0000
0000
0000
,
1000
0000
0000
0000
,
0100
0000
0000
0000
,
2000
0000
3000
0000
,
0002
0000
0003
0000
,
1001
0000
0000
0000
;
