#TITLE:777;
#SUBTITLE:;
#ARTIST:Eel;
#TITLETRANSLIT:;
#SUBTITLETRANSLIT:;
#ARTISTTRANSLIT:;
#GENRE:Twee Pop;
#CREDIT:Ace Of Hearts;
#BANNER:777 - bn.png;
#BACKGROUND:777 - bg.png;
#LYRICSPATH:;
#CDTITLE:Ace Of Hearts.png;
#MUSIC:777.ogg;
#OFFSET:1.030;
#SAMPLESTART:9.800;
#SAMPLELENGTH:12.000;
#SELECTABLE:YES;
#BPMS:0.000=200.000;
#STOPS:;
#BGCHANGES:;
#KEYSOUNDS:;

//---------------dance-single - Expert----------------
#NOTES:
     dance-single:
     Ace Of Hearts (2008):
     Challenge:
     10:
     0.735,0.492,0.619,1.000,0.123: // measure 1
0000
0000
0000
0000
,  // measure 2
2000
3001
0200
0300
,  // measure 3
0000
0001
1000
0001
0010
0001
1000
0001
,  // measure 4
0020
0030
0010
0000
0200
0000
0300
0000
,  // measure 5
1000
0010
0100
0001
0020
0000
0030
0000
,  // measure 6
0200
0310
0002
0003
,  // measure 7
0000
1000
0001
0010
0100
0010
0001
0100
,  // measure 8
0020
0130
0002
1003
,  // measure 9
0010
0000
0100
0010
0100
0000
0001
1000
0001
0000
1000
0100
1000
0001
1000
0001
,  // measure 10
2000
3010
0202
0303
,  // measure 11
0000
1000
0010
0100
0001
0100
0010
0100
,  // measure 12
0002
0013
2200
3300
,  // measure 13
0100
0010
0100
1000
0002
0000
0003
0000
,  // measure 14
2000
3010
0202
0303
,  // measure 15
0000
0001
1000
0010
0100
0001
0010
0100
,  // measure 16
0020
0031
2100
3001
,  // measure 17
0100
0001
1000
0001
0020
0000
0030
0000
,  // measure 18
0002
0000
0000
0000
0100
0000
0000
0000
2003
0000
0000
0000
3100
0000
0000
0M00
,  // measure 19
0000
0100
0010
0001
2000
0000
3010
0000
,  // measure 20
0020
0000
0000
0000
0130
0000
0000
0000
0001
0000
0100
0000
0010
0000
0000
00M0
,  // measure 21
0000
1000
0001
0100
0020
0000
1030
0000
,  // measure 22
2100
0000
0000
0000
0001
0000
0000
0000
3020
0000
0000
0000
0130
0000
0000
0M00
,  // measure 23
0000
0100
0001
1000
0010
0100
0001
0000
,  // measure 24
1020
0000
0000
0000
0130
0000
0000
0M00
0001
0000
1000
0000
0010
0000
0000
0000
,  // measure 25
0100
0001
1000
0200
0000
0300
0000
0000
,  // measure 26
2100
0000
0000
0000
0001
0000
0000
0000
0010
0000
0000
0000
3001
0000
0000
M00M
,  // measure 27
0000
0001
0100
0010
0100
0001
1000
0010
,  // measure 28
1020
0000
0000
0000
0130
0000
0000
0000
0100
0000
0010
0000
1000
0000
0000
M0M0
,  // measure 29
0000
1000
0010
0100
0002
0000
1003
0000
,  // measure 30
1200
0000
0000
0000
0010
0000
0000
0000
1000
0000
0000
0000
0310
0000
0000
0MM0
,  // measure 31
0000
0001
1000
0010
0200
0000
0301
0000
,  // measure 32
11MM
MM11
M1M1
1M1M
,  // measure 33
1000
0010
0100
0002
0000
0003
0000
0000
,  // measure 34
0220
0000
0000
0000
0030
0301
1000
0000
,  // measure 35
2200
0000
0000
0000
3000
0310
0001
0000
,  // measure 36
0202
0000
0000
0010
0300
2003
3010
00M0
,  // measure 37
0010
1000
0000
1100
0000
2000
0002
0000
,  // measure 38
0010
0000
0000
0000
0000
0000
0000
0000
3000
0000
0103
0000
0010
0000
0000
00M0
,  // measure 39
0200
0002
0000
0010
0300
1003
0020
0000
,  // measure 40
0130
0002
0000
2003
0000
3100
0010
00M0
,  // measure 41
0010
0200
0000
1300
M000
2000
0200
0000
,  // measure 42
0010
0000
0000
0000
0300
3002
0200
0000
,  // measure 43
1000
0000
0000
0000
0000
0000
0000
0000
0003
0000
0320
0000
0130
0000
0000
0M00
,  // measure 44
0002
0000
1003
0000
0000
0000
1200
0000
0000
0000
0310
0000
0001
0000
0000
00M0
,  // measure 45
1000
0002
0003
0101
0000
0020
2000
0000
,  // measure 46
0001
0000
0000
0000
0030
3002
2000
0000
,  // measure 47
0010
0000
0020
0000
0030
3003
0000
0000
,  // measure 48
2000
0000
3000
0000
,  // measure 49
0000
0002
0000
0003
,  // measure 50
0000
2000
0000
3000
,  // measure 51
0020
0000
0230
0302
,  // measure 52
0203
0000
0000
0000
0000
0300
0000
0000
,  // measure 53
0020
0000
0030
0000
0000
0020
0000
0030
0000
0020
0000
0030
0000
0020
0000
4030
,  // measure 54
0004
0000
0000
0000
,  // measure 55
3003
1001
1001
0000
,  // measure 56
0000
0000
0110
0000
0000
0010
0010
0010
,  // measure 57
0000
0000
0101
0000
0000
1000
1000
1000
,  // measure 58
0000
0000
0011
0000
0000
0100
0100
0100
,  // measure 59
0000
0000
1010
0000
0000
0001
0001
0001
,  // measure 60
0000
0000
1010
0000
0000
0100
0100
0100
,  // measure 61
0000
0000
0101
0000
0000
0010
0010
0010
,  // measure 62
0000
0000
1100
0000
0000
0001
0001
0001
,  // measure 63
1MM1
11MM
1M1M
M1M1
,  // measure 64
0002
0103
0000
1M1M
0000
M1M1
0000
11MM
,  // measure 65
0000
MM11
0000
M11M
0000
11MM
0000
M1M1
,  // measure 66
0000
1M1M
0000
11MM
0000
MM11
0000
M1M1
,  // measure 67
0000
M11M
0000
1M1M
0000
11MM
0000
M11M
,  // measure 68
0000
MM11
0000
M1M1
0000
11MM
0000
MM11
,  // measure 69
0000
1M1M
0000
M1M1
0000
1MM1
0000
11MM
,  // measure 70
0000
1M1M
0000
M1M1
0000
MM11
0000
M11M
,  // measure 71
0000
11MM
0000
MM11
0000
M11M
0000
1MM1
,  // measure 72
0002
0000
0103
0000
0020
0000
1030
0002
,  // measure 73
0000
0103
0010
0100
0002
0000
1003
0000
,  // measure 74
1002
0000
0013
0000
0200
0000
1300
0002
,  // measure 75
0000
1003
0010
1000
0200
0000
0310
0000
,  // measure 76
0012
0000
0103
0000
0020
0000
1030
0002
,  // measure 77
0000
0103
0010
0100
0002
0000
1003
0000
,  // measure 78
1020
0000
0130
0000
0002
0000
0013
0200
,  // measure 79
0000
1300
0001
1000
0020
0000
0130
0000
,  // measure 80
020M
0000
M320
0000
203M
0000
3001
0200
,  // measure 81
000M
0301
1000
0002
2000
0000
3003
0000
,  // measure 82
M002
0000
0M23
0000
023M
0000
1300
0002
,  // measure 83
M000
0103
0010
0200
00M2
0000
0010
0303
,  // measure 84
0M02
0000
M203
0000
03M2
0000
1003
0020
,  // measure 85
M000
0130
0001
0200
00M2
0000
0303
0000
,  // measure 86
020M
0000
M320
0000
2M30
0000
3010
0200
,  // measure 87
00M0
0000
0301
0000
1000
0010
0100
0000
M002
0000
0000
0000
0003
0000
0000
0000
,  // measure 88
0102
0000
0000
0000
0000
0000
2000
0000
0000
0000
3003
0000
0000
M00M
0000
0000
,  // measure 89
1200
0000
0000
0000
0000
0000
0020
0000
0000
0000
0330
0000
0000
0MM0
0000
0000
,  // measure 90
0012
0000
0000
0200
0000
0000
0010
1000
,  // measure 91
0010
1000
0010
0000
0020
0030
0303
0000
,  // measure 92
0102
0000
0000
0000
0000
0000
0020
0000
0000
0000
0033
0000
0000
0MM0
0000
0000
,  // measure 93
2100
0000
0000
0000
0000
0000
0020
0000
0000
0000
3030
0000
0000
0MM0
0000
0000
,  // measure 94
0220
0000
0330
2002
0000
0000
0010
0010
,  // measure 95
0100
0100
0010
0000
0020
0030
3003
0000
,  // measure 96
0001
0000
0000
0000
1000
000M
0000
0000
0002
M000
0000
0000
0003
0000
0100
00M0
,  // measure 97
0000
0000
0010
0M00
0000
0000
0000
00M0
2000
0000
0000
0000
3000
0000
M000
0000
;

//---------------dance-single - Hard----------------
#NOTES:
     dance-single:
     Ace Of Hearts (2008):
     Hard:
     8:
     0.677,0.492,0.398,1.000,0.017:
0000
0000
0000
0000
,
2000
3001
0200
0300
,
0000
0001
1000
0001
0100
0010
0100
0010
,
0200
0301
2000
3000
,
0001
0010
0100
1000
0002
0000
0003
0000
,
2000
3001
0020
0030
,
0000
0100
0010
0100
1000
0001
1000
0001
,
0200
0310
0200
0300
,
0202
0000
0303
0000
,
0002
0013
0200
0300
,
0000
1000
0001
1000
0010
0100
0001
1000
,
0200
0310
0200
0300
,
1000
0001
0100
0010
2000
0000
3000
0000
,
0020
0130
0002
0003
,
0000
0100
0001
1000
0001
0100
0001
1000
,
0200
0310
0002
0003
,
1000
0010
0100
0001
2000
0000
3000
0000
,
0002
0013
0002
0103
,
0000
0010
0100
0001
2000
0000
3100
0000
,
2000
0000
3010
0000
0100
0001
0100
0000
,
0000
0010
0100
0001
2000
0000
3010
0000
,
0200
0301
0200
0310
,
0000
1000
0001
0100
0002
0000
1003
0000
,
0020
0000
0130
0000
0001
0010
0100
0000
,
1000
0010
0100
0002
0000
0003
0000
0000
,
0102
1003
2100
3001
,
0000
0001
0100
0010
1000
0001
0100
0000
,
2010
3001
0012
1003
,
0000
1000
0100
0010
0002
0000
0013
0000
,
0200
0000
1300
0000
1000
0001
0100
0000
,
0000
0110
0000
0100
0002
0000
1003
0000
,
2100
0000
3001
0000
0100
0010
0100
0000
,
0001
0010
0100
2000
0000
3000
0000
0000
,
2002
0000
0000
3003
0000
0001
0100
0000
,
2020
0000
0000
3030
0000
1000
0100
0000
,
2100
0000
0000
3010
0000
0100
0001
0000
,
1000
0020
0030
0110
0000
0100
0001
0000
,
0202
0000
0000
0303
0000
0100
0010
0000
,
1000
0002
0000
0103
0000
0010
2000
0000
,
3001
0200
0000
0301
0000
1000
0100
0000
,
1000
0002
0000
0103
0000
0010
0100
0000
,
0202
0000
0000
0303
0000
0100
0010
0000
,
2020
0000
0000
3030
0000
1000
0100
0000
,
0012
0000
0000
0103
0000
0010
0200
0000
,
0301
1000
0000
1100
0000
0100
0010
0000
,
0220
0000
0000
0330
0000
0010
0001
0000
,
1100
2200
3300
0000
,
2000
0000
3000
0000
,
0000
0200
0000
0300
,
0000
0020
0000
0030
,
0002
0000
0023
0230
,
2300
0000
0000
0000
0000
3000
0000
0000
,
0200
0000
0000
0000
0000
0320
0000
0000
0000
0032
0000
0000
0000
0023
0000
0430
,
4000
0000
0000
0000
,
3300
1100
1100
0000
,
0000
0000
0011
0000
0000
0010
0010
0000
,
0000
0000
0110
0000
0000
0100
0100
0000
,
0000
0000
1100
0000
0000
1000
1000
0000
,
0000
0000
1010
0000
0000
0100
0100
0000
,
0000
0000
0101
0000
0000
0001
0001
0000
,
0000
0000
0011
0000
0000
0010
0010
0000
,
0000
0000
0110
0000
0000
0100
0100
0000
,
1100
1100
0101
0101
,
0000
2100
0000
0001
0000
0100
0000
3001
,
0000
0102
0000
1000
0000
0100
0000
1003
,
0000
2010
0000
0001
0000
0010
0000
3001
,
0000
0012
0000
1000
0000
0010
0000
1003
,
0000
0120
0000
1000
0000
0100
0000
1030
,
0000
0210
0000
0001
0000
0010
0000
0301
,
0000
0102
0000
1000
0000
0010
0000
1003
,
0000
2001
0000
0010
0000
0100
0000
3001
,
0200
0000
0302
0000
2003
0000
3001
0020
,
0000
0130
1000
0001
0200
0000
0300
0000
,
0002
0000
2003
0000
3020
0000
0130
0002
,
0000
1003
0010
0100
0002
0000
0003
0000
,
2000
0000
3200
0000
0320
0000
0031
0200
,
0000
0310
0100
0001
2000
0000
3000
0000
,
0002
0000
0023
0000
0230
0000
1300
0002
,
0000
0103
0001
1000
0200
0000
0300
0000
,
2000
0000
3020
0000
0230
0000
0301
2000
,
0000
3001
0100
0001
0200
0000
0300
0000
,
0020
0000
0230
0000
0302
0000
1003
0020
,
0000
0130
0010
0100
0020
0000
2030
0000
,
3002
0000
0203
0000
0320
0000
0130
0002
,
0000
1003
0100
1000
0002
0000
0003
0000
,
2000
0000
3020
0000
0230
0000
0301
2000
,
0000
3001
0010
0100
2000
0000
3000
0000
,
2100
0000
0000
0002
0000
3003
0000
0000
,
0012
0000
0000
2000
0000
3003
0000
0000
,
2010
0000
0000
3200
0000
0300
1000
0010
,
1000
0010
0200
0000
0020
0000
0330
0000
,
0012
0000
0000
2000
0000
3003
0000
0000
,
2010
0000
0000
0002
0000
3003
0000
0000
,
0220
0000
0330
2002
0000
3003
0001
0100
,
0010
0100
0002
0000
2000
0000
3003
0000
,
1000
0000
1000
0000
2000
0000
3000
0001
,
0000
0001
0000
0000
0002
0000
0003
0000
;

//---------------dance-single - Medium----------------
#NOTES:
     dance-single:
     Ace Of Hearts (2008):
     Medium:
     6:
     0.494,0.287,0.212,0.796,0.017:
0000
0000
0000
0000
,
1000
0001
2000
3000
,
0000
0001
0100
0000
0100
0000
0000
0000
,
0010
0010
0200
0300
,
0001
0100
0000
0001
0100
0000
0000
0000
,
0010
0010
2000
3000
,
0000
0001
0010
0000
0010
0000
0000
0000
,
0100
1000
0200
0300
,
0220
0000
0330
0000
,
0010
0001
2000
3000
,
0000
0001
0100
0000
0100
0000
0000
0000
,
0010
0010
2000
3000
,
0010
0100
0000
0010
0100
0000
0000
0000
,
0001
1000
0200
0300
,
0000
1000
0001
0000
0001
0000
0000
0000
,
1000
0001
0020
0030
,
0100
0010
0000
0100
0010
0000
0000
0000
,
0002
1000
1003
0000
,
0000
0010
1000
0000
0001
0000
0000
0000
,
0200
0010
0310
0000
,
0000
1000
0000
0000
1000
0000
0000
0000
,
2000
0001
3001
0000
,
0000
0100
0000
0000
0100
0000
0000
0000
,
0020
0100
0130
0000
,
0001
1000
0000
0000
1001
0000
0000
0000
,
2000
0100
3100
0000
,
0000
1000
0001
0000
0100
0000
0000
0000
,
0002
0010
0013
0000
,
0000
0100
0000
1000
0001
0000
0000
0000
,
0200
0001
0301
0000
,
0000
1000
0000
0001
0100
0000
0000
0000
,
0020
1000
1030
0000
,
0001
0100
0001
0200
0000
0300
0000
0000
,
0202
0000
0000
0303
0000
0000
0100
0000
,
0220
0000
0000
0330
0000
0000
0010
0000
,
2010
0000
0000
3010
0000
0000
0100
0000
,
0201
0000
0000
0301
0000
0000
1000
0000
,
2200
0000
0000
3300
0000
0000
0100
0000
,
0120
0000
0000
0031
0000
0000
1000
0000
,
1020
0000
0000
0130
0000
0000
0001
0000
,
0201
0000
0000
0310
0000
0000
0100
0000
,
0220
0000
0000
0330
0000
0000
0010
0000
,
2020
0000
0000
3030
0000
0000
1000
0000
,
2100
0000
0000
3001
0000
0000
0100
0000
,
0201
0000
0000
0310
0000
0000
0100
0000
,
0202
0000
0000
0303
0000
0000
0000
0000
,
0100
0200
0300
0000
,
0020
0000
0030
0000
,
0020
0000
0000
0030
,
0000
0200
0000
0300
,
0002
0000
2003
3002
,
2003
0000
0000
0000
0000
3000
0000
0000
,
0002
0000
0000
0000
0000
2003
0000
0000
0000
3020
0000
0000
0000
0230
0000
0304
,
0400
0000
0000
0000
,
0303
0000
0000
0000
,
0012
0010
0000
0010
,
0000
1000
0000
1003
,
2001
0001
0000
0001
,
0000
0100
0000
3100
,
0210
0010
0000
1000
,
0000
0010
0000
1300
,
1020
1000
0000
0130
,
0100
0100
0100
0100
,
0000
0001
0000
0001
0000
0001
0000
0001
,
0000
1000
0000
1000
0000
1000
0000
1000
,
0000
0010
0000
0010
0000
0010
0000
0010
,
0000
0100
0000
0100
0000
0100
0000
0100
,
0000
0001
0000
0001
0000
0001
0000
0001
,
0000
1000
0000
1000
0000
1000
0000
1000
,
0000
0100
0000
0100
0000
0100
0000
0100
,
0000
0010
0000
0010
0000
0010
0000
0010
,
0100
0000
1000
0000
0002
0000
0103
0001
,
0000
1000
0100
0000
2000
0000
3000
0000
,
0001
0000
0100
0000
0002
0000
1003
0100
,
0000
1000
0001
0000
0200
0000
0300
0000
,
0001
0000
1000
0000
0020
0000
0130
0001
,
0000
1000
0001
0000
2000
0000
3010
0000
,
0100
0000
0001
0000
2000
0000
3010
0100
,
0000
0001
0100
0000
0002
0000
0003
0000
,
2000
0000
3002
0000
2003
0000
3001
0100
,
0000
0100
0001
0000
0020
0000
0030
0000
,
0200
0000
2300
0000
3200
0000
0310
0001
,
0000
0001
0010
0000
0200
0000
0310
0000
,
0002
0000
2003
0000
3002
0000
0103
0001
,
0000
0001
0100
0000
0020
0000
0030
0000
,
2000
0000
3020
0000
2030
0000
3001
0010
,
0000
0010
0001
0000
0200
0000
0300
0000
,
0001
0000
0000
0202
0000
0303
0000
0000
,
0100
0000
0000
0220
0000
0330
0000
0000
,
0010
0000
0000
2020
0000
3030
0000
0000
,
1000
0010
1000
0000
0002
0000
0003
0000
,
0100
0000
0000
0220
0000
0330
0000
0000
,
0001
0000
0000
0202
0000
0303
0000
0000
,
0001
0000
0000
2002
0000
3003
0000
0000
,
1000
0001
1000
0000
0200
0000
0000
0300
,
0010
0000
0010
0000
0020
0000
0030
0100
,
0000
0100
0000
0000
0200
0000
0300
0000
;

//---------------dance-single - Easy----------------
#NOTES:
     dance-single:
     Ace Of Hearts (2008):
     Easy:
     4:
     0.282,0.245,0.076,0.407,0.004:
0000
0000
0000
0000
,
1000
1000
2000
3000
,
0000
1000
1000
0000
,
0001
0001
0002
0003
,
0100
0100
0100
0000
,
0010
0010
0020
0030
,
0000
1000
1000
0000
,
0001
0001
0002
0003
,
0020
0000
0030
0000
,
0001
0001
0002
0003
,
0000
0000
1000
0000
,
1000
1000
2000
3000
,
0001
0000
0001
0000
,
0100
0100
0200
0300
,
0000
0000
0010
0000
,
0010
0010
0020
0030
,
1000
0000
1000
0000
,
0001
0001
0001
0000
,
0000
1000
1000
0000
,
0010
0010
0010
0000
,
0000
0000
0100
0000
,
0001
0001
0001
0000
,
0000
0000
0010
0000
,
0100
0100
0100
0000
,
1000
0000
0001
0000
,
0100
0100
0200
0300
,
0000
0000
0001
0000
,
1000
1000
1000
0000
,
0000
0000
0001
0000
,
0100
0100
0200
0300
,
0000
0000
0010
0000
,
0010
0010
0020
0030
,
0100
0000
0100
0000
,
2002
0000
3003
0000
,
0220
0000
0330
0000
,
1001
0000
0001
0000
,
0001
0000
0001
0000
,
2002
0000
3003
0000
,
1001
0000
0001
0000
,
1000
0000
1000
0000
,
1000
0000
1000
0000
,
2002
0000
3003
0000
,
0220
0000
0330
0000
,
0110
0000
0010
0000
,
0010
0000
0010
0000
,
0220
0000
0330
0000
,
0100
0200
0300
0000
,
0002
0000
0003
0000
,
0002
0000
0000
0003
,
0000
2000
0000
3000
,
0002
0000
0023
0000
,
0000
0000
0000
0000
0000
0030
0000
0000
,
0002
0000
0000
0000
0000
0000
0000
0000
0000
0000
0000
0000
0003
0000
0000
4000
,
0004
0000
0000
0000
,
3003
0000
0000
0000
,
0000
0001
0000
0001
,
0000
0001
0000
0001
,
0000
1000
0000
1000
,
0000
1000
0000
1000
,
0000
0010
0000
0010
,
0000
0010
0000
0010
,
0000
0100
0000
0100
,
0100
0100
0100
0100
,
0002
0000
0000
0000
,
0000
0000
0000
0000
,
0000
0000
0000
0000
,
0000
0000
0000
0000
,
0000
0000
0000
0000
,
0000
0000
0000
0000
,
0000
0000
0000
0000
,
0000
0000
0000
0003
,
1000
1000
1000
0000
,
0020
0000
0030
0000
,
0100
0100
0100
0000
,
0002
0000
0003
0000
,
1000
1000
1000
0000
,
0200
0000
0300
0000
,
0010
0010
0010
0000
,
0002
0000
0003
0000
,
1000
0000
1000
0000
1000
0000
0000
0001
,
0000
0100
0200
0300
,
0001
0000
0001
0000
0001
0000
0000
1000
,
0000
0100
0200
0300
,
1000
0000
1000
0000
1000
0000
0000
0001
,
0000
0100
0200
0300
,
0001
0000
0001
0000
0001
0000
0000
1000
,
0000
0100
0200
0300
,
2000
0000
0000
3000
0000
0000
0000
0000
,
0002
0000
0000
0003
0000
0000
0000
0000
,
0020
0000
0000
0030
0000
0000
0000
0000
,
0100
0100
0100
0000
,
2000
0000
0000
3000
0000
0000
0000
0000
,
0002
0000
0000
0003
0000
0000
0000
0000
,
0200
0000
0000
0300
0000
0000
0000
0000
,
0010
0010
0010
0000
,
2000
0000
0000
0000
3000
0000
0000
0002
,
0000
0000
0003
0000
;

//---------------dance-single - Novice----------------
#NOTES:
     dance-single:
     Ace Of Hearts (2008):
     Beginner:
     1:
     0.134,0.082,0.059,0.305,0.000:
0000
0000
0000
0000
,
0002
0000
0003
0000
,
0000
0000
0000
0000
,
2000
0000
3000
0000
,
0000
0000
0000
0000
,
0002
0000
0003
0000
,
0000
0000
0000
0000
,
2000
0000
3000
0000
,
0200
0000
0300
0000
,
2000
0000
3000
0000
,
0000
0000
0000
0000
,
0002
0000
0003
0000
,
0000
0000
0000
0000
,
0200
0000
0300
0000
,
0000
0000
0000
0000
,
0020
0000
0030
0000
,
0000
0000
0000
0000
,
1000
0000
0000
0000
,
0000
0000
0000
0000
,
0001
0000
0000
0000
,
0000
0000
0000
0000
,
0100
0000
0000
0000
,
0000
0000
0000
0000
,
0010
0000
0000
0000
,
0010
0000
0000
0000
,
1000
0000
0000
0000
,
0000
0000
0000
0000
,
0001
0000
0000
0000
,
0000
0000
0000
0000
,
0100
0000
0000
0000
,
0000
0000
0000
0000
,
0010
0000
0000
0000
,
0100
0000
0000
0000
,
0002
0000
0000
0000
,
0003
0000
0000
0000
,
2000
0000
0000
0000
,
0000
0000
0000
0000
,
3000
0000
0000
0000
,
0001
0000
0000
0000
,
1000
0000
0000
0000
,
0001
0000
0000
0000
,
0200
0000
0000
0000
,
0300
0000
0000
0000
,
0001
0000
0000
0000
,
1000
0000
0000
0000
,
0020
0000
0000
0000
,
0030
0000
0000
0000
,
2000
0000
3000
0000
,
2000
0000
3000
0000
,
0000
0002
0000
0000
,
0000
0000
0000
0000
,
0000
0000
0003
0000
,
0200
0000
0000
0300
,
0220
0000
0000
0000
,
0330
0000
0000
0000
,
1001
0000
0000
0000
,
0000
0000
0000
0000
,
1001
0000
0000
0000
,
0000
0000
0000
0000
,
0110
0000
0000
0000
,
0000
0000
0000
0000
,
0110
0000
0000
0000
,
0200
0000
0300
0000
,
0020
0000
0000
0000
,
0000
0000
0000
0000
,
0000
0000
0000
0000
,
0000
0000
0000
0000
,
0000
0000
0000
0000
,
0000
0000
0000
0000
,
0000
0000
0000
0000
,
0000
0000
0030
0000
,
1000
0000
0000
0000
,
2000
0000
3000
0000
,
0001
0000
0000
0000
,
0002
0000
0003
0000
,
0100
0000
0000
0000
,
0200
0000
0300
0000
,
0010
0000
0000
0000
,
0020
0000
0030
0000
,
1000
0000
1000
0000
,
2000
0000
3000
0000
,
0001
0000
0001
0000
,
0002
0000
0003
0000
,
0100
0000
0100
0000
,
0200
0000
0300
0000
,
0010
0000
0010
0000
,
0020
0000
0030
0000
,
2000
0000
3000
0000
,
0002
0000
0003
0000
,
2000
0000
3000
0000
,
1001
0000
0000
0000
,
0020
0000
0030
0000
,
0200
0000
0300
0000
,
0020
0000
0030
0000
,
0110
0000
0000
0000
,
0020
0000
0000
0000
,
0000
0000
0000
0030
;

//---------------dance-single - Race to 777!----------------
#NOTES:
     dance-single:
     Race to 777!:
     Edit:
     11:
     1.000,1.000,0.263,0.898,0.191: // measure 1
0000
0000
0000
0000
,  // measure 2
1002
0000
1003
0000
1020
0000
0130
0001
,  // measure 3
0000
0000
0001
0010
0100
0000
0010
0000
0001
0100
0010
0000
1000
0000
0010
0000
,  // measure 4
2010
3010
0201
0301
,  // measure 5
1000
0010
0100
0000
0001
0000
0100
0000
0102
0000
0000
0000
1003
0000
0000
0000
,  // measure 6
1200
0000
0310
0000
0012
0000
1003
0100
,  // measure 7
0000
0000
0100
1000
0001
0000
0100
0000
0001
1000
0010
0000
1000
0000
0010
0000
,  // measure 8
0210
0301
1002
0013
,  // measure 9
0010
0000
0001
1000
0001
0000
1000
0001
0100
0000
0010
0100
0010
1000
0010
1000
,  // measure 10
0002
0000
0103
0000
1020
0000
0130
0001
,  // measure 11
0000
0000
0001
0010
0100
0000
0010
0000
0001
1000
0001
0000
1000
0000
0100
0000
,  // measure 12
2100
3001
0102
0013
,  // measure 13
0100
1000
0001
0000
0010
0000
0100
0000
0020
0000
0000
0000
0031
0000
0000
0000
,  // measure 14
0102
0000
1003
0000
2100
0000
3010
0100
,  // measure 15
0000
0000
0100
0001
0010
0000
0100
0000
0010
0001
0100
0000
0010
0000
1000
0000
,  // measure 16
2100
3010
0210
0301
,  // measure 17
1000
0010
0100
0000
0001
0000
0100
0000
0102
0000
1000
0000
1003
0000
1000
0000
,  // measure 18
0100
0010
0001
0010
0100
0010
0001
0010
,  // measure 19
0100
1000
0100
0010
0100
1000
0100
0010
,  // measure 20
0001
0100
0010
0100
0001
0100
0010
0100
,  // measure 21
0001
1000
0001
0100
0001
1000
0001
0100
,  // measure 22
0010
0100
0001
0100
0010
0100
0001
0100
,  // measure 23
0010
1000
0010
0100
0010
1000
0010
0100
,  // measure 24
0010
1000
0100
0010
0100
1000
0100
0010
,  // measure 25
0001
0100
0010
2000
0001
0001
3001
0001
,  // measure 26
0100
1000
0100
0001
0100
1000
0100
0001
,  // measure 27
0010
1000
0010
0001
0010
1000
0010
0001
,  // measure 28
1000
0010
1000
0100
1000
0010
1000
0100
,  // measure 29
1000
0010
0100
0001
0010
0001
0100
0001
,  // measure 30
0010
0001
0100
0001
0010
0001
0100
0001
,  // measure 31
0010
0100
1000
0100
0010
0001
0100
0010
,  // measure 32
1000
0100
0010
0001
0100
0010
1000
0100
,  // measure 33
0020
0001
0001
0032
0203
0010
0010
0320
,  // measure 34
2030
3010
0100
0001
1000
0010
0100
0001
,  // measure 35
0020
0130
1000
0100
0010
0001
0100
0010
,  // measure 36
0200
0301
1000
0100
0010
0001
0100
0001
,  // measure 37
0020
0130
1000
0010
0100
0001
1000
0001
,  // measure 38
0200
0310
0100
0001
1000
0001
0010
0100
,  // measure 39
2000
3001
0100
0001
1000
0001
0010
0100
,  // measure 40
0020
0031
0100
0001
1000
0010
0100
0001
,  // measure 41
2000
3010
0100
0001
0010
0100
1000
0001
,  // measure 42
0200
0301
0010
0100
1000
0001
0100
0001
,  // measure 43
0020
0130
1000
0001
0100
0010
0100
0001
,  // measure 44
2000
3001
0010
0100
1000
0001
0100
0010
,  // measure 45
0200
0301
0010
0100
1000
0001
0100
0010
,  // measure 46
0200
0301
1000
0001
1000
0002
0203
0301
,  // measure 47
2000
3010
2000
3001
0100
0000
0101
0000
,  // measure 48
0002
0103
0001
0100
0001
0100
0001
0100
,  // measure 49
0001
0100
0010
0100
0010
0100
0010
0100
,  // measure 50
0010
0100
0001
1000
0001
1000
0001
1000
,  // measure 51
0010
1000
0010
1000
0001
0100
0010
1000
,  // measure 52
0001
0100
0001
0100
0001
0100
0001
0100
,  // measure 53
0010
0000
0100
0000
0010
0000
0100
0000
0010
0000
0100
0000
0010
0000
0000
0100
,  // measure 54
0010
0100
0010
0100
0010
0100
0010
0100
0010
0100
0010
0100
0010
0100
0010
0100
,  // measure 55
0010
0100
0001
1000
0001
0000
0000
0000
,  // measure 56
1000
0000
1100
0000
1000
0002
0100
0103
,  // measure 57
0010
0110
0100
0101
,  // measure 58
0001
2000
0010
3010
0100
0000
1001
0000
,  // measure 59
0001
0000
0011
0000
0010
0200
1000
1300
,  // measure 60
0001
0101
0100
0110
,  // measure 61
0010
2000
0001
3001
0100
0000
0110
0000
,  // measure 62
0010
0000
1010
0000
1000
0200
0010
0310
,  // measure 63
0011
0011
0011
0011
,  // measure 64
0001
0100
0010
1000
0010
0100
0001
0010
,  // measure 65
0100
1000
0010
0100
0001
0010
0100
1000
,  // measure 66
0010
0100
0001
1000
0001
1000
0100
0010
,  // measure 67
0100
0010
0001
1000
0010
0100
0001
1000
,  // measure 68
0010
0100
0001
1000
0100
0010
0001
0100
,  // measure 69
0001
1000
0100
1000
0001
0100
0001
1000
,  // measure 70
0010
0100
0001
1000
0010
1000
0001
0010
,  // measure 71
0001
0100
0010
1000
0001
0100
0001
1000
,  // measure 72
0010
0100
0001
0000
1000
0000
1000
0000
0200
0000
1000
0000
1300
0000
0002
0000
,  // measure 73
1000
1003
0010
0100
0002
1000
1003
1000
,  // measure 74
0010
0100
0001
0000
1000
0000
1000
0000
0200
0000
0010
0000
0310
0000
0002
0000
,  // measure 75
1000
1003
0010
0100
0002
0100
0103
0010
,  // measure 76
1000
0010
0100
0000
0001
0000
0001
0000
2000
0000
0001
0000
3001
0000
0200
0000
,  // measure 77
0001
0301
0010
0100
2000
0001
3001
0100
,  // measure 78
0010
1000
0001
0000
1000
0000
1000
0000
0020
0000
0100
0000
0130
0000
0002
0000
,  // measure 79
1000
1003
0010
0100
0001
1000
0001
1000
,  // measure 80
0020
0130
0002
1003
0020
0130
0002
2003
,  // measure 81
3001
2000
3020
0230
0302
1003
0001
0100
,  // measure 82
0002
1003
0020
0130
0002
1003
0020
0230
,  // measure 83
0301
0020
0230
2300
3002
0103
0010
0100
,  // measure 84
0002
0013
0200
1300
0002
0103
0020
0230
,  // measure 85
0301
2000
3200
0320
0032
0103
0001
1000
,  // measure 86
0002
0103
0020
0130
0002
0013
0200
2300
,  // measure 87
3001
0000
0200
0000
0301
1000
0001
0000
1000
0001
1000
0000
0020
0000
0130
0000
,  // measure 88
0001
0000
1000
0010
1000
0000
0002
0000
0013
0100
0010
0000
0001
0000
0100
0001
,  // measure 89
0200
0000
0301
0000
1000
0000
0002
0000
0103
0010
0100
0000
0002
0000
1003
0100
,  // measure 90
1000
0000
0010
0000
0100
0000
0001
1000
0001
0000
0100
0000
0010
0000
0100
0000
,  // measure 91
0001
0100
0001
0000
2000
0000
3010
0000
0200
0000
0001
0000
0001
0000
0301
0000
,  // measure 92
1000
0010
1000
0000
0001
0000
0010
0000
0100
1000
0001
0000
1000
0000
0010
0000
,  // measure 93
0100
0001
1000
0000
0001
0000
0100
0010
0100
0000
0001
0000
1000
0000
0100
0000
,  // measure 94
0010
0001
1000
0000
0001
0000
0100
0001
1000
0000
0010
0000
0100
0000
0001
0000
,  // measure 95
1000
0100
1000
0000
0002
0000
1000
0000
2003
0000
0010
0000
0010
0000
3010
0000
,  // measure 96
0200
0001
0302
1000
2003
0100
0100
3200
,  // measure 97
0010
0320
0001
0001
0032
0000
0003
0000
;
