#TITLE:100 Sec. Kitchen Battle;
#SUBTITLE:;
#ARTIST:Orange Lounge;
#TITLETRANSLIT:;
#SUBTITLETRANSLIT:;
#ARTISTTRANSLIT:;
#GENRE:Lounge;
#CREDIT:Ace Of Hearts;
#BANNER:100 Sec. Kitchen Battle - bn.png;
#BACKGROUND:100 Sec. Kitchen Battle - bg.png;
#LYRICSPATH:;
#CDTITLE:Ace Of Hearts.png;
#MUSIC:100 Sec. Kitchen Battle.ogg;
#OFFSET:0.086;
#SAMPLESTART:37.458;
#SAMPLELENGTH:15.500;
#SELECTABLE:YES;
#BPMS:0.000=178.000,176.000=89.000,192.000=178.000,261.000=11.120,261.333=178.000;
#STOPS:;
#BGCHANGES:;
#KEYSOUNDS:;

//---------------dance-single - Ace Of Hearts (2008)----------------
#NOTES:
     dance-single:
     Ace Of Hearts (2008):
     Hard:
     8:
     0.598,0.194,0.565,0.278,0.115:
0000
0000
0000
0000
,
1000
0000
0100
0000
0010
0000
0100
0000
0010
0000
0001
0000
,
2002
0000
3003
0000
,
0010
0000
0010
0000
0010
0000
0010
0000
0000
0000
0000
0000
,
1010
0000
0000
1000
0100
0010
0000
0001
,
0000
0001
0000
0100
0020
0000
2000
3030
,
1001
0000
0000
0001
0100
0010
0000
1000
,
0000
1000
0000
0001
0020
0000
0200
0330
,
1100
0000
0000
1000
0100
0010
0000
0100
,
0000
0100
0000
1000
0002
0000
0020
0033
,
0110
0000
0000
0100
1000
0001
0000
0102
,
2003
000M
0000
3000
1100
0000
0110
0000
,
0022
0033
0000
0100
1000
0001
0000
1000
,
0000
1000
0000
0010
0100
0001
2000
3000
,
1010
0000
0000
1000
0010
0100
0000
0101
,
0000
0110
0000
1010
0000
2002
0000
3003
,
0101
0000
0000
0100
0001
1000
0000
0100
,
0000
0100
0000
1000
0001
0010
0200
0300
,
1001
0000
0000
0001
1000
0100
0000
1100
,
0000
0110
0000
0011
0000
0001
1000
0100
,
0110
0000
0000
0100
0020
0031
0000
0101
,
0000
0000
0000
0000
0000
0100
0001
0010
,
0011
0000
0000
0001
2000
3100
0000
0110
,
0000
0000
0000
0000
0000
0010
0001
1000
,
1001
0000
0000
0001
0020
0130
0000
1100
,
0000
0000
0000
0000
0000
1000
0100
0010
,
0011
0000
0000
0010
0200
1300
0000
1001
,
0000
M00M
0000
0000
1000
0000
0000
0000
M200
0000
0000
0000
0300
0000
0000
0000
,
0011
0000
1001
1010
,
0000
1000
0001
1000
0010
0100
0001
1000
,
1001
0000
0101
1010
,
0000
0001
0010
0100
1000
0001
1000
0010
,
0110
0000
0101
1100
,
0000
1000
0001
0100
0010
1000
0001
1000
,
1010
0000
0101
0011
,
0000
0001
1000
0010
1000
0100
0010
0001
,
0101
0000
0001
0100
0001
1000
0001
0010
,
0001
1000
0001
0100
0001
1000
0001
0010
,
1100
0000
1000
0100
1000
0001
1000
0010
,
1000
0001
1000
0100
1000
0001
1000
0010
,
0101
0000
0001
0010
0100
1000
0001
0100
,
0010
1000
0100
0010
0001
1000
0010
0100
,
0101
0000
0001
1000
0100
0001
0100
1000
,
0001
0010
1000
0010
0001
1000
0001
0100
,
0001
0100
0001
0100
0002
0000
0103
0000
0010
1000
0010
1000
0010
0000
0000
0000
,
1000
0001
1000
0001
1000
0001
0010
0100
1000
0000
0100
0000
0010
0000
0001
0000
,
1000
0010
1000
0010
2000
0000
3001
0000
0100
0010
0100
0010
0100
0000
0000
0000
,
0001
1000
0001
1000
0100
0010
0001
2000
0002
0000
0000
0000
0010
0000
3003
0000
,
0001
0010
0100
1000
0010
0000
0101
0000
,
0100
0001
1000
0100
0010
0000
0000
0000
,
0001
0010
0100
1000
0001
0100
0001
1000
,
1100
0110
0011
1001
,
1000
0010
0100
0001
1000
0000
1100
0000
,
1000
0001
1000
0100
0010
0000
0000
0000
,
0001
0010
0100
1000
0001
1000
0100
0010
,
0001
0000
0000
0000
4000
0004
0000
0000
3003
0000
1000
0000
0100
0000
0010
0000
,
0001
0000
0000
1000
1000
1000
0000
0001
,
0001
0001
0000
0010
0000
0001
0010
0100
,
1000
0000
0000
0010
0100
0000
0001
0000
,
0101
0110
1010
1100
,
0110
0000
0000
0010
0010
0010
0000
0001
,
0001
0001
0000
1001
0000
0001
0010
0100
,
1000
0000
0000
0010
0100
0000
0001
0000
,
1002
0000
0000
0000
0203
0000
0000
0300
,
0110
0000
0000
0010
0100
0000
0001
0000
,
0011
0000
0000
0000
0000
2002
0000
0000
,
0000
0000
0000
0000
,
0000
0000
0000
0000
0000
3003
0000
0000
;

//---------------dance-single - Ace Of Hearts (2008)----------------
#NOTES:
     dance-single:
     Ace Of Hearts (2008):
     Medium:
     6:
     0.405,0.065,0.201,0.144,0.010:
0000
0000
0000
0000
,
1000
0000
0001
0000
,
2002
0000
3003
0000
,
0010
0000
0010
0000
0010
0000
0010
0000
0000
0000
0000
0000
,
0001
0000
0000
1000
0100
0000
0000
1000
,
0000
1000
0000
0001
0200
0000
0302
0000
,
0013
0000
0000
0001
0100
0000
0000
0001
,
0000
0001
0000
1000
0200
0000
0320
0000
,
0031
0000
0000
1000
0010
0000
0000
1000
,
0000
1000
0000
0001
0020
0000
0032
0000
,
0103
0000
0000
0001
1000
0001
0000
0100
,
0000
0M00
0000
0000
,
0001
0000
0000
1000
0001
1000
0000
0100
,
0000
0100
0000
1000
0001
0000
0100
0000
,
0001
0000
0000
1000
0010
1000
0000
0001
,
0000
1000
0000
0100
0000
0020
0000
0000
,
0031
0000
0000
1000
0100
1000
0000
0001
,
0000
0001
0000
1000
0010
0000
0200
0000
,
0301
0000
0000
0100
0001
0100
0000
0001
,
0000
1000
0000
0100
0000
0020
0000
0000
,
0031
0000
0000
0001
1000
0001
0000
1000
,
0000
0000
0000
0000
0000
0001
0100
0000
,
0001
0000
0000
1000
0001
1000
0000
0100
,
0000
0000
0000
0000
0000
1000
0001
0000
,
0010
0000
0000
0001
0100
0001
0000
1000
,
0000
0000
0000
0000
0000
0010
1000
0000
,
0001
0000
0000
0010
0100
1000
0000
1001
,
0000
0000
0000
0000
,
0110
0000
1001
1001
,
0000
1000
0001
0000
0100
0000
0001
0000
,
1001
0000
0110
0110
,
0000
0100
0001
0000
1000
0000
0100
0000
,
1100
0000
0011
0011
,
0000
0001
1000
0000
0010
0000
0100
0000
,
0101
0000
1010
1010
,
0000
1000
0100
0000
1000
0000
0001
0000
,
1001
0000
1000
0100
,
1000
0000
0001
1000
0000
0001
1000
0000
,
1010
0000
1000
0001
,
0100
0000
0001
0100
0000
0001
0100
0000
,
0110
0000
0010
0100
,
0010
0000
1000
0010
0000
1000
0010
0000
,
1010
0000
1000
0001
,
1000
0000
0010
0100
0000
0010
0100
0000
,
0001
0001
0001
0100
0010
0010
0010
0000
,
1000
1000
1000
0001
1000
0100
0010
0001
,
1000
1000
1000
0001
0100
0100
0100
0000
,
0001
0001
1000
1000
0001
0000
1001
0000
,
0001
0100
0000
0001
0100
0000
0001
0000
,
1000
0100
0000
1000
0100
0000
0000
0000
,
1000
0001
0000
1000
0001
0000
0100
0000
,
0001
0001
1000
1000
,
0010
0100
0000
0010
0100
0000
0001
0000
,
1000
0100
0000
1000
0100
0000
0000
0000
,
1000
0001
0000
1000
0001
0000
0100
0000
,
0010
0000
0220
0000
0330
0100
0001
0000
,
1000
0000
0000
0001
1000
0001
0000
1000
,
0001
1000
0000
0010
0000
0100
0001
0000
,
1000
0000
0000
0001
0100
0000
0001
0000
,
1000
0100
0010
0001
,
0001
0000
0000
1000
0100
1000
0000
0001
,
0100
0001
0000
0010
0000
0001
1000
0001
,
0100
0000
0000
0010
0100
0000
0001
0000
,
1000
0000
0000
0000
,
0010
0000
0000
1000
0001
0000
1000
0000
,
0010
0000
0000
0000
0000
2002
0000
0000
,
0000
0000
0000
0000
,
0000
0000
0000
0000
0000
3003
0000
0000
;

//---------------dance-single - Ace Of Hearts (2008)----------------
#NOTES:
     dance-single:
     Ace Of Hearts (2008):
     Easy:
     4:
     0.261,0.065,0.153,0.153,0.000:
0000
0000
0000
0000
,
0001
0000
0001
0000
,
2002
0000
3003
0000
,
0020
0000
0030
0000
,
0001
0000
0001
0000
,
0001
0001
0001
0000
,
1000
0000
1000
0000
,
1000
1000
1000
0000
,
0010
0000
0010
0000
,
0010
0010
0010
0000
,
0100
0000
0000
0000
0100
0000
0000
0100
,
0000
0000
0000
0000
,
1001
0000
0001
0000
,
0001
0001
0001
0000
,
1000
0000
1000
0000
,
1000
1000
1000
0000
,
0010
0000
0010
0000
,
0010
0010
0010
0000
,
0100
0000
0100
0000
,
0100
0100
0100
0000
,
0001
0000
0001
0000
,
1001
0000
0000
0000
,
1000
0000
1000
0000
,
1010
0000
0000
0000
,
0010
0000
0010
0000
,
0110
0000
0000
0000
,
0100
0000
0100
0000
,
0101
0000
0000
0000
,
2001
0000
0001
3001
,
0000
0000
0000
0000
,
1002
0000
1000
1003
,
0000
0000
0000
0000
,
2001
0000
0010
3010
,
0000
0000
0000
0000
,
1002
0000
0010
0013
,
0000
0000
0000
0000
,
1001
0001
0001
0001
,
0002
0000
0103
0000
,
1001
1000
1000
1000
,
2000
0000
3010
0000
,
0110
0010
0010
0010
,
0020
0000
0130
0000
,
1001
1000
1000
0001
,
0002
0000
0013
0000
,
0001
0001
0001
0000
1000
1000
1000
0000
,
0010
0010
0010
0000
2000
0000
0000
3000
,
0010
0010
0010
0000
1000
1000
1000
0000
,
0001
0001
0001
0000
0010
0000
0110
0000
,
1000
1000
1000
0000
,
0001
0001
0001
0000
,
0010
0010
0010
0001
,
0002
0000
0000
0003
,
1000
1000
1000
0000
,
0100
0100
0100
0000
,
0010
0010
0010
0000
,
0001
0002
0003
1000
,
1000
0000
1000
0000
,
1000
0000
0000
0001
0000
0000
0100
0000
,
0100
0000
0100
0000
,
0010
0010
0010
0010
,
1000
0000
0001
0000
,
0001
0000
0000
1000
0000
0000
1000
0000
,
1000
0000
0001
0001
,
0001
0000
0000
0000
,
1000
0000
0010
0010
,
0010
0000
0000
0000
0000
2002
0000
0000
,
0000
0000
0000
0000
,
0000
0000
0000
0000
0000
3003
0000
0000
;

//---------------dance-single - Ace Of Hearts (2008)----------------
#NOTES:
     dance-single:
     Ace Of Hearts (2008):
     Beginner:
     2:
     0.140,0.065,0.067,0.268,0.000:
0000
0000
0000
0000
,
0020
0000
0000
0000
,
0030
0000
0000
0000
,
0010
0000
0000
0000
,
1000
0000
0000
0000
,
0000
0000
0000
0000
,
1000
0000
0000
0000
,
0000
0000
0000
0000
,
1000
0000
0000
0000
,
0000
0000
0000
0000
,
1000
0000
0000
0000
,
0000
0000
0000
0000
,
0001
0000
0001
0000
,
0001
0000
0000
0000
,
1000
0000
1000
0000
,
1000
0000
0000
0000
,
0010
0000
0010
0000
,
0010
0000
0000
0000
,
0100
0000
0100
0000
,
0100
0000
0000
0000
,
0002
0000
0000
0000
0000
0000
0000
0003
,
0000
0000
0000
0000
,
2000
0000
0000
0000
0000
0000
0000
3000
,
0000
0000
0000
0000
,
0020
0000
0000
0000
0000
0000
0000
0030
,
0000
0000
0000
0000
,
0200
0000
0000
0000
0000
0000
0000
0300
,
0000
0000
0000
0000
,
0001
0000
0002
0003
,
0000
0000
0000
0000
,
1000
0000
2000
3000
,
0000
0000
0000
0000
,
0010
0000
0020
0030
,
0000
0000
0000
0000
,
0100
0000
0200
0300
,
0000
0000
0000
0000
,
1001
0000
0000
0000
,
0000
0000
0000
0000
,
0110
0000
0000
0000
,
0000
0000
0000
0000
,
1001
0000
0000
0000
,
0000
0000
0000
0000
,
0110
0000
0000
0000
,
0002
0000
0003
0000
,
2000
3000
2000
3000
,
2000
3000
0010
0000
,
0200
0300
0200
0300
,
0200
0300
0010
0000
,
2000
0000
3000
0000
,
2000
0000
3000
0000
,
0002
0000
0003
0000
,
2002
0000
3003
0000
,
0020
0000
0030
0000
,
0020
0000
0030
0000
,
0200
0000
0000
0000
,
0300
0220
0330
0000
,
0001
0000
0001
0000
,
0001
0000
0000
0000
,
1000
0000
1000
0000
,
2000
0000
3000
0000
,
0010
0000
0010
0000
,
0010
0000
0000
0000
,
0100
0000
0100
0000
,
0100
0000
0000
0000
,
0001
0000
0001
0000
,
1001
0000
0000
0000
0000
0020
0000
0000
,
0000
0000
0000
0000
,
0000
0000
0000
0000
0000
0030
0000
0000
;

//---------------dance-single - Ace Of Hearts (2008)----------------
#NOTES:
     dance-single:
     Ace Of Hearts (2008):
     Challenge:
     11:
     0.871,0.259,1.000,1.000,0.187: // measure 1
0000
0000
0000
0000
,  // measure 2
1100
0000
0100
0000
0010
0000
0011
0000
0001
0000
1000
0000
,  // measure 3
2002
0000
0000
0000
,  // measure 4
0010
0000
0000
0000
0010
0000
0000
0000
0010
0000
0000
0000
0010
0000
0000
3003
0000
0000
0000
0000
0000
0000
0000
0000
,  // measure 5
2002
3003
0000
1000
0100
0020
0000
0001
,  // measure 6
0000
0100
0000
0031
0200
0000
0020
0330
,  // measure 7
2020
3030
0000
0010
0100
0002
0000
0010
,  // measure 8
0000
1000
0000
0103
0020
0000
2000
3030
,  // measure 9
0202
0303
0000
0001
1000
0200
0000
0010
,  // measure 10
0000
1000
0000
0310
0002
0000
0200
0303
,  // measure 11
2020
3030
0000
1000
0100
0020
0000
0031
,  // measure 12
02M4
0000
0000
0303
1010
0000
0110
0000
,  // measure 13
0102
0000
0000
0M00
0003
0000
1000
0000
0020
0000
0130
0000
0000
0000
0101
0000
,  // measure 14
0000
0000
1100
0000
0000
0000
1000
0000
1001
0000
0010
M000
0200
0000
0000
0300
,  // measure 15
2001
0000
0000
000M
3000
0000
0001
0000
0020
0000
0130
0000
0000
0000
1100
0000
,  // measure 16
00MM
0011
M00M
1001
0M0M
0202
0000
0303
,  // measure 17
2010
0000
0000
00M0
3000
0000
0001
0000
0020
0000
0130
0000
0000
0000
1100
0000
,  // measure 18
0000
0000
0101
0000
0000
0000
0100
0000
0110
0000
0001
0000
2000
0000
0000
3000
,  // measure 19
0210
0000
0000
00M0
0300
0000
0010
0000
0200
0000
1300
0000
0000
0000
1001
0000
,  // measure 20
M0M0
0000
1010
0000
0M0M
0000
0101
0000
MM00
0000
0001
0000
2000
0000
3200
0300
,  // measure 21
0120
0000
0000
0M00
0030
0000
0100
0000
2000
0000
3001
0000
0000
0000
0201
0000
,  // measure 22
0000
0010
0000
0301
0000
1000
0100
0010
,  // measure 23
0012
0000
0000
00M0
0003
0000
1000
0000
0002
0000
0013
0000
0000
0000
2100
0000
,  // measure 24
0000
0001
0000
3010
0000
0100
0001
1000
,  // measure 25
1020
0000
0000
M000
0030
0000
1000
0000
0020
0000
0130
0000
0000
0000
1002
0000
,  // measure 26
0000
0010
0000
0103
0000
0010
2000
3001
,  // measure 27
0021
0000
0000
000M
0030
0000
0001
0000
2000
0000
3100
0000
0000
0000
022M
0000
,  // measure 28
0000
0000
0001
0000
2000
3000
0330
0000
,  // measure 29
1002
1003
0010
0100
0201
0301
0012
0013
,  // measure 30
0100
1000
0010
0001
0010
1000
0001
0100
,  // measure 31
0210
0310
1000
0001
0102
0103
0210
0310
,  // measure 32
0001
0010
1000
0001
0010
1000
0010
0001
,  // measure 33
1002
1003
0100
0010
0021
0031
1002
1003
,  // measure 34
0100
0001
0100
1000
0001
0100
0010
1000
,  // measure 35
2100
3100
0010
0001
1002
1003
2010
3010
,  // measure 36
0100
0001
0100
1000
0100
0001
1000
0100
,  // measure 37
0120
0031
1000
0010
0001
0010
1000
0001
,  // measure 38
0100
1000
0100
0001
1000
0010
0001
0010
,  // measure 39
1020
1030
0001
0100
1000
0100
0010
0001
,  // measure 40
0010
1000
0001
0100
1000
0100
0001
1000
,  // measure 41
2100
3100
0010
0001
1000
0010
0001
0010
,  // measure 42
1000
0100
0010
0001
0100
1000
0100
0001
,  // measure 43
1002
1003
0100
0010
1000
0010
0001
1000
,  // measure 44
1020
0130
0210
0301
0102
1003
2100
3001
,  // measure 45
M101
0M01
00M1
0M01
M002
0000
01M3
0000
011M
M010
0M10
001M
0M10
0000
M0M0
0000
,  // measure 46
101M
0000
0000
1M00
0000
0000
10M0
0000
0000
100M
0000
0000
1M00
0000
0000
00M1
0000
0000
0M10
0000
0000
M100
0000
0000
210M
0000
0000
3000
0M00
0000
0210
0000
0000
0300
00M0
0000
0021
0000
0000
0030
000M
0000
2002
0000
0000
3003
0000
0000
,  // measure 47
1M10
001M
M010
0M10
002M
0000
1M30
0000
11M0
010M
M100
01M0
010M
0000
0MM0
0000
,  // measure 48
110M
0000
0000
0000
10M0
0000
0000
0000
1M00
0000
0000
0000
100M
0000
0000
0000
10M1
0000
0000
0000
0M01
0000
0000
0000
M001
0000
0000
0000
0M01
0000
0000
0000
02M2
0000
0000
0000
0000
0000
0000
0000
0000
0000
0000
M000
00M0
0000
0000
1000
0010
0000
0000
M000
00M0
0000
0000
0000
0303
0000
0000
0000
0000
0000
0000
0000
,  // measure 49
2001
3001
0010
0100
1200
1300
0001
1000
,  // measure 50
2010
3010
0100
0001
1002
1003
1000
0000
,  // measure 51
1020
1030
0001
1000
0100
0010
0001
1000
,  // measure 52
1002
0103
0201
0310
0120
1030
2100
3001
,  // measure 53
1002
0103
0010
1000
2001
3100
2100
3001
,  // measure 54
0021
0130
1000
0001
0201
0010
0310
0000
,  // measure 55
1020
0130
0001
1000
1200
0310
0001
0100
,  // measure 56
0202
0000
4000
0000
3303
0001
1000
0100
,  // measure 57
0120
0001
0031
1000
1002
1003
0010
0100
,  // measure 58
0102
0103
0100
0120
1030
0001
1000
0001
,  // measure 59
0201
0010
0310
1000
0100
0000
0010
0000
,  // measure 60
2001
3100
0120
0031
0012
1003
1020
0130
,  // measure 61
0102
1000
1003
0100
0210
0310
0001
1000
,  // measure 62
1002
1003
0010
0120
0130
0001
0010
0100
,  // measure 63
1200
1300
0001
0100
0202
0303
0220
0330
,  // measure 64
1M4M
0000
0000
0030
M4MM
0000
0000
0300
,  // measure 65
1010
0000
0000
1100
0101
0000
0011
0000
,  // measure 66
2200
0000
0000
0000
0000
0001
0000
0000
,  // measure 67
0000
0000
0000
0000
,  // measure 68
0000
0000
0000
0000
0000
3300
0000
0000
;
