#TITLE:d-Tune 2013;
#SUBTITLE:;
#ARTIST:AS-13;
#TITLETRANSLIT:;
#SUBTITLETRANSLIT:;
#ARTISTTRANSLIT:;
#GENRE:;
#CREDIT:;
#BANNER:dtune2013-bn.bmp;
#BACKGROUND:dtune2013-bg.bmp;
#LYRICSPATH:;
#CDTITLE:;
#MUSIC:d-Tune 2013.mp3;
#OFFSET:-0.060000;
#SAMPLESTART:25.639999;
#SAMPLELENGTH:12.000000;
#SELECTABLE:YES;
#BPMS:0.000000=150.000000
;
#STOPS:
;
#BGCHANGES:;
#KEYSOUNDS:;
#ATTACKS:;

//---------------dance-single - Blank----------------
#NOTES:
     dance-single:
     Blank:
     Hard:
     8:
     0.510611,0.471988,0.549889,0.073318,0.041242,322.000000,60.000000,8.000000,0.000000,0.000000,0.000000,0.510611,0.471988,0.549889,0.073318,0.041242,322.000000,60.000000,8.000000,0.000000,0.000000,0.000000:
0000
0000
0000
0000
,
0000
0000
0000
0000
,
0000
0000
0000
0000
,
0000
0000
0000
0000
,
0000
0000
0000
0000
,
0000
0000
0000
0000
,
0000
0000
0000
0000
,
0000
0000
0000
0000
,
0101
0000
0000
0101
0000
0000
0101
0000
,
1010
0000
0000
1010
0000
0000
1010
0000
,
1100
0000
0000
1100
0000
0000
1100
0000
,
0011
0000
0000
0011
0000
0000
0011
0000
,
0001
0100
1000
0010
,
0001
0010
1000
0100
,
0001
0100
1000
0010
,
0001
0000
0000
0000
0010
0000
0000
0000
0100
0010
0000
0100
0010
0000
0000
0000
,
1001
0000
0010
0100
0001
0100
0010
1000
,
0100
1001
0010
1100
,
1001
0000
0010
1000
0010
0100
0001
0100
,
0010
0000
1000
0001
0000
1100
0000
0100
,
0010
0000
0010
0100
0000
1000
0100
0010
,
0001
0000
0011
0000
1000
0100
0010
0000
,
0110
0100
1000
0100
0010
0100
1000
0000
,
0010
1000
0001
1000
0100
0000
1001
0000
,
0101
0100
0010
0100
0000
0100
0001
0000
,
0101
0000
0010
0100
0000
0000
1001
0000
,
1100
0000
0001
0100
0010
1000
0100
0010
,
0001
0000
1000
0001
0000
0101
0000
0000
,
1001
0000
1000
0010
0001
0010
1000
0010
,
0100
0000
0001
0100
0010
0100
0010
0000
,
1000
0100
1000
0001
1000
0001
0100
0001
,
0100
0001
1000
0001
0011
0000
1001
0000
,
1100
0000
0000
0001
0000
0000
0020
0000
0000
0000
0000
0000
0030
0000
0000
0000
,
0001
0000
0101
0100
0010
0000
1001
0000
,
0010
1000
0010
0000
0100
0010
1000
0001
,
0100
0000
0000
1010
0000
0000
0101
0000
0000
0000
0100
0000
0010
0000
0000
0000
,
1000
0000
0000
0001
0000
0000
1001
0000
0000
0000
0100
0000
0001
0000
1000
0000
,
0100
0000
0000
1000
0000
0000
0001
0000
0100
0000
0000
0001
0000
0000
1000
0000
,
0100
0010
0001
0000
0100
0010
1000
0000
,
0001
1000
0001
1000
0010
0100
0001
0000
,
0101
0100
1000
0100
0001
0100
0010
0100
,
1000
0100
0010
0100
0001
0100
0010
0000
,
1000
0100
0010
0001
0010
0100
1000
0000
,
1100
0000
0000
0001
0000
0000
0100
0000
0000
0010
0000
0000
1000
0000
0000
0000
,
0100
0001
0100
1000
0100
0010
0001
0000
,
1000
0010
0101
0000
0001
0010
1100
0000
,
0001
1000
0100
1000
0001
0100
0010
0000
,
1000
0010
0100
0000
0110
0000
0110
0000
,
1001
0000
0010
0100
0001
0100
0010
1000
,
0100
0110
1000
1100
,
0010
0001
1000
0100
1000
0001
0010
0100
,
1000
0000
1010
0010
0100
0000
1001
0000
,
0001
0100
0010
0100
1000
0100
0001
0100
,
0010
0000
0101
0100
0010
1000
0100
0000
,
0010
0100
1000
0100
0010
0001
1000
0100
,
2000
0000
0000
3002
0000
0000
0103
0000
,
0101
0000
0010
0100
0001
0100
0010
1000
,
0200
0000
1300
0020
0000
1030
0100
0000
,
1001
0000
0110
0010
0001
0000
0101
0000
,
0020
0000
1030
0002
0000
0103
0020
0000
,
0130
0000
0001
1000
0100
1000
0001
0100
,
0110
0000
0100
0101
0000
0001
0011
0000
,
0100
1000
0010
0100
0001
0010
0100
1000
,
1010
0000
0100
1001
0000
0010
0101
0000
,
1001
0101
1100
1001
0000
0000
0000
0000
;

//---------------dance-single - ----------------
#NOTES:
     dance-single:
     :
     Medium:
     6:
     0.363974,0.324492,0.119143,0.100813,0.041242,254.000000,13.000000,11.000000,0.000000,0.000000,0.000000,0.363974,0.324492,0.119143,0.100813,0.041242,254.000000,13.000000,11.000000,0.000000,0.000000,0.000000:
0000
0000
0000
0000
,
0000
0000
0000
0000
,
0000
0000
0000
0000
,
0000
0000
0000
0000
,
0001
0000
0000
0020
0000
0000
0000
0000
,
0000
0000
0000
0030
0000
0010
0000
0000
,
1000
0000
0000
0010
0000
0000
0010
0000
,
0001
0000
0000
0010
0000
0000
0100
0000
0000
0000
0000
0000
0000
0000
0000
0000
,
1100
0000
0000
1000
0000
0000
1000
0000
,
1000
0000
0000
1000
0000
0000
1000
0000
,
0101
0000
0000
0001
0000
0000
0001
0000
,
0001
0000
0000
0001
0000
0000
0001
0000
,
1000
1000
0100
0100
,
0001
0001
0010
0010
,
1000
0100
0001
0010
,
1000
0100
0110
0110
,
0001
0000
0010
0000
0100
1000
0100
0000
,
0010
0000
0100
1000
0000
0100
1000
0000
,
0010
0000
0100
0000
0001
0100
0001
0000
,
1000
0000
0001
1000
0000
0100
0000
0000
,
1000
0000
0010
0000
0100
0001
0100
0000
,
0010
0000
1000
0001
0000
1000
0001
0000
,
1000
0100
0010
0100
,
0001
0000
0100
0000
1000
0010
1000
0000
,
0101
0000
0010
0000
1000
0001
1000
0000
,
0010
0000
0100
0001
0000
0100
0001
0000
,
0010
0000
0001
0000
1000
0010
1000
0000
,
0001
0000
0100
0001
0000
1000
0000
0000
,
0100
0000
1000
0000
0010
1000
0010
0000
,
0100
0000
0010
1000
0000
0010
1000
0000
,
0010
0000
0100
0100
0000
0001
0001
0000
,
0010
0010
0000
0100
0200
0000
0300
0000
,
1100
0000
0000
1000
0000
0000
1000
0000
0000
0000
0000
0000
0000
0000
0000
0000
,
0010
0000
1000
0001
0010
0000
0001
0000
,
1000
0000
0000
1000
0000
0000
0100
0000
0000
0000
0000
0000
1000
0000
0000
0000
,
0001
0000
0000
0001
0000
0000
0002
0000
0000
0000
0000
0000
0003
0000
0000
0000
,
0010
0000
0000
0010
0000
0000
0100
0000
0000
0000
0000
0000
0000
0000
0000
0000
,
1000
0100
0001
0100
,
2000
0000
0000
3020
0000
0000
0230
0000
,
0302
0000
0000
0003
,
1010
0000
0000
0010
0000
0000
0010
0000
0000
0000
0000
0000
0100
0000
0000
0000
,
0001
0000
0100
0010
0100
0000
0001
0000
,
1000
0000
0000
0001
0000
0000
1000
0000
0000
0000
0000
0000
0010
0000
0000
0000
,
1000
0000
0000
0100
0000
0000
2000
0000
0000
0000
0000
0000
3000
0000
0000
0000
,
0001
0000
0000
0100
0000
0000
0002
0000
0000
0000
0000
0000
1003
0000
0000
0000
,
0100
0000
1000
0100
1000
0000
0010
0000
,
0100
0001
1000
0010
,
0100
0001
0100
0000
0110
0000
0110
0000
,
1000
0000
0001
0000
0100
0001
0100
0000
,
0010
0000
1000
0100
0000
1000
0100
0000
,
0010
0000
0100
0000
1000
0010
1000
0000
,
0001
0000
0100
0010
0000
1000
0000
0000
,
0010
0000
1000
0000
0100
0010
0100
0000
,
1000
0000
0100
0010
0000
0001
0010
0000
,
0001
0000
0100
0000
1000
0100
1000
0000
,
0200
0000
0000
0320
0000
0000
0130
0000
,
1001
0000
0001
0000
0010
0001
1000
0000
,
0010
0000
0010
1000
0000
1000
0010
0000
,
0101
0000
0001
0000
0010
0001
0010
0000
,
0100
0000
0100
1000
0000
1000
0100
0000
,
0110
0000
1000
0000
0010
1000
0010
0000
,
0100
0000
0100
0001
0000
0001
0100
0000
,
1001
0000
0010
0000
0100
0001
0100
0001
,
0100
0010
1000
0001
,
0010
0010
0100
0100
0000
0000
0000
0000
;

//---------------dance-single - ----------------
#NOTES:
     dance-single:
     :
     Easy:
     4:
     0.289346,0.294992,0.119143,0.082483,0.000000,199.000000,13.000000,9.000000,0.000000,0.000000,0.000000,0.289346,0.294992,0.119143,0.082483,0.000000,199.000000,13.000000,9.000000,0.000000,0.000000,0.000000:
// measure 0
0000
0000
0000
0000
,  // measure 1
0000
0000
0000
0000
,  // measure 2
0000
0000
0000
0000
,  // measure 3
0000
0000
0000
0000
,  // measure 4
2000
0000
3000
0000
,  // measure 5
0000
0000
0010
0000
,  // measure 6
0002
0000
0003
0000
,  // measure 7
0020
0000
0030
0000
,  // measure 8
1001
0000
0000
1000
0000
0000
0000
0000
,  // measure 9
1000
0000
0000
1000
0000
0000
0000
0000
,  // measure 10
1001
0000
0000
0001
0000
0000
0000
0000
,  // measure 11
0001
0000
0000
0001
0000
0000
0000
0000
,  // measure 12
1000
1000
0100
0100
,  // measure 13
0001
0001
0010
0010
,  // measure 14
1000
0100
0001
0010
,  // measure 15
1000
0100
0110
0110
,  // measure 16
0001
0010
0100
1000
,  // measure 17
0100
0010
0001
0001
,  // measure 18
0010
0001
1000
0001
,  // measure 19
0100
0100
0200
0300
,  // measure 20
0010
1000
0100
1000
,  // measure 21
0010
0100
0001
0100
,  // measure 22
0010
0010
1000
1000
,  // measure 23
0001
0100
2002
3003
,  // measure 24
0110
0010
1000
0001
,  // measure 25
0100
0001
1000
1000
,  // measure 26
0010
1000
0100
1000
,  // measure 27
0010
0010
0020
0030
,  // measure 28
1000
0010
1000
0100
,  // measure 29
0001
0100
1000
0100
,  // measure 30
0010
0000
0010
0001
,  // measure 31
0001
0100
0020
0030
,  // measure 32
1001
1000
1000
0000
,  // measure 33
0010
1000
0100
1000
,  // measure 34
0001
0001
0001
0000
,  // measure 35
0010
0001
0100
0000
,  // measure 36
0010
0010
0010
0000
,  // measure 37
1000
0010
0100
0001
,  // measure 38
0010
0000
0000
0010
0000
0000
0010
0000
,  // measure 39
0100
0000
0000
0000
,  // measure 40
0110
0010
0010
0000
,  // measure 41
0001
1000
0100
1000
,  // measure 42
0110
0010
0010
0000
,  // measure 43
0001
1000
1001
0000
,  // measure 44
1001
1000
1000
0000
,  // measure 45
0010
1000
0100
0001
,  // measure 46
0010
0000
0000
0010
0000
0000
0010
0000
,  // measure 47
0100
0000
0110
0110
,  // measure 48
1000
0100
0010
0001
,  // measure 49
1000
0010
0100
0100
,  // measure 50
0010
1000
0100
1000
,  // measure 51
0001
0001
0002
0003
,  // measure 52
0010
0001
0100
0010
,  // measure 53
0100
0001
0100
0010
,  // measure 54
1000
1000
0001
0001
,  // measure 55
0010
0000
0000
0010
0000
0000
0010
0000
,  // measure 56
0001
1000
0010
0100
,  // measure 57
0001
0000
0000
0001
0000
0000
0001
0000
,  // measure 58
0100
0001
0100
0010
,  // measure 59
1000
0000
0000
1000
0000
0000
1000
0000
,  // measure 60
0010
1000
0100
0010
,  // measure 61
0001
0000
0000
0001
0000
0000
0001
0000
,  // measure 62
1000
0001
0100
0001
,  // measure 63
1000
1000
0010
0010
,  // measure 64
0100
0000
0100
0100
0000
0000
0000
0000
;
