#VERSION:0.83;
#TITLE:Whistle Stop;
#SUBTITLE:(AS-13 Dubstep Remix);
#ARTIST:AS-13;
#TITLETRANSLIT:;
#SUBTITLETRANSLIT:;
#ARTISTTRANSLIT:;
#GENRE:;
#ORIGIN:;
#TAGS:;
#CREDIT:;
#BANNER:whistlestop-bn.png;
#BACKGROUND:whistlestop-bg.png;
#PREVIEWVID:;
#JACKET:;
#CDIMAGE:;
#DISCIMAGE:;
#LYRICSPATH:;
#CDTITLE:;
#MUSIC:Whistle Stop (AS-13 Dubstep Remix).mp3;
#OFFSET:2.740000;
#SAMPLESTART:38.426640;
#SAMPLELENGTH:12.000000;
#SELECTABLE:YES;
#BPMS:0.000000=75.000000
,36.000000=150.000000
;
#STOPS:;
#DELAYS:;
#WARPS:;
#TIMESIGNATURES:0.000000=4=4
;
#TICKCOUNTS:0.000000=4
;
#COMBOS:0.000000=1
;
#SPEEDS:0.000000=1.000000=0.000000=0
;
#SCROLLS:0.000000=1.000000
;
#FAKES:;
#LABELS:0.000000=Song Start
;
#BGCHANGES:;
#KEYSOUNDS:;
#ATTACKS:
;

//---------------dance-single - ----------------
#NOTEDATA:;
#CHARTNAME:;
#CHARTHASH:2559349889;
#STEPSTYPE:dance-single;
#BANNER:;
#DESCRIPTION:;
#CHARTSTYLE:;
#DIFFICULTY:Medium;
#METER:5;
#METERF:5.000000;
#LASTSECONDHINT:115.259995;
#RADARVALUES:0.339834,0.411111,0.355556,0.093122,0.118519,281.000000,239.000000,42.000000,11.000000,0.000000,0.000000,0.000000,0.000000,0.000000,0.339834,0.411111,0.355556,0.093122,0.118519,281.000000,239.000000,42.000000,11.000000,0.000000,0.000000,0.000000,0.000000,0.000000;
#CREDIT:;
#NOTES:
0000
0000
0000
0000
,
0000
0000
0000
0000
,
0000
0000
0000
0000
,
0000
0000
0000
0000
,
0000
0000
0000
0000
0000
0000
0000
0001
,
0001
0000
1000
0000
0100
0000
0000
1000
,
1000
0000
0001
0000
0010
0000
0000
0001
,
0001
0000
1000
0000
0010
0010
0100
0000
,
0001
0000
0010
0010
0010
0000
1001
0000
,
1100
0101
0010
0100
,
1010
0011
0100
0010
,
1100
0101
0010
1000
,
0011
1010
0100
0010
,
1001
0101
0010
0100
,
1001
1100
0010
0001
,
0101
0010
1001
0100
,
0220
0000
0000
0330
0000
0000
1001
0000
0000
0001
0000
0001
,
0100
0000
0000
0001
0000
0000
0010
0000
0000
0001
0000
0001
,
0000
0001
0000
1000
,
0001
0000
0000
0100
0000
0000
0010
0000
0010
0000
0000
0010
,
0000
0000
0000
0100
0000
0000
1001
0000
0000
1000
0000
0010
,
1000
0010
1000
0001
,
0100
0000
0100
0000
0000
0000
1001
0000
0000
0000
0000
0000
,
1000
0010
0101
0010
,
2000
0000
0000
3001
0000
0000
0110
0000
0000
1000
0000
1000
,
0100
0000
0000
1000
0000
0000
0001
0000
0000
0100
0000
0100
,
0000
0001
0000
1000
,
0010
0000
0000
1000
0000
0000
0001
0000
0001
0000
0000
0001
,
0000
0000
0000
0010
0000
0000
1001
0000
0000
1000
0000
1000
,
0010
1000
0001
1000
,
0100
0000
0100
0000
0000
0000
1001
0000
0000
0000
0000
0000
,
1000
0010
0001
0100
,
2200
0000
3300
0010
,
0100
1001
0010
0100
,
0011
0000
0000
1100
0000
0000
0000
0000
0000
0001
0000
0010
,
0001
0000
0000
0010
0000
0000
0001
0000
0001
0000
0000
2000
,
0000
0000
3000
0010
,
1000
1010
0010
0100
,
0001
0000
0001
0000
0000
0000
0200
0000
0000
0300
0000
0000
,
0010
0100
1000
0100
,
0002
1003
1001
0100
,
0010
0000
0000
1001
0000
0000
1000
0000
0000
0100
0000
0100
,
0000
1000
0000
1001
,
0001
0000
0000
0010
0000
0000
1001
0000
1001
0000
0000
0220
,
0000
0000
0000
0000
0000
0000
0330
0000
0000
1000
0000
0100
,
1000
0100
0010
0100
,
1000
0000
0010
0000
0000
0000
1001
0000
0000
0000
0000
0000
,
0001
1000
0010
1000
,
0100
0100
0010
1001
,
0001
0010
0100
0001
,
0100
0000
0000
1000
0000
0000
0010
0000
0000
1000
0000
0010
,
1000
0001
0100
0010
,
0100
0000
0000
0001
0000
0000
0010
0000
0000
0001
0000
0100
,
0001
1000
0100
0001
,
0100
0000
0010
0100
0000
0000
1000
0000
0000
0100
0000
0000
,
0010
0000
0000
0100
0000
0000
1000
0000
0000
0010
0000
1000
,
0001
1000
0100
1001
,
0010
0000
0000
0100
0000
0000
1000
0000
0000
0100
0000
0010
,
0100
1000
0010
0001
,
0010
0000
0000
1000
0000
0000
0001
0000
0000
0010
0000
0001
,
0010
0100
0001
0100
,
1000
0001
0100
1001
,
0010
1001
0100
0010
,
0101
0000
0000
1010
0000
0000
0100
0000
0000
0010
0000
1000
,
0002
0000
0003
1100
;

//---------------dance-single - ----------------
#NOTEDATA:;
#CHARTNAME:;
#CHARTHASH:2803176983;
#STEPSTYPE:dance-single;
#BANNER:;
#DESCRIPTION:;
#CHARTSTYLE:;
#DIFFICULTY:Hard;
#METER:8;
#METERF:0.000000;
#LASTSECONDHINT:115.259995;
#RADARVALUES:0.486168,0.493333,0.287831,0.126984,0.605291,402.000000,368.000000,34.000000,15.000000,0.000000,0.000000,0.000000,0.000000,0.000000,0.486168,0.493333,0.287831,0.126984,0.605291,402.000000,368.000000,34.000000,15.000000,0.000000,0.000000,0.000000,0.000000,0.000000;
#CREDIT:;
#NOTES:
0000
0000
0000
0000
,
0000
0000
0000
0000
,
0000
0000
0000
0000
,
0000
0000
0000
0000
,
0000
0000
0000
0000
0000
0000
0000
0001
,
0001
1000
1000
0100
0100
0100
0000
1000
,
1000
0001
0100
0100
0020
0000
0030
0010
,
1000
1000
0001
0001
0010
0000
0100
0000
,
2000
0010
3002
0103
,
1001
0000
0000
0100
0010
0100
0010
0000
0000
1001
0000
0000
,
0110
0000
0000
0001
1000
0001
1000
0000
1000
0010
0000
0000
,
0110
0000
0000
1000
0001
1000
0001
0000
0000
0110
0000
0000
,
1001
0000
0000
0001
1000
0001
0010
0000
0100
0010
0000
0000
,
1001
0000
0000
1000
0001
1000
0010
0000
0000
0110
0000
0000
,
1001
0000
0000
1000
0001
1000
0001
0000
0001
0010
0000
0000
,
1001
0000
0000
0010
0100
0010
0100
0000
0000
1000
0000
0000
,
0201
0000
0000
0000
0000
0000
0310
0000
0000
1000
0000
1000
,
0001
0000
0000
0100
0000
0000
1100
0000
0000
0001
0000
1000
,
0000
0000
1000
0100
0000
0000
0010
0000
0000
1001
0000
0001
,
0100
0000
0000
0010
0000
0000
1000
0000
0001
0000
0000
0120
,
0000
0000
0000
1030
0000
0000
0001
0000
0000
0010
0000
0010
,
0001
0000
0000
0100
0000
0000
0010
0000
0000
0010
0000
1000
,
0001
0000
0100
0000
0000
0100
0020
0000
0000
1030
0000
1000
,
0100
0000
1000
0010
0000
0000
1000
0000
0000
0001
0000
0001
,
0200
0000
0000
0301
0000
0000
1010
0000
0000
0100
0001
0100
,
0001
0000
0000
1000
0000
0000
1100
0000
0100
1000
0000
0001
,
0000
0000
1000
0100
0000
0000
1001
0000
0000
0010
0000
0010
,
0001
0000
0000
0100
0000
0000
0001
0000
0100
0000
0000
0022
,
0000
0000
0000
0033
0000
0000
0100
0000
1000
0010
0000
0010
,
0100
0000
0000
0001
0000
0000
1001
0000
1000
0100
0000
0000
,
0011
0000
0100
0000
0000
0000
2002
0000
0000
3003
0000
0100
,
0001
0000
0001
1000
0000
0000
0010
0000
0010
1000
0000
1000
,
0100
0000
0000
0010
0000
0000
1001
0000
0000
0001
0100
0001
,
0100
0000
0100
0010
0000
0000
1000
0000
1000
0010
0000
0100
,
0001
0000
0001
0100
0000
0000
1010
0000
0000
0100
0000
0010
,
1000
0000
0000
0100
0000
0100
1000
0000
0001
0000
0000
2200
,
0000
0300
0000
3001
0000
0000
1001
0000
0000
0010
0000
0001
,
1000
0000
0000
0010
0000
0000
1001
0000
0000
0100
0000
0100
,
0001
0000
1000
0000
0000
0000
0200
0000
0000
0300
0000
0100
,
1000
0000
1000
0010
0000
0000
1001
0000
0001
0010
0000
0200
,
0000
0000
0000
1300
0000
0000
0101
0000
0000
0001
0010
0001
,
0010
0000
0010
0100
0000
0000
1001
0000
0001
0100
0000
0010
,
0000
0000
0010
0100
0000
0000
0000
0000
0001
0100
0000
0100
,
0010
0000
0000
0100
0000
0000
1001
0000
1000
0000
0000
0010
,
1000
0000
0000
0100
0000
0000
0010
0000
0000
0001
0000
0001
,
0010
0000
0010
0100
0000
0000
1000
0000
0000
0010
0000
0100
,
0001
0000
1000
0000
0000
0000
0101
0000
0000
0100
0010
0100
,
0010
0000
1000
0001
0000
0000
1001
0000
0000
0100
0000
0100
,
0001
0000
0000
1000
0000
0000
0100
0000
0000
1001
0000
0001
,
0010
0000
0010
0001
0000
0001
0010
0000
0010
0001
0000
0001
,
0100
0000
0100
0010
0000
0010
0100
0000
0100
0001
0000
0001
,
0100
0000
0100
0010
0000
0010
0100
0000
0100
0001
0000
0001
,
1000
0000
1000
0010
0000
0010
1000
0000
1000
0010
0000
0010
,
1000
0000
1000
0100
0000
0100
1000
0000
1000
0001
0000
0001
,
0100
0000
0100
0001
0000
0001
0010
0000
0010
0100
0000
0100
,
0010
0000
0010
0001
0000
0001
1000
0000
1000
0010
0000
0010
,
1000
0000
1000
0001
0000
0001
0100
0000
0100
0001
0000
0001
,
1000
0000
1000
0010
0000
0010
1000
0000
1000
0001
0000
0001
,
0010
0000
0010
0001
0000
0001
1000
0000
1000
0001
0000
0001
,
0100
0000
0100
0010
0000
0010
0100
0000
0100
0001
0000
0001
,
0010
0000
0010
0001
0000
0001
0010
0000
0010
0001
0000
0001
,
1000
0000
1000
0100
0000
0100
1000
0000
1000
0100
0000
0100
,
0010
0000
0010
0100
0000
0100
1000
0000
1000
0010
0000
0010
,
1000
0000
1000
0010
0000
0010
0100
0000
0100
0001
0000
0001
,
0010
0000
0000
0101
;

//---------------dance-single - ----------------
#NOTEDATA:;
#CHARTNAME:;
#CHARTHASH:2582305088;
#STEPSTYPE:dance-single;
#BANNER:;
#DESCRIPTION:;
#CHARTSTYLE:;
#DIFFICULTY:Easy;
#METER:2;
#METERF:2.000000;
#RADARVALUES:0.224943,0.274074,0.135450,0.033862,0.000000,186.000000,170.000000,16.000000,4.000000,0.000000,0.000000,0.000000,0.000000,0.000000,0.224943,0.274074,0.135450,0.033862,0.000000,186.000000,170.000000,16.000000,4.000000,0.000000,0.000000,0.000000,0.000000,0.000000;
#CREDIT:;
#NOTES:
// measure 0
0000
0000
0000
0000
,  // measure 1
0000
0000
0000
0000
,  // measure 2
0000
0000
0000
0000
,  // measure 3
0000
0000
0000
0000
,  // measure 4
0000
0000
0000
0000
,  // measure 5
1000
1000
1000
0000
,  // measure 6
0001
0001
0001
0000
,  // measure 7
0100
0100
0010
0010
,  // measure 8
1000
0001
1000
0000
,  // measure 9
0100
0000
0100
0000
,  // measure 10
0110
0000
0010
0000
,  // measure 11
0110
0000
0001
0000
,  // measure 12
1001
0000
1000
0000
,  // measure 13
1001
0000
0001
0000
,  // measure 14
0110
0000
0010
0000
,  // measure 15
0110
0000
0100
0000
,  // measure 16
1001
0000
0110
0000
,  // measure 17
0001
0000
1000
1000
,  // measure 18
0001
0002
0000
0003
,  // measure 19
1000
0000
0100
0100
,  // measure 20
0200
0000
0300
1000
,  // measure 21
1000
0000
0001
0000
,  // measure 22
0100
0100
0010
0000
,  // measure 23
0100
0000
0001
0000
,  // measure 24
1000
0001
1000
1000
,  // measure 25
0001
0000
1000
0000
,  // measure 26
0010
0010
1000
0000
,  // measure 27
0001
0000
1000
0001
,  // measure 28
0100
0000
0001
0000
,  // measure 29
1000
0000
0010
0000
,  // measure 30
1000
0010
1000
0000
,  // measure 31
0100
0100
0010
0010
,  // measure 32
0100
0000
1001
0000
,  // measure 33
0001
0000
1000
0000
,  // measure 34
0100
0100
0010
0000
,  // measure 35
0100
0000
1000
0000
,  // measure 36
0010
0000
0110
0000
,  // measure 37
1000
0000
0001
0000
,  // measure 38
0010
0010
0010
0000
,  // measure 39
0001
0000
0010
0100
,  // measure 40
0010
0000
0100
0000
,  // measure 41
1001
0000
0001
0000
,  // measure 42
0100
0000
0001
0100
,  // measure 43
0010
0000
0100
0000
,  // measure 44
0001
0000
1001
0000
,  // measure 45
0100
0000
0010
0000
,  // measure 46
1000
0010
1000
0000
,  // measure 47
0100
0000
0010
0000
,  // measure 48
0110
0000
1001
0000
,  // measure 49
0001
0001
0001
0001
,  // measure 50
0001
0001
0001
0001
,  // measure 51
0010
0010
0010
0010
,  // measure 52
0010
0010
0010
0010
,  // measure 53
0100
0100
0100
0100
,  // measure 54
0100
0100
0100
0100
,  // measure 55
1000
1000
1000
1000
,  // measure 56
1000
1000
1000
1000
,  // measure 57
0001
0001
0001
0001
,  // measure 58
0001
0001
0001
0001
,  // measure 59
0100
0100
0100
0100
,  // measure 60
0100
0100
0100
0100
,  // measure 61
0010
0010
0010
0010
,  // measure 62
0100
0100
0100
0100
,  // measure 63
0010
0010
0100
0100
,  // measure 64
0220
0000
0330
1001
;
