#VERSION:0.83;
#TITLE:Welcome to Rosas;
#SUBTITLE:(Skatronic Remix);
#ARTIST:AS-13 with IA;
#TITLETRANSLIT:;
#SUBTITLETRANSLIT:;
#ARTISTTRANSLIT:;
#GENRE:;
#ORIGIN:;
#TAGS:;
#CREDIT:;
#BANNER:welcometorosas-bn.png;
#BACKGROUND:welcometorosas-bg.png;
#PREVIEWVID:;
#JACKET:;
#CDIMAGE:;
#DISCIMAGE:;
#LYRICSPATH:;
#CDTITLE:;
#MUSIC:Welcome to Rosas (Skatronic Remix with IA).ogg;
#OFFSET:0.000000;
#SAMPLESTART:35.543213;
#SAMPLELENGTH:11.219996;
#SELECTABLE:YES;
#BPMS:0.000000=172.000000
;
#STOPS:;
#DELAYS:;
#WARPS:;
#TIMESIGNATURES:0.000000=4=4
;
#TICKCOUNTS:0.000000=4
;
#COMBOS:0.000000=1
;
#SPEEDS:0.000000=1.000000=0.000000=0
;
#SCROLLS:0.000000=1.000000
;
#XSCROLLS:0.000000=0.000000 ;
#FAKES:;
#LABELS:0.000000=Song Start
;
#BGCHANGES:;
#KEYSOUNDS:;
#ATTACKS:
;

//---------------dance-single - ----------------
#NOTEDATA:;
#CHARTNAME:;
#CHARTHASH:4077858182;
#STEPSTYPE:dance-single;
#BANNER:;
#DESCRIPTION:;
#CHARTSTYLE:;
#DIFFICULTY:Beginner;
#METER:1;
#METERF:0.000000;
#LASTSECONDHINT:92.093025;
#RADARVALUES:0.168198,0.270287,0.030714,0.040953,0.000000,115.000000,112.000000,3.000000,4.000000,0.000000,0.000000,0.000000,0.000000,0.000000,0.168198,0.270287,0.030714,0.040953,0.000000,115.000000,112.000000,3.000000,4.000000,0.000000,0.000000,0.000000,0.000000,0.000000;
#CREDIT:;
#NOTES:
0000
0000
0000
0000
,
0000
0000
0000
0000
,
0000
0000
0000
0000
,
0000
0000
0000
0000
,
0000
0000
0000
0000
,
0000
0000
0000
0000
,
0010
0000
0100
0000
,
0010
0010
0010
0010
,
1000
0000
0001
0000
,
0100
0000
0000
0000
,
0100
0000
0001
0000
,
1000
0000
0000
0000
,
0001
0000
1000
0000
,
0100
0000
0000
0000
,
0100
0000
0010
0000
,
0001
0000
0000
0000
,
1001
0000
0000
0000
,
1000
0000
0000
0000
,
0100
0000
0100
0000
,
1000
0000
0000
0000
,
0001
0000
0000
0100
,
0100
0000
0000
0000
,
0001
0000
0100
0000
,
0010
0000
1000
1000
,
2000
0000
0000
0000
,
3001
0000
0002
0000
,
1003
0000
0100
0000
,
1000
0000
1000
0000
,
0010
0000
0100
0000
,
0001
0000
0001
0000
,
0100
0000
0010
0000
,
0100
0000
0010
0000
,
1000
0000
1000
0000
,
0001
0000
0001
0000
,
0100
0000
0001
0000
,
0100
0000
0010
0000
,
1000
0000
1000
0000
,
0001
0000
1000
0000
,
0010
0000
0010
0000
,
1000
0000
0010
0000
,
0100
0000
0100
0000
,
0010
0000
0010
0000
,
1000
0000
0000
0001
,
0001
0000
0000
1000
,
1000
2000
0000
0000
,
3000
0000
0010
0010
,
0000
0000
0001
0000
,
0002
0000
0000
0003
,
1000
0000
0001
0000
,
0100
0100
0100
0100
,
0100
0000
0000
0000
,
0001
0000
0100
0000
,
0001
0000
0001
0000
,
1000
0000
0100
0000
,
0010
0000
0010
0000
,
0100
0000
0100
0000
,
1000
0000
0100
0000
,
0010
0000
0001
0000
,
1001
0000
0000
0000
,
0100
0000
0000
0000
,
0001
0000
0000
0000
,
1000
0000
0000
0000
,
0001
0000
1000
0000
,
0001
0000
0010
0000
,
0001
0000
1000
0000
,
0010
0010
0100
0100
,
0110
0000
0000
0000
;

//---------------dance-single - ----------------
#NOTEDATA:;
#CHARTNAME:;
#CHARTHASH:1713391716;
#STEPSTYPE:dance-single;
#BANNER:;
#DESCRIPTION:;
#CHARTSTYLE:;
#DIFFICULTY:Easy;
#METER:5;
#METERF:5.000000;
#LASTSECONDHINT:92.093025;
#RADARVALUES:0.359797,0.473002,0.286668,0.184286,0.010238,246.000000,218.000000,28.000000,18.000000,0.000000,0.000000,0.000000,0.000000,0.000000,0.359797,0.473002,0.286668,0.184286,0.010238,246.000000,218.000000,28.000000,18.000000,0.000000,0.000000,0.000000,0.000000,0.000000;
#CREDIT:;
#NOTES:
0000
0000
0000
0000
,
0000
0000
0000
0000
,
0000
0000
0000
0000
,
0000
0000
0000
0000
,
0000
0000
0000
0000
,
0000
0000
0000
0000
,
0010
0000
0100
0000
,
0001
1000
0010
0100
,
1001
1000
0100
0010
,
0001
0100
0010
0100
,
0001
0010
1000
0010
,
0001
1000
0100
0000
,
1001
0100
0001
1000
,
0010
0001
0010
1000
,
0001
0010
0100
0010
,
1000
0100
0001
1000
,
0200
0000
0000
1000
0000
0000
1300
0000
,
2000
0000
0010
3001
,
0002
0010
2003
0100
,
3002
0000
1000
0100
,
2003
0010
0010
0001
,
3002
0000
0010
0103
,
0001
0100
0010
0001
,
1000
0100
0001
0010
,
0200
0000
0000
0310
0000
0000
0000
0000
,
1001
0000
0002
0000
,
0103
0000
0001
0100
0000
0000
0010
0000
,
0100
0010
0000
0000
1000
0000
0010
0000
,
0101
1000
0100
1000
,
0010
0101
0100
1010
,
0010
0000
1000
0000
0001
1000
0000
1000
,
0001
0100
0001
1000
,
0100
0000
0000
1001
0000
0000
0110
0000
,
0000
0001
0010
0001
,
1001
0000
0010
1000
0000
0000
0010
0000
,
1000
0001
0000
1000
0001
0000
0010
0000
,
1000
0010
0001
0101
,
0100
0010
0000
0000
1001
0000
1010
0000
,
0100
0000
0010
0000
1000
0000
0100
1000
,
0100
1000
0001
0100
,
0010
0000
0000
1001
0000
0000
0101
0000
,
0000
0000
0000
0100
0002
0000
0003
0100
,
0020
0000
0030
0000
0000
0000
0010
0200
,
0000
0300
0000
0000
0000
0010
0000
0100
,
0000
2002
0000
0000
0000
0000
0000
0000
,
3003
0000
0000
0000
0000
0000
0000
0000
0000
0001
0000
0000
1000
0000
0000
0000
1000
0000
0000
0000
1000
0000
0000
0000
,
0000
0000
0001
0000
1001
0000
0000
0100
,
0000
0101
0010
0100
,
0001
0100
1000
0010
,
0001
0010
1000
0100
,
0001
0101
0100
0010
,
1000
0001
0100
1001
,
0100
1000
0001
1000
,
1100
1001
0100
1001
,
1000
0010
1000
0001
,
0010
0100
0001
0100
,
1000
0100
0010
1001
,
0001
0011
0010
0100
,
2001
0000
0100
3010
,
0002
0000
0010
1003
,
0010
0020
0130
0200
,
1300
0000
0100
0001
,
0100
0000
0000
0010
0000
0000
0010
0000
,
1000
0000
0000
0010
0000
0000
1000
0000
,
0001
0000
0001
1000
0000
1000
0001
0000
,
1001
0000
0101
0000
1000
0010
0100
0000
,
1001
0000
0000
0000
;

//---------------dance-single - ----------------
#NOTEDATA:;
#CHARTNAME:;
#CHARTHASH:2211822417;
#STEPSTYPE:dance-single;
#BANNER:;
#DESCRIPTION:;
#CHARTSTYLE:;
#DIFFICULTY:Medium;
#METER:6;
#METERF:6.000000;
#LASTSECONDHINT:92.093025;
#RADARVALUES:0.449016,0.506788,0.276430,0.153572,0.000000,307.000000,280.000000,27.000000,15.000000,0.000000,0.000000,0.000000,0.000000,0.000000,0.449016,0.506788,0.276430,0.153572,0.000000,307.000000,280.000000,27.000000,15.000000,0.000000,0.000000,0.000000,0.000000,0.000000;
#CREDIT:;
#NOTES:
0000
0000
0000
0000
,
0000
0000
0000
0000
,
0000
0000
0000
0000
,
0000
0000
0000
0000
,
0000
0000
0000
0000
,
0000
0000
0000
0000
,
0012
0000
0103
0000
,
2010
0100
3010
1100
,
0001
0000
0100
0010
0000
0100
0000
1000
,
0000
0010
0000
0001
0000
1000
0010
0000
,
0100
0000
1000
0100
0000
0001
0000
0010
,
0000
0100
1000
0100
0000
0000
0000
0010
,
0100
1000
0100
1000
0000
0100
0000
0001
,
0000
0010
0000
1000
0000
0010
0100
0010
,
0000
1001
0000
0100
0000
1001
0000
0010
,
1000
0000
0001
0100
0000
0100
0010
0100
,
0000
2002
0000
3003
0000
0001
0000
0001
,
0200
0000
0300
0000
1000
0100
0001
0000
,
0010
1001
0001
1100
,
0101
0000
0000
0000
0100
0010
0100
0000
,
0002
0100
2003
0010
,
3001
0000
0000
0010
0001
0000
0100
0000
,
1100
0000
0001
0100
0001
0000
1000
0100
,
0000
0100
1000
0001
0000
1000
0100
0001
,
0000
0000
0000
0010
0000
0000
0000
1000
,
1001
0000
0002
0000
,
0103
0000
0001
0100
0000
0100
0010
0000
,
1000
0010
0000
0010
0100
0000
0001
0000
,
1100
0000
0001
0010
0000
0010
0001
0000
,
1000
0100
0000
0100
0010
0000
0001
0000
,
1000
0000
1010
0000
0010
0100
0010
0000
,
1000
0000
0001
1000
0000
1000
0100
0000
,
1000
0001
0000
0101
0000
0000
1100
0000
,
0001
0100
0000
0001
0100
0000
0001
0000
,
1000
0000
0001
1000
0000
1000
0010
0000
,
1000
0100
0000
0100
0010
0000
0100
0000
,
1000
0000
0100
1000
0000
0100
0010
0000
,
0001
0010
0000
0001
0100
0000
0010
0000
,
0100
0000
1001
0000
0010
1000
0010
0000
,
0101
1010
1000
0001
,
0100
0001
1000
0100
0000
0000
0110
0000
,
0000
1000
0000
0100
0010
0000
0010
0100
,
2000
0000
0100
0000
3001
0000
0001
0100
,
0002
0000
0010
0000
1003
0000
0010
1000
,
0010
1000
0001
0000
0000
0101
0000
0100
,
1000
0000
0000
0100
0001
0000
1000
0100
,
0000
0000
1001
0000
0010
0001
0000
0100
,
0000
0100
0010
0000
1000
0000
1001
0000
,
0100
0001
0000
0001
0100
0010
0000
0010
,
0100
0101
0110
1001
,
1000
0000
0100
0010
0000
0100
0000
0001
,
0000
0010
0000
1000
0000
0001
1000
0000
,
0100
0000
1000
0100
0000
0010
0000
0001
,
0000
0100
0001
0100
0000
0100
0010
0000
,
0001
0000
0010
0001
0000
0100
0000
1000
,
0000
0100
0000
0010
0000
1001
0000
0001
,
0100
0000
0001
1000
0000
0001
1000
0001
,
0000
1000
0000
0100
0000
0100
1000
0000
,
1002
0000
0000
0103
0000
0100
0001
0000
,
2000
0100
0000
0100
0000
3001
0100
0000
,
0002
1000
0000
0200
0003
0000
0001
0000
,
0320
0000
0000
1000
0030
1000
0100
0000
,
1000
0001
0000
0100
0000
0100
0010
0000
,
1000
0010
1000
0010
0000
0010
1000
0000
,
0001
0000
0100
1000
0000
0100
0001
0000
,
1000
0100
1000
0100
1000
0001
0100
0001
,
0100
0000
0000
0000
;

//---------------dance-single - ----------------
#NOTEDATA:;
#CHARTNAME:;
#CHARTHASH:2945727911;
#STEPSTYPE:dance-single;
#BANNER:;
#DESCRIPTION:;
#CHARTSTYLE:;
#DIFFICULTY:Hard;
#METER:8;
#METERF:8.000000;
#LASTSECONDHINT:93.662796;
#RADARVALUES:0.554322,0.618512,0.368573,0.184286,0.056310,379.000000,343.000000,36.000000,18.000000,0.000000,0.000000,0.000000,0.000000,0.000000,0.554322,0.618512,0.368573,0.184286,0.056310,379.000000,343.000000,36.000000,18.000000,0.000000,0.000000,0.000000,0.000000,0.000000;
#CREDIT:;
#NOTES:
// measure 0
0000
0000
0000
0000
,  // measure 1
0000
0000
0000
0000
,  // measure 2
0000
0000
0000
0000
,  // measure 3
0000
0000
0000
0000
,  // measure 4
0000
0000
0000
0000
,  // measure 5
0000
0000
0000
0000
,  // measure 6
2020
0030
0200
3300
,  // measure 7
0012
0100
0013
0101
,  // measure 8
1000
0100
0010
0001
0000
0001
0010
0100
,  // measure 9
0000
0001
0100
1000
0000
1000
0100
0010
,  // measure 10
0001
0010
0100
1000
0000
1000
0010
0100
,  // measure 11
0000
0010
1000
0100
0000
1001
0000
0100
,  // measure 12
0001
0100
0010
1000
0000
1000
0100
0010
,  // measure 13
0000
1000
0010
0001
0000
0001
0010
0100
,  // measure 14
1000
0100
0010
0001
0000
0100
0010
1000
,  // measure 15
0000
1000
0100
1000
0000
0011
0000
0101
,  // measure 16
0000
0100
0001
0000
0000
0100
1000
0000
,  // measure 17
1010
0000
0000
0010
0001
0000
1001
0000
,  // measure 18
1000
0000
0010
0000
0001
0010
1000
0001
,  // measure 19
0100
0000
1010
0110
,  // measure 20
0002
0000
0100
0000
1003
0100
0010
0000
,  // measure 21
2000
0000
0010
0000
3001
0010
0100
0010
,  // measure 22
0001
0100
0001
0100
0010
0100
0010
0100
,  // measure 23
1000
0100
1000
0100
0001
0100
0010
0100
,  // measure 24
1000
0000
0100
0001
0000
0001
0100
0010
,  // measure 25
0220
0300
0200
0330
,  // measure 26
0001
0100
0001
0010
0000
0100
1000
0100
,  // measure 27
1000
0000
0000
0010
0000
0000
0000
0000
0000
0010
0000
0000
1000
0000
0000
0000
0100
0000
0000
0000
1000
0000
0000
0000
,  // measure 28
0101
0000
1000
0010
0000
0001
0100
0000
,  // measure 29
1000
0001
0100
0010
0000
0010
0100
0001
,  // measure 30
0100
0000
0000
0010
0000
0000
1000
0000
0000
0010
0000
0000
0100
0000
0000
0000
0001
0000
0000
0000
0010
0000
0000
0000
,  // measure 31
0100
0000
0000
0000
1001
0000
0000
0010
0000
0000
0001
0000
0000
0101
0000
0000
,  // measure 32
0010
0000
0000
1000
0000
0000
0110
0000
0000
0000
1000
0000
0001
0000
0000
0000
,  // measure 33
1000
0010
0001
0010
1000
0001
0000
0100
,  // measure 34
0010
0000
0010
0100
0001
0100
0010
1000
,  // measure 35
0000
1000
0010
0100
0001
0010
0001
0010
,  // measure 36
0100
1000
0000
1010
0000
0001
0010
0000
,  // measure 37
1000
0100
0000
0001
0100
0010
1000
0001
,  // measure 38
0000
0000
0000
0010
0000
0000
0001
0000
0000
0010
0000
0000
0100
0000
0000
0000
0010
0000
0000
0000
0100
0000
0000
0000
,  // measure 39
1000
0100
0010
1000
0000
0100
0001
0000
,  // measure 40
1000
0001
1000
0010
0000
1000
0100
0010
,  // measure 41
0000
1100
0000
1000
0020
0000
0030
0100
,  // measure 42
2002
0000
3003
0001
0100
0001
1000
2200
,  // measure 43
0000
3300
0100
1000
0001
0010
0001
0100
,  // measure 44
0000
1000
0220
0000
0000
0000
0300
0000
,  // measure 45
1000
0000
0000
0000
0000
0000
0000
0000
0000
0130
0000
0000
0001
0000
0000
0000
0100
0000
0000
0000
0010
0000
0000
0000
,  // measure 46
1001
0000
1100
0000
0010
0001
0100
0000
,  // measure 47
1001
0000
0011
0000
0100
1000
0010
0000
,  // measure 48
0110
0100
0001
0000
0110
0100
1000
0000
,  // measure 49
0110
0100
0001
0100
0010
0100
0001
0010
,  // measure 50
0100
0000
0000
1001
0000
1000
0100
1000
,  // measure 51
0000
1001
0000
0101
0000
0001
0100
0010
,  // measure 52
1000
0000
1000
1010
0000
0001
0000
0011
,  // measure 53
0000
1001
1000
0100
0000
0100
1000
0001
,  // measure 54
0100
0001
0100
0010
0000
1000
0010
1000
,  // measure 55
0000
0001
0010
0001
0000
0001
0100
0001
,  // measure 56
1000
0100
1000
0010
0000
1000
0010
0100
,  // measure 57
0000
1010
0000
1100
0000
0010
0001
0010
,  // measure 58
1000
0010
0000
0001
0000
0001
0010
0000
,  // measure 59
0001
0100
0000
1000
0000
1000
0100
0001
,  // measure 60
1000
0100
0000
0010
0000
0010
1000
0000
,  // measure 61
0010
0000
0000
0001
0000
0010
0001
0100
,  // measure 62
0001
0100
0000
0001
0000
0001
0010
0000
,  // measure 63
0001
0010
0100
0010
0000
0010
0001
0000
,  // measure 64
1000
0010
0100
0010
0000
1000
0010
0100
,  // measure 65
0001
0100
0010
1000
0001
0010
0100
0010
,  // measure 66
2002
0000
0000
0000
,  // measure 67
0000
3003
0000
0000
0000
0000
0000
0000
;
