#VERSION:0.83;
#TITLE:The Tick Tock Treasury;
#SUBTITLE:Joy Electric cover;
#ARTIST:AS-13 with IA;
#TITLETRANSLIT:;
#SUBTITLETRANSLIT:;
#ARTISTTRANSLIT:;
#GENRE:;
#ORIGIN:;
#TAGS:;
#CREDIT:;
#BANNER:ticktock-bn.jpg;
#BACKGROUND:ticktock-bg.jpg;
#PREVIEWVID:;
#JACKET:;
#CDIMAGE:;
#DISCIMAGE:;
#LYRICSPATH:;
#CDTITLE:;
#MUSIC:The Tick Tock Treasury (AS-13 Remix).mp3;
#OFFSET:-0.060000;
#SAMPLESTART:65.537155;
#SAMPLELENGTH:18.580011;
#SELECTABLE:YES;
#BPMS:0.000000=120.000000
;
#STOPS:;
#DELAYS:;
#WARPS:;
#TIMESIGNATURES:0.000000=4=4
;
#TICKCOUNTS:0.000000=4
;
#COMBOS:0.000000=1
;
#SPEEDS:0.000000=1.000000=0.000000=0
;
#SCROLLS:0.000000=1.000000
;
#FAKES:;
#LABELS:0.000000=Song Start
;
#BGCHANGES:;
#KEYSOUNDS:;
#ATTACKS:
;

//---------------dance-single - ----------------
#NOTEDATA:;
#CHARTNAME:;
#CHARTHASH:3455456273;
#STEPSTYPE:dance-single;
#BANNER:;
#DESCRIPTION:;
#CHARTSTYLE:;
#DIFFICULTY:Medium;
#METER:6;
#METERF:6.000000;
#LASTSECONDHINT:116.059998;
#RADARVALUES:0.314245,0.350504,0.249784,0.008058,0.000000,273.000000,242.000000,31.000000,1.000000,0.000000,0.000000,0.000000,0.000000,0.000000,0.314245,0.350504,0.249784,0.008058,0.000000,273.000000,242.000000,31.000000,1.000000,0.000000,0.000000,0.000000,0.000000,0.000000;
#CREDIT:;
#NOTES:
0000
0000
0000
0000
,
0000
0000
0000
0000
,
0000
0000
0000
0000
,
0000
0000
0000
0000
,
0100
0000
0100
1001
,
0100
0000
0100
1001
,
0010
0000
0010
1001
,
0010
0000
0010
1001
,
0100
0000
0010
0000
1000
0001
1000
0000
,
0100
0000
0010
0000
0001
1000
0001
0000
,
0100
0000
0001
0000
0010
0001
0010
0000
,
0100
0000
1000
0000
0010
1000
0010
0000
,
0100
0000
0010
0000
1000
0100
1000
0000
,
0010
0000
0100
0000
0001
0010
0001
0000
,
1000
0000
0010
0000
1000
0100
1000
0000
,
0001
0110
1000
0110
,
0001
0000
0001
0100
0000
0010
0000
1000
,
0000
1000
0000
0010
0100
0000
0001
0000
,
1000
0000
1000
0010
0000
0100
0000
0001
,
0000
0001
0000
0010
0100
0000
0010
0000
,
0001
0000
0001
0100
0000
0001
0000
0010
,
0000
0010
0000
0001
0100
0000
0010
0000
,
1000
0000
1000
0100
0000
0010
0000
0100
,
0000
0100
0000
1000
0010
0000
1001
0000
,
0001
0000
1000
0001
0100
0000
0000
0100
,
0001
0000
1000
0010
0010
0000
0000
0000
,
1001
0000
0100
0010
0100
0000
1001
0000
,
0010
0010
1000
0000
0100
0100
0001
0000
,
0110
0000
1000
0000
0001
1000
0001
0000
,
0010
0000
0001
0100
0000
0100
0001
0000
,
1001
0000
1000
0001
1000
0001
0000
1001
,
0000
0110
0000
0010
0100
0000
0110
0000
,
1000
0010
1002
0100
,
0100
0100
0100
0103
,
1001
0000
0110
0000
0001
1000
0000
0001
,
0000
0100
0000
0001
1000
0000
0100
0000
,
1001
0000
1100
0000
0100
1000
0000
0001
,
0000
1000
0000
0010
0010
0000
1001
0000
,
0100
0000
0001
0000
1000
0001
0000
1001
,
0000
0100
0000
0001
0100
0000
0001
0000
,
1000
0000
1001
0000
0001
0000
1000
0100
,
0000
1000
0000
0001
0001
0000
0110
0000
,
1000
0000
0010
0010
0000
1000
0000
1000
,
0000
0001
0000
0100
0000
0001
0001
0000
,
0100
0000
0010
1000
0000
0010
0000
1001
,
0000
0001
0000
0001
0100
0000
0001
0000
,
1000
0000
0001
0100
0000
0100
0000
0010
,
0000
1000
1000
1000
0000
0010
0000
0010
,
1000
0000
0001
0000
0100
0000
0001
0100
,
0000
0010
0000
0010
0100
0000
1001
0000
,
0001
0100
1000
0100
,
0001
0010
1000
0100
,
1001
0000
0001
0000
0100
0000
0010
1000
,
0100
0000
1000
0001
0000
0001
1000
0000
,
0110
0000
0000
0001
0001
0000
0000
0000
,
1100
0000
0000
0010
0010
0000
0100
0000
,
1001
0000
0000
0100
0100
0000
0001
0000
,
0101
0000
0000
0010
0000
0010
0100
0000
,
1010
0000
0000
0000
;

//---------------dance-single - ----------------
#NOTEDATA:;
#CHARTNAME:;
#CHARTHASH:3456485012;
#STEPSTYPE:dance-single;
#BANNER:;
#DESCRIPTION:;
#CHARTSTYLE:;
#DIFFICULTY:Hard;
#METER:7;
#METERF:0.000000;
#LASTSECONDHINT:116.059998;
#RADARVALUES:0.376403,0.420605,0.225612,0.024173,0.000000,327.000000,299.000000,28.000000,3.000000,0.000000,0.000000,0.000000,0.000000,0.000000,0.376403,0.420605,0.225612,0.024173,0.000000,327.000000,299.000000,28.000000,3.000000,0.000000,0.000000,0.000000,0.000000,0.000000;
#CREDIT:;
#NOTES:
0000
0000
0000
0000
,
0000
0000
0000
0000
,
0000
0000
0000
0000
,
0000
0000
0000
0000
,
0100
0000
0010
1001
,
0010
0000
0100
1001
,
0100
0000
0010
1001
,
0010
0000
0100
1001
,
0000
0001
0000
0001
0100
0001
0000
1000
,
0000
1000
0100
1000
0000
1000
0100
0010
,
0000
0001
0000
0001
0010
0001
0000
1000
,
0000
1000
0010
1000
0000
0010
0100
0010
,
0000
1000
0000
1000
0010
0100
0000
0001
,
0000
0001
0100
0001
0000
0001
0100
0010
,
0000
0100
0000
0100
0001
0100
0000
0010
,
1000
1000
0001
0001
,
1100
0000
0001
0100
0010
0100
0000
1001
,
0000
1100
0000
0100
1000
0001
0100
0000
,
1001
0000
0010
1000
0001
0010
0000
1001
,
0000
1000
0010
1000
0001
0000
1100
0000
,
0001
0100
0001
1000
0001
0100
0000
1001
,
0000
1010
0000
0010
1000
0100
1000
0000
,
0011
0000
0010
0001
1000
0100
0000
1001
,
0000
0100
0001
1000
1100
0000
0101
0000
,
1000
0000
1000
0000
0001
0000
0001
0010
,
0000
0100
0000
1000
0000
0000
0100
0000
,
1000
1000
0010
0100
0001
0001
0010
0100
,
1000
1000
0100
0010
0001
0001
0100
0010
,
1000
0000
1000
0000
0010
0000
0100
0001
,
0000
0001
0000
0010
0000
0000
0100
0000
,
1000
1000
0100
1000
0001
0001
0010
0001
,
1000
1000
0010
1000
0001
0001
0100
0001
,
1000
0000
0001
1000
0120
0000
0001
0000
,
1000
0001
1000
0031
,
0100
0001
0100
0001
1000
0100
1000
0100
,
1000
0001
1000
0001
0100
0010
0100
0010
,
1000
0100
1000
0100
0010
0001
0010
0001
,
0100
0010
0100
0010
1000
0010
0100
0001
,
1000
0100
1000
0100
1000
0001
1000
0001
,
0010
0001
0010
0001
0100
0001
1000
0010
,
0100
0001
0100
0001
1000
0010
1000
0010
,
1010
1001
0011
1001
,
3331
0100
0001
0100
0000
0001
1000
0100
,
0000
1000
0100
1000
0000
0010
1000
0010
,
1000
0001
0010
0001
0000
1000
0001
1000
,
0000
0010
1000
0010
1000
0000
0100
0000
,
1000
0010
1000
0010
0000
0100
0001
0010
,
0000
0001
0010
0001
0000
1000
0010
1000
,
0001
0100
0001
1000
0000
0100
1000
0010
,
0000
0010
1000
0001
0010
0000
0001
0000
,
0201
0010
0001
0010
,
0001
0010
0001
0310
,
1020
0100
1000
0100
,
1000
0100
1000
0130
,
1001
0000
0000
0100
0100
0000
1001
0000
,
0010
0000
0000
0100
0100
0000
1001
0000
,
0100
0000
0000
1000
1000
0000
0011
0000
,
0100
0000
0000
1000
0010
0000
1001
0000
,
0100
0000
0000
0000
;

//---------------dance-single - ----------------
#NOTEDATA:;
#CHARTNAME:;
#CHARTHASH:3156422703;
#STEPSTYPE:dance-single;
#BANNER:;
#DESCRIPTION:;
#CHARTSTYLE:;
#DIFFICULTY:Easy;
#METER:3;
#METERF:3.000000;
#LASTSECONDHINT:0.060000;
#RADARVALUES:0.192230,0.233669,0.096691,0.024173,0.000000,167.000000,155.000000,12.000000,3.000000,0.000000,0.000000,0.000000,0.000000,0.000000,0.192230,0.233669,0.096691,0.024173,0.000000,167.000000,155.000000,12.000000,3.000000,0.000000,0.000000,0.000000,0.000000,0.000000;
#CREDIT:;
#NOTES:
// measure 0
0000
0000
0000
0000
,  // measure 1
0000
0000
0000
0000
,  // measure 2
0000
0000
0000
0000
,  // measure 3
0000
0000
0000
0000
,  // measure 4
0100
0000
0100
0110
,  // measure 5
0100
0000
0100
0110
,  // measure 6
0010
0000
0010
0110
,  // measure 7
0010
0000
0010
0110
,  // measure 8
0010
0000
0100
0000
,  // measure 9
0001
0001
1000
1000
,  // measure 10
0100
0000
0010
0000
,  // measure 11
0001
0001
1000
1000
,  // measure 12
0010
0000
1000
0000
,  // measure 13
0001
0001
0100
0100
,  // measure 14
0001
0000
0010
0000
,  // measure 15
0100
0010
0001
1000
,  // measure 16
0100
0000
1000
0001
,  // measure 17
0100
0000
0001
1000
,  // measure 18
0010
0000
1000
0100
,  // measure 19
1000
0000
0010
1000
,  // measure 20
0100
0000
1000
0001
,  // measure 21
0010
0000
0001
0100
,  // measure 22
0010
0000
0100
0010
,  // measure 23
0100
0000
0001
1000
,  // measure 24
1001
0000
0100
0000
,  // measure 25
0001
0000
1000
0000
,  // measure 26
0010
0010
0010
0010
,  // measure 27
1000
1000
0001
0001
,  // measure 28
0100
0000
0001
0000
,  // measure 29
1000
0000
0100
0000
,  // measure 30
0010
0010
0010
0010
,  // measure 31
0100
0100
1000
1000
,  // measure 32
0001
1000
1002
0000
,  // measure 33
0100
0000
0103
0000
,  // measure 34
0101
0000
1000
1000
,  // measure 35
0100
0000
1000
0001
,  // measure 36
0100
0000
0010
0010
,  // measure 37
0100
0000
0001
0100
,  // measure 38
0010
0000
1000
0100
,  // measure 39
0010
0000
0100
0010
,  // measure 40
0100
0000
1000
0010
,  // measure 41
0001
0000
0010
1000
,  // measure 42
0001
0000
1000
0000
,  // measure 43
0100
1000
0010
0000
,  // measure 44
0100
0100
0010
0000
,  // measure 45
1000
0010
1000
0001
,  // measure 46
0100
0000
0010
0010
,  // measure 47
0100
0001
0100
0000
,  // measure 48
0010
1000
0100
0000
,  // measure 49
1000
0001
0100
0001
,  // measure 50
2000
0000
0001
0000
,  // measure 51
0001
0000
3001
0000
,  // measure 52
0200
0000
1000
0000
,  // measure 53
1000
0000
1300
0000
,  // measure 54
0001
0000
1001
0000
,  // measure 55
1000
0000
1001
0000
,  // measure 56
0010
0000
1001
0000
,  // measure 57
0100
0000
1001
0000
,  // measure 58
1100
0000
0000
0000
;
