#TITLE:Techno Troupe;
#SUBTITLE:;
#ARTIST:AS-13 with IA;
#TITLETRANSLIT:;
#SUBTITLETRANSLIT:;
#ARTISTTRANSLIT:;
#GENRE:;
#CREDIT:;
#BANNER:technotroupe-bn.png;
#BACKGROUND:technotroupe-bg.png;
#LYRICSPATH:;
#CDTITLE:;
#MUSIC:Techno Troupe.ogg;
#OFFSET:-0.100000;
#SAMPLESTART:73.069946;
#SAMPLELENGTH:15.400002;
#SELECTABLE:YES;
#BPMS:0.000000=124.999992
;
#STOPS:
;
#BGCHANGES:;
#KEYSOUNDS:;
#ATTACKS:;

//---------------dance-single - ----------------
#NOTES:
     dance-single:
     :
     Easy:
     4:
     0.000000,0.000000,0.000000,0.000000,0.000000,0.000000,0.000000,0.000000,0.000000,0.000000,0.000000,0.000000,0.000000,0.000000,0.000000,0.000000,0.000000,0.000000,0.000000,0.000000,0.000000,0.000000,0.000000,0.000000,0.000000,0.000000,0.000000,0.000000:
0000
0000
0000
0000
,
0000
0000
0000
0000
,
0000
0000
0000
0000
,
0000
0000
0000
0000
,
0001
0001
0100
0001
,
1000
1000
0100
0000
,
0010
0010
0001
0100
,
0010
0100
0001
0000
,
1000
1000
0001
0100
,
0010
0010
0010
0000
,
1000
0010
1001
0000
,
0001
0100
0001
0000
,
1000
0010
1000
1100
,
0001
0100
1000
0010
,
0001
0010
1000
0100
,
0001
0001
0100
0010
,
1000
1000
0110
1001
,
1000
0100
0001
0100
,
1000
0010
0001
0100
,
1000
0001
0100
0100
,
0010
0110
1001
0110
,
0001
0100
0001
0000
0100
0000
0001
0000
,
1000
0100
1000
0000
0100
0000
1000
0000
,
1001
0000
0100
0000
0001
0100
0001
0000
,
1000
0100
1000
0000
0000
0000
0000
0000
,
0010
1001
0100
0110
,
0001
1000
0010
0000
,
1000
0010
0100
1001
,
0001
0100
0010
0000
,
1000
0001
1000
0010
,
1001
0100
0001
0000
,
1000
1000
0100
0000
,
0110
0001
0100
0000
,
1000
0010
1001
0101
,
0010
1000
0001
0010
,
1000
0010
0001
1000
,
0220
0330
2200
3300
,
0001
0101
1001
0101
,
1000
0010
1000
1010
,
0001
0010
0001
0011
,
1000
0100
0001
0010
,
1000
0001
0100
1001
,
0010
1000
0100
1100
,
0010
0001
0100
0101
,
0020
0030
2002
3003
,
0100
0101
0011
1010
,
2200
0000
0000
0000
,
3300
0000
0000
0000
;

//---------------dance-single - ----------------
#NOTES:
     dance-single:
     :
     Medium:
     7:
     0.000000,0.000000,0.000000,0.000000,0.000000,0.000000,0.000000,0.000000,0.000000,0.000000,0.000000,0.000000,0.000000,0.000000,0.000000,0.000000,0.000000,0.000000,0.000000,0.000000,0.000000,0.000000,0.000000,0.000000,0.000000,0.000000,0.000000,0.000000:
0000
0000
0000
0000
,
0000
0000
0000
0000
,
0000
0000
0000
0000
,
0000
0000
0000
0000
,
0001
0000
0000
0100
0000
0000
0001
0000
0000
0000
0000
0010
0000
0000
0000
0010
0000
0000
0000
0000
0000
0000
0000
0000
,
0001
0100
1000
0000
0100
0000
0000
0000
,
0001
0010
0001
0010
0001
1000
0010
0000
,
1000
0100
0010
1000
0010
0000
0000
0000
,
0010
0001
0100
0000
0001
0100
0000
0100
,
0010
0000
1000
0100
0010
0000
0000
0000
,
1001
0001
0100
0000
0101
0001
0000
0010
,
0011
0000
0000
0000
0000
0000
0100
0000
0000
0000
0000
0010
0000
0000
0000
0000
0000
0000
1001
0000
0000
0000
0000
0000
,
0100
0000
0000
0010
0000
0000
0100
0000
0000
0000
0000
0100
0000
0000
0000
1000
0000
0000
0001
0000
0000
1000
0000
0000
,
0100
1000
0010
0000
0001
0010
1000
0000
,
0010
0000
0000
1000
0000
0000
0100
0000
0000
0000
0000
1000
0100
0000
0000
0010
0000
0000
0100
0000
0000
1000
0000
0000
,
0001
0000
0000
0100
0000
0000
0010
0000
0000
0000
0000
0000
1001
0000
0000
0000
0000
1010
0000
0000
0000
0000
0000
1000
,
0010
0000
0000
0000
0000
1000
0000
0000
0000
1100
0000
0000
0100
0000
0000
0000
0000
1000
0000
0000
0000
0010
0000
0000
,
0100
1000
0100
0000
0001
0100
0001
0000
,
0010
0000
0000
1000
0000
0000
0010
0000
0000
0000
0000
0001
0010
0000
0000
0100
0000
0000
0010
0000
0000
0001
0000
0000
,
1000
0000
0000
0100
0000
0000
0010
0000
0000
0000
0000
0000
1001
0000
0000
0000
0000
0011
0000
0000
0000
0000
0000
0010
,
0100
0000
0000
0010
0000
0000
0100
0000
0000
1000
0000
0000
0001
0000
0000
0000
0000
0101
0000
0000
0000
1000
0000
0000
,
1100
0000
0000
0100
0000
0000
0001
0000
0000
0000
0000
0000
0100
0000
0000
0000
0000
1000
0000
0000
0000
0100
0000
0000
,
0001
0000
0000
0100
0000
0000
1000
0000
0000
0000
0000
0000
0100
0000
0000
0001
0000
0000
0000
0000
0110
0000
0000
0000
,
0001
0100
0001
0000
0100
1000
0100
0000
,
0001
0000
0000
0100
0000
0000
1000
0000
0000
0000
0000
0000
0110
0000
0000
0000
0000
1001
0000
0000
0000
0000
0000
0000
,
0001
0000
0000
0010
0000
0000
0100
0000
0000
0000
0000
1000
0000
0000
0000
0100
0000
0000
0010
0000
0000
0000
0000
0000
,
1001
0000
0000
0010
0000
0000
0001
0000
0000
0000
0000
0100
0000
0000
0000
0000
0000
0000
0001
0000
0000
0100
0000
0000
,
1000
0100
0010
0000
0001
0010
1000
0000
,
0001
0010
0100
1000
0010
0000
1001
0100
,
0001
0000
0000
0100
0000
0000
0001
0000
0000
0000
0000
0010
0000
0000
0000
0010
0000
0000
0001
0000
0000
0100
0000
0000
,
1000
0000
0000
0100
0000
0000
0001
0000
0000
0100
0000
0001
0000
0000
0000
0000
0000
0000
0000
0000
0000
1000
0000
0000
,
1100
0000
0100
1000
0001
0010
0000
0000
,
1001
0000
0000
0000
0000
1010
0000
0000
0000
1000
0000
0000
0100
0000
0000
0000
0000
0000
0000
0000
0000
0000
0000
0000
,
1001
0000
0000
0000
0000
0101
0000
0000
0000
0001
0000
0000
0010
0000
0000
0000
0000
0000
1100
0000
0000
1000
0000
0000
,
0001
0000
0000
0000
0000
0100
0000
0000
0000
0100
0000
0000
0010
0000
0000
0000
0000
1000
0000
0000
0000
0000
0000
0000
,
0010
0000
0000
0000
0000
0100
0000
0000
0000
0001
0000
0000
1000
0000
0000
0000
0000
0000
0001
0000
0000
1000
0000
0000
,
0100
0000
0000
0000
0000
1001
0000
0000
0000
0000
0000
0000
0110
0000
0000
0000
0000
1001
0000
0000
0000
0000
0000
0000
,
0001
0000
0000
0000
0000
1000
0000
0000
0000
1000
0000
0000
0010
0000
0000
0100
0000
0000
0001
0000
0000
1000
0000
0000
,
0010
0000
0000
0100
0000
0000
0010
0000
0000
0000
0000
0000
1000
0000
0000
0010
0000
0000
0100
0000
0000
0000
0000
0100
,
0001
0100
1000
0000
0100
0001
0100
0010
,
1000
0010
1000
0000
1002
0000
0013
0000
,
0100
1000
0001
0010
0100
0000
0010
0001
,
1000
0000
0000
0000
0000
0000
1001
0000
0000
0000
0000
0010
0000
0000
0000
1000
0000
0000
0100
0000
0000
0000
0000
1000
,
0100
1000
0001
0000
1000
0001
0100
0010
,
1000
0000
0000
0000
0000
0000
0010
0000
0000
0000
0000
0000
1001
0000
0000
0000
0000
0100
0000
0000
0000
0000
0000
0000
,
0001
0000
0000
0100
0000
0000
0010
0000
0000
1000
0000
0010
0000
0000
0000
1000
0000
0000
0001
0000
0000
0010
0000
0000
,
0200
0000
0000
0000
,
0300
0000
0000
0000
;

//---------------dance-single - ----------------
#NOTES:
     dance-single:
     :
     Hard:
     9:
     0.527113,0.588632,0.298651,0.009634,0.491329,383.000000,352.000000,31.000000,1.000000,0.000000,0.000000,0.000000,0.000000,0.000000,0.527113,0.588632,0.298651,0.009634,0.491329,383.000000,352.000000,31.000000,1.000000,0.000000,0.000000,0.000000,0.000000,0.000000:
// measure 0
0000
0000
0000
0000
,  // measure 1
0000
0000
0000
0000
,  // measure 2
0000
0000
0000
0000
,  // measure 3
1000
0000
0000
0010
0000
0000
1000
0000
0010
0000
0000
0000
1001
0000
0000
0000
0000
1010
0000
0000
0000
1001
0000
0000
,  // measure 4
0001
0100
0100
0000
0010
0100
0001
0000
,  // measure 5
1000
1000
0010
1000
0100
0000
0000
0100
,  // measure 6
0001
0100
1000
0001
0010
1000
0010
0000
,  // measure 7
0001
0001
0010
0100
1000
0000
0000
0000
,  // measure 8
0110
0001
0100
0000
0001
1000
0000
1000
,  // measure 9
0010
0001
0010
0100
0001
0000
0000
1100
,  // measure 10
1000
0010
1000
0001
0100
0010
0000
0010
,  // measure 11
0100
0000
0000
0001
0000
0000
0100
0000
0000
0000
0000
0010
0000
0000
0000
0000
0000
0000
1001
0000
0000
0010
0000
0000
,  // measure 12
0100
0000
0000
0001
0000
0000
1000
0000
0000
1000
0000
0100
0000
0000
0000
0011
0000
0000
1000
0000
0000
1100
0000
0000
,  // measure 13
0001
0000
0000
0100
0000
0000
0010
0000
0000
0100
0000
0010
0100
0000
0000
0001
0000
0000
0010
0000
0000
0000
0000
0010
,  // measure 14
0001
0000
0000
1000
0000
0000
0010
0000
0000
1000
0000
0010
0100
0000
0000
0001
0000
0100
0001
0000
0000
0100
0000
0000
,  // measure 15
0010
0000
0000
1001
0000
0000
1000
0000
0000
0010
0000
0000
0101
0000
0000
0000
0000
1100
0000
0000
0000
1000
0000
0000
,  // measure 16
0100
0000
1000
0000
0000
0010
0000
0000
0010
1000
0000
0000
0001
0000
0010
0000
0000
0001
0000
0000
0010
0001
0000
0000
,  // measure 17
1000
0000
0000
0010
0000
0000
0100
0000
0000
0000
0000
0001
0100
0000
0000
0010
0000
0000
0100
0000
0001
0000
0000
0100
,  // measure 18
0010
0100
0010
0000
1001
0100
0001
1000
,  // measure 19
0100
0000
0000
0001
0000
0000
0100
0000
0000
1000
0000
0000
1001
0000
0000
0000
0000
0101
0000
0000
0000
0100
0000
0000
,  // measure 20
0010
0000
1000
0010
0000
0000
1000
0000
0001
0100
0000
0000
0010
0000
0000
0010
0000
0100
0000
0000
0100
0010
0000
0000
,  // measure 21
1001
0000
0000
0001
0000
0100
0010
0000
0100
0000
0000
0100
0001
0000
0000
0001
0000
0100
0000
0000
0001
0010
0000
0000
,  // measure 22
0001
0000
0000
0010
0000
0001
0100
0000
0010
0000
0000
0010
1000
0000
0010
1000
0000
0100
0000
0000
1001
0000
0000
0000
,  // measure 23
0101
0000
0000
0100
0000
0010
0100
0000
0010
0000
0000
0010
1000
0000
0000
0010
0000
1000
0001
0000
0010
0000
0000
0010
,  // measure 24
0001
0000
0000
0000
0000
0000
1000
0000
0000
0000
0010
0000
0100
0000
0000
0000
0000
0000
0000
0000
0000
0000
0000
1000
0001
0000
0000
0000
0000
0000
0000
0000
0000
0000
0110
0000
0000
0000
0000
0000
0000
0000
0000
0000
0000
0000
0000
0000
,  // measure 25
1000
0000
0000
0100
0000
0000
1000
0000
0100
0000
0000
0010
0000
0000
0000
0010
0000
0000
0100
0000
0000
0000
0000
0000
,  // measure 26
1000
0000
0000
0010
0000
0000
0100
0000
0001
0000
0000
0100
0000
0000
0000
0000
0000
0000
0000
0000
0000
1000
0000
0000
,  // measure 27
0100
0001
0010
1000
0010
0001
0100
0000
,  // measure 28
0010
0000
0000
0010
0000
1000
0000
0000
0100
1000
0000
0000
0010
0000
0000
0000
0000
0000
0000
0000
0000
1001
0000
0000
,  // measure 29
0001
0000
0000
0010
0000
0000
0100
0000
0010
0000
0000
0001
0000
0000
0000
0001
0000
0000
0100
0000
0000
0010
0000
0000
,  // measure 30
1000
0000
0000
0000
0000
1000
0010
0000
0000
0000
0000
0101
0000
0000
0000
0000
0000
0000
0000
0000
0000
0100
0000
0001
,  // measure 31
0100
0000
0000
0010
0000
0000
1000
0000
0000
0010
0000
1000
0010
0000
0000
0100
0000
0000
1000
0000
0000
0000
0000
0000
,  // measure 32
0101
0000
0000
0000
0000
1100
0000
0000
0000
0010
0000
0000
0100
0000
0000
0000
0000
0000
0000
0000
0000
0100
0000
0000
,  // measure 33
0010
0000
0000
0000
0000
1001
0000
0000
1000
0010
0000
0000
0001
0000
0010
0001
0000
0010
1000
0000
0010
1000
0000
0010
,  // measure 34
0100
0000
0000
0001
0000
0100
0000
0000
0010
0000
0000
0010
1000
0000
0000
0010
0000
1000
0000
0000
1000
0100
0000
0000
,  // measure 35
1000
0000
0000
0100
0000
0001
0000
0000
0001
0000
0000
0100
1000
0000
0000
0001
0000
0000
0100
0000
0000
0010
0000
0000
,  // measure 36
1001
0000
0000
0000
0000
0100
0000
0000
0100
0000
0000
0000
1010
0000
0000
0000
0000
1100
0000
0000
0000
0100
0000
0000
,  // measure 37
0010
0000
0000
0010
0000
0001
0000
0000
0001
0100
0000
0000
0010
0000
1000
0001
0000
0100
0001
0000
1000
0010
0000
0100
,  // measure 38
0001
0000
0000
0100
0000
0000
1000
0000
0000
0000
0000
0100
0001
0000
0000
0100
0000
0000
0010
0000
0000
0000
0000
1000
,  // measure 39
0010
0000
0000
0100
0000
0000
1010
0000
0000
0000
0000
0010
0000
0000
0010
1000
0000
0000
0100
0000
0000
0001
0000
0100
,  // measure 40
0000
0000
0000
1000
0000
1000
0100
0000
0000
0010
0000
0000
0001
0000
0000
0000
0000
0101
0000
0000
0000
0001
0000
0000
,  // measure 41
1000
0000
0000
0100
0000
0000
1000
0000
0000
0010
0000
1000
0010
0000
0000
0100
0000
0001
0000
0000
0100
0010
0000
0000
,  // measure 42
1001
0000
0000
0100
0000
0000
0001
0000
0000
1000
0000
0100
1000
0000
0001
1000
0000
0000
0010
0000
0000
0000
0000
0010
,  // measure 43
1000
0000
0000
0010
0000
0000
0001
0000
0000
0010
0000
1000
0000
0000
1000
0010
0000
0000
0100
0000
0001
0100
0000
0000
,  // measure 44
1001
0000
0000
0000
0000
0010
1000
0000
0000
1000
0000
0000
0100
0000
0000
0000
0000
0110
0000
0000
0000
0000
0000
0000
,  // measure 45
0001
0000
0000
0010
0000
0000
1000
0000
0000
0010
0000
0100
0000
0000
0001
0100
0000
1000
0100
0000
1000
0001
0000
1000
,  // measure 46
0200
0000
0000
0000
,  // measure 47
0300
0000
0000
0000
;

//---------------dance-single - ----------------
#NOTES:
     dance-single:
     :
     Easy:
     4:
     0.000000,0.000000,0.000000,0.000000,0.000000,0.000000,0.000000,0.000000,0.000000,0.000000,0.000000,0.000000,0.000000,0.000000,0.000000,0.000000,0.000000,0.000000,0.000000,0.000000,0.000000,0.000000,0.000000,0.000000,0.000000,0.000000,0.000000,0.000000:
0000
0000
0000
0000
,
0000
0000
0000
0000
,
0000
0000
0000
0000
,
0000
0000
0000
0000
,
0001
0001
0100
0001
,
1000
1000
0100
0000
,
0010
0010
0001
0100
,
0010
0100
0001
0000
,
1000
1000
0001
0100
,
0010
0010
0010
0000
,
1000
0010
1001
0000
,
0001
0100
0001
0000
,
1000
0010
1000
1100
,
0001
0100
1000
0010
,
0001
0010
1000
0100
,
0001
0001
0100
0010
,
1000
1000
0110
1001
,
1000
0100
0001
0100
,
1000
0010
0001
0100
,
1000
0001
0100
0100
,
0010
0110
1001
0110
,
0001
0100
0001
0000
0100
0000
0001
0000
,
1000
0100
1000
0000
0100
0000
1000
0000
,
1001
0000
0100
0000
0001
0100
0001
0000
,
1000
0100
1000
0000
0000
0000
0000
0000
,
0010
1001
0100
0110
,
0001
1000
0010
0000
,
1000
0010
0100
1001
,
0001
0100
0010
0000
,
1000
0001
1000
0010
,
1001
0100
0001
0000
,
1000
1000
0100
0000
,
0110
0001
0100
0000
,
1000
0010
1001
0101
,
0010
1000
0001
0010
,
1000
0010
0001
1000
,
0220
0330
2200
3300
,
0001
0101
1001
0101
,
1000
0010
1000
1010
,
0001
0010
0001
0011
,
1000
0100
0001
0010
,
1000
0001
0100
1001
,
0010
1000
0100
1100
,
0010
0001
0100
0101
,
0020
0030
2002
3003
,
0100
0101
0011
1010
,
2200
0000
0000
0000
,
3300
0000
0000
0000
;

//---------------dance-single - ----------------
#NOTES:
     dance-single:
     :
     Medium:
     7:
     0.000000,0.000000,0.000000,0.000000,0.000000,0.000000,0.000000,0.000000,0.000000,0.000000,0.000000,0.000000,0.000000,0.000000,0.000000,0.000000,0.000000,0.000000,0.000000,0.000000,0.000000,0.000000,0.000000,0.000000,0.000000,0.000000,0.000000,0.000000:
0000
0000
0000
0000
,
0000
0000
0000
0000
,
0000
0000
0000
0000
,
0000
0000
0000
0000
,
0001
0000
0000
0100
0000
0000
0001
0000
0000
0000
0000
0010
0000
0000
0000
0010
0000
0000
0000
0000
0000
0000
0000
0000
,
0001
0100
1000
0000
0100
0000
0000
0000
,
0001
0010
0001
0010
0001
1000
0010
0000
,
1000
0100
0010
1000
0010
0000
0000
0000
,
0010
0001
0100
0000
0001
0100
0000
0100
,
0010
0000
1000
0100
0010
0000
0000
0000
,
1001
0001
0100
0000
0101
0001
0000
0010
,
0011
0000
0000
0000
0000
0000
0100
0000
0000
0000
0000
0010
0000
0000
0000
0000
0000
0000
1001
0000
0000
0000
0000
0000
,
0100
0000
0000
0010
0000
0000
0100
0000
0000
0000
0000
0100
0000
0000
0000
1000
0000
0000
0001
0000
0000
1000
0000
0000
,
0100
1000
0010
0000
0001
0010
1000
0000
,
0010
0000
0000
1000
0000
0000
0100
0000
0000
0000
0000
1000
0100
0000
0000
0010
0000
0000
0100
0000
0000
1000
0000
0000
,
0001
0000
0000
0100
0000
0000
0010
0000
0000
0000
0000
0000
1001
0000
0000
0000
0000
1010
0000
0000
0000
0000
0000
1000
,
0010
0000
0000
0000
0000
1000
0000
0000
0000
1100
0000
0000
0100
0000
0000
0000
0000
1000
0000
0000
0000
0010
0000
0000
,
0100
1000
0100
0000
0001
0100
0001
0000
,
0010
0000
0000
1000
0000
0000
0010
0000
0000
0000
0000
0001
0010
0000
0000
0100
0000
0000
0010
0000
0000
0001
0000
0000
,
1000
0000
0000
0100
0000
0000
0010
0000
0000
0000
0000
0000
1001
0000
0000
0000
0000
0011
0000
0000
0000
0000
0000
0010
,
0100
0000
0000
0010
0000
0000
0100
0000
0000
1000
0000
0000
0001
0000
0000
0000
0000
0101
0000
0000
0000
1000
0000
0000
,
1100
0000
0000
0100
0000
0000
0001
0000
0000
0000
0000
0000
0100
0000
0000
0000
0000
1000
0000
0000
0000
0100
0000
0000
,
0001
0000
0000
0100
0000
0000
1000
0000
0000
0000
0000
0000
0100
0000
0000
0001
0000
0000
0000
0000
0110
0000
0000
0000
,
0001
0100
0001
0000
0100
1000
0100
0000
,
0001
0000
0000
0100
0000
0000
1000
0000
0000
0000
0000
0000
0110
0000
0000
0000
0000
1001
0000
0000
0000
0000
0000
0000
,
0001
0000
0000
0010
0000
0000
0100
0000
0000
0000
0000
1000
0000
0000
0000
0100
0000
0000
0010
0000
0000
0000
0000
0000
,
1001
0000
0000
0010
0000
0000
0001
0000
0000
0000
0000
0100
0000
0000
0000
0000
0000
0000
0001
0000
0000
0100
0000
0000
,
1000
0100
0010
0000
0001
0010
1000
0000
,
0001
0010
0100
1000
0010
0000
1001
0100
,
0001
0000
0000
0100
0000
0000
0001
0000
0000
0000
0000
0010
0000
0000
0000
0010
0000
0000
0001
0000
0000
0100
0000
0000
,
1000
0000
0000
0100
0000
0000
0001
0000
0000
0100
0000
0001
0000
0000
0000
0000
0000
0000
0000
0000
0000
1000
0000
0000
,
1100
0000
0100
1000
0001
0010
0000
0000
,
1001
0000
0000
0000
0000
1010
0000
0000
0000
1000
0000
0000
0100
0000
0000
0000
0000
0000
0000
0000
0000
0000
0000
0000
,
1001
0000
0000
0000
0000
0101
0000
0000
0000
0001
0000
0000
0010
0000
0000
0000
0000
0000
1100
0000
0000
1000
0000
0000
,
0001
0000
0000
0000
0000
0100
0000
0000
0000
0100
0000
0000
0010
0000
0000
0000
0000
1000
0000
0000
0000
0000
0000
0000
,
0010
0000
0000
0000
0000
0100
0000
0000
0000
0001
0000
0000
1000
0000
0000
0000
0000
0000
0001
0000
0000
1000
0000
0000
,
0100
0000
0000
0000
0000
1001
0000
0000
0000
0000
0000
0000
0110
0000
0000
0000
0000
1001
0000
0000
0000
0000
0000
0000
,
0001
0000
0000
0000
0000
1000
0000
0000
0000
1000
0000
0000
0010
0000
0000
0100
0000
0000
0001
0000
0000
1000
0000
0000
,
0010
0000
0000
0100
0000
0000
0010
0000
0000
0000
0000
0000
1000
0000
0000
0010
0000
0000
0100
0000
0000
0000
0000
0100
,
0001
0100
1000
0000
0100
0001
0100
0010
,
1000
0010
1000
0000
1002
0000
0013
0000
,
0100
1000
0001
0010
0100
0000
0010
0001
,
1000
0000
0000
0000
0000
0000
1001
0000
0000
0000
0000
0010
0000
0000
0000
1000
0000
0000
0100
0000
0000
0000
0000
1000
,
0100
1000
0001
0000
1000
0001
0100
0010
,
1000
0000
0000
0000
0000
0000
0010
0000
0000
0000
0000
0000
1001
0000
0000
0000
0000
0100
0000
0000
0000
0000
0000
0000
,
0001
0000
0000
0100
0000
0000
0010
0000
0000
1000
0000
0010
0000
0000
0000
1000
0000
0000
0001
0000
0000
0010
0000
0000
,
0200
0000
0000
0000
,
0300
0000
0000
0000
;

//---------------dance-single - ----------------
#NOTES:
     dance-single:
     :
     Hard:
     9:
     0.000000,0.000000,0.000000,0.000000,0.000000,0.000000,0.000000,0.000000,0.000000,0.000000,0.000000,0.000000,0.000000,0.000000,0.000000,0.000000,0.000000,0.000000,0.000000,0.000000,0.000000,0.000000,0.000000,0.000000,0.000000,0.000000,0.000000,0.000000:
0000
0000
0000
0000
,
0000
0000
0000
0000
,
0000
0000
0000
0000
,
1000
0000
0000
0010
0000
0000
1000
0000
0010
0000
0000
0000
1001
0000
0000
0000
0000
1010
0000
0000
0000
1001
0000
0000
,
0001
0100
0100
0000
0010
0100
0001
0000
,
1000
1000
0010
1000
0100
0000
0000
0100
,
0001
0100
1000
0001
0010
1000
0010
0000
,
0001
0001
0010
0100
1000
0000
0000
0000
,
0110
0001
0100
0000
0001
1000
0000
1000
,
0010
0001
0010
0100
0001
0000
0000
1100
,
1000
0010
1000
0001
0100
0010
0000
0010
,
0100
0000
0000
0001
0000
0000
0100
0000
0000
0000
0000
0010
0000
0000
0000
0000
0000
0000
1001
0000
0000
0010
0000
0000
,
0100
0000
0000
0001
0000
0000
1000
0000
0000
1000
0000
0100
0000
0000
0000
0011
0000
0000
1000
0000
0000
1100
0000
0000
,
0100
0000
0000
0010
0000
0000
0001
0000
0000
0100
0000
0001
0100
0000
0000
0010
0000
0000
1000
0000
0000
0100
0000
1000
,
0001
0000
0000
1000
0000
0000
0010
0000
0000
0000
0000
0000
1001
0000
0000
0100
0000
0010
1000
0000
0000
0001
0000
0000
,
0101
0000
0000
1000
0000
1000
0100
0000
0000
1000
0000
0000
0001
0000
0000
0001
0000
0010
0000
0000
0000
1001
0000
0000
,
1000
0000
0010
0000
0000
0100
0000
0000
0010
1000
0000
0000
0001
0000
0010
0000
0000
0100
0000
0000
0010
0001
0000
0000
,
1000
0000
0000
0010
0000
0000
0101
0000
0000
0000
0000
0010
1000
0000
0001
1000
0000
0000
0101
0000
0000
0000
0000
0000
,
1000
0000
0000
0100
0000
0000
0010
0000
0000
0000
0000
0100
1000
0000
1000
0100
0000
1000
0001
0000
0000
1000
0000
0000
,
0010
0000
0000
0000
0000
0000
0000
0000
0000
0000
0000
0000
0000
0000
0000
0000
0000
0000
0000
0000
0000
0000
0000
0000
0001
0000
0000
0000
0000
0000
0000
0000
0000
0000
0000
0000
0000
0000
0000
0000
0001
0000
0000
0000
0000
0000
0000
0000
0010
0000
0000
0000
0000
0000
0000
0000
0000
0000
0000
0000
0000
0000
0000
0000
0000
0000
0000
0000
0000
0000
0000
0000
1000
0000
0000
0000
0000
0000
0000
0000
0000
0000
0000
0000
0000
0000
0000
0000
0000
0000
0000
0000
0000
0000
0000
0000
1010
0000
0000
0000
0000
0000
0000
0000
0000
0000
0000
0000
0000
0000
0000
0000
0000
0000
0000
0000
0000
0000
0000
0000
0000
0000
0000
0000
0000
0000
0000
0000
0000
0000
0000
0000
0000
0000
0000
0000
0101
0000
0000
0000
0000
0000
0000
0000
0000
0000
0000
0000
0000
0000
0000
0000
0000
0000
0000
0000
0000
0000
0000
0000
0000
0000
0000
0000
0000
0000
0000
0000
0001
0000
0000
0000
0000
0000
0000
0000
0000
0000
0000
0000
0000
0000
0000
0000
0000
0000
0001
0000
0000
0000
0000
0000
,
0100
0000
0000
0010
0000
0000
1000
0000
0000
0100
0000
0000
0010
0000
0000
0010
0000
0100
0000
0000
0100
0010
0000
0000
,
1001
0000
0000
0001
0000
0100
0010
0000
0100
0000
0000
0100
0001
0000
0000
0001
0000
0100
0000
0000
0001
0010
0000
0000
,
0001
0000
0000
0010
0000
0001
0100
0000
0010
0000
0000
0010
1000
0000
0010
1000
0000
0100
0000
0000
1001
0000
0000
0000
,
0101
0000
0000
0100
0000
0010
0100
0000
0010
0000
0000
0010
1000
0000
0000
0010
0000
1000
0001
0000
0010
0000
0000
0010
,
0001
0000
0000
0000
0000
0000
1000
0000
0000
0000
0010
0000
0100
0000
0000
0000
0000
0000
0000
0000
0000
0000
0000
1000
0001
0000
0000
0000
0000
0000
0000
0000
0000
0000
0110
0000
0000
0000
0000
0000
0000
0000
0000
0000
0000
0000
0000
0000
,
1000
0000
0000
0100
0000
0000
1000
0000
0100
0000
0000
0010
0000
0000
0000
0010
0000
0000
0100
0000
0000
0000
0000
0000
,
1000
0000
0000
0010
0000
0000
0100
0000
0001
0000
0000
0100
0000
0000
0000
0000
0000
0000
0000
0000
0000
1000
0000
0000
,
0100
0001
0010
1000
0010
0001
0100
0000
,
0010
0000
0000
0010
0000
1000
0000
0000
0100
1000
0000
0000
0010
0000
0000
0000
0000
0000
0000
0000
0000
1001
0000
0000
,
0001
0000
0000
0010
0000
0000
0100
0000
0010
0000
0000
0001
0000
0000
0000
0001
0000
0000
0100
0000
0000
0010
0000
0000
,
1000
0000
0000
0000
0000
1000
0010
0000
0000
0000
0000
0101
0000
0000
0000
0000
0000
0000
0000
0000
0000
0100
0000
0001
,
0100
0000
0000
0010
0000
0000
1000
0000
0000
0010
0000
1000
0010
0000
0000
0100
0000
0000
1000
0000
0000
0000
0000
0000
,
0101
0000
0000
0000
0000
1100
0000
0000
0000
0010
0000
0000
0100
0000
0000
0000
0000
0000
0000
0000
0000
0100
0000
0000
,
0010
0000
0000
0000
0000
1001
0000
0000
1000
0010
0000
0000
0001
0000
0010
0001
0000
0010
1000
0000
0010
1000
0000
0010
,
0100
0000
0000
0001
0000
0100
0000
0000
0010
0000
0000
0010
1000
0000
0000
0010
0000
1000
0000
0000
1000
0100
0000
0000
,
1000
0000
0000
0100
0000
0001
0000
0000
0001
0000
0000
0100
1000
0000
0000
0001
0000
0000
0100
0000
0000
0010
0000
0000
,
1001
0000
0000
0000
0000
0100
0000
0000
0100
0000
0000
0000
1010
0000
0000
0000
0000
1100
0000
0000
0000
0100
0000
0000
,
0010
0000
0000
0010
0000
0001
0000
0000
0001
0100
0000
0000
0010
0000
1000
0001
0000
0100
0001
0000
1000
0010
0000
0100
,
0001
0000
0000
0100
0000
0000
1000
0000
0000
0000
0000
0100
0001
0000
0000
0100
0000
0000
0010
0000
0000
0000
0000
1000
,
0010
0000
0000
0100
0000
0000
1010
0000
0000
0000
0000
0010
0000
0000
0010
1000
0000
0000
0100
0000
0000
0001
0000
0100
,
0000
0000
0000
1000
0000
1000
0100
0000
0000
0010
0000
0000
0001
0000
0000
0000
0000
0101
0000
0000
0000
0001
0000
0000
,
1000
0000
0000
0100
0000
0000
1000
0000
0000
0010
0000
1000
0010
0000
0000
0100
0000
0001
0000
0000
0100
0010
0000
0000
,
1001
0000
0000
0100
0000
0000
0001
0000
0000
1000
0000
0100
1000
0000
0001
1000
0000
0000
0010
0000
0000
0000
0000
0010
,
1000
0000
0000
0010
0000
0000
0001
0000
0000
0010
0000
1000
0000
0000
1000
0010
0000
0000
0100
0000
0001
0100
0000
0000
,
1001
0000
0000
0000
0000
0010
1000
0000
0000
1000
0000
0000
0100
0000
0000
0000
0000
0110
0000
0000
0000
0000
0000
0001
,
0010
0000
0010
0001
0000
1000
0010
0000
0010
1000
0000
0100
0000
0000
1000
0100
0000
0100
0010
0000
0001
1000
0000
1000
,
0200
0000
0000
0000
,
0300
0000
0000
0000
;
