#TITLE:Star Party;
#SUBTITLE:;
#ARTIST:AS-13;
#TITLETRANSLIT:;
#SUBTITLETRANSLIT:;
#ARTISTTRANSLIT:;
#CREDIT:;
#BANNER:starparty-bn.png;
#BACKGROUND:starparty-bg.png;
#LYRICSPATH:;
#CDTITLE:;
#MUSIC:Star Party.mp3;
#OFFSET:-0.020;
#SAMPLESTART:28.520;
#SAMPLELENGTH:12.000;
#SELECTABLE:YES;
#BPMS:0.000=140.000;
#STOPS:;
#BGCHANGES:;

//---------------dance-single - Blank----------------
#NOTES:
     dance-single:
     Blank:
     Hard:
     8:
     0.418,0.546,0.514,0.190,0.214: // measure 1
0000
0000
0000
0000
,  // measure 2
0000
0000
0000
0000
,  // measure 3
0000
0000
0000
0000
,  // measure 4
0000
0000
0000
0000
,  // measure 5
0000
0000
0000
0000
,  // measure 6
0000
0000
0000
0000
,  // measure 7
0000
0000
0000
0000
,  // measure 8
0000
0000
0000
0000
,  // measure 9
0000
0000
0000
0000
,  // measure 10
0101
0000
0000
0020
0000
0200
0330
0000
,  // measure 11
1010
0000
0000
0200
0000
0020
0330
0000
,  // measure 12
1100
0000
0000
0002
0000
2000
3003
0000
,  // measure 13
0101
0000
0000
0200
0000
0020
0300
0000
,  // measure 14
0130
0000
0000
1010
0000
0201
0000
0000
,  // measure 15
0310
0000
0000
1100
0000
0021
0000
0000
,  // measure 16
0130
0000
0000
0110
0000
1002
0000
0000
,  // measure 17
0103
0000
0000
1010
0000
0000
0202
0000
0000
0000
0000
0000
0303
0000
0000
0000
,  // measure 18
1001
0000
0000
0000
0010
0000
1000
0000
0100
0010
0000
0000
1100
0000
0000
0000
,  // measure 19
0011
0000
0000
0000
0001
0000
0010
0000
0100
1000
0000
0000
0110
0000
0000
0000
,  // measure 20
1001
0000
0010
1000
0001
0100
0001
0100
,  // measure 21
0010
0000
0000
0101
0000
0000
1001
0000
0000
0000
1000
0000
0000
0001
0000
0000
,  // measure 22
0110
0000
0000
0000
1000
0000
0010
0000
1000
0001
0000
0000
0110
0000
0000
0000
,  // measure 23
0101
0000
0000
0000
0010
0000
1000
0000
0100
0010
0000
0000
1100
0000
0000
0000
,  // measure 24
1001
0000
0001
0100
1000
0100
0001
0000
,  // measure 25
1010
0000
0000
1001
0000
0000
0101
0000
0000
0000
0010
1000
0010
0000
0100
0000
,  // measure 26
0110
0000
0000
0000
1000
0000
0001
0000
0100
0001
0000
0000
1100
0000
0000
0000
,  // measure 27
0101
0000
0000
0000
1000
0000
0001
0000
0100
0010
0000
0000
1010
0000
0000
0000
,  // measure 28
1001
0000
0001
0010
0100
0001
0100
1000
,  // measure 29
0010
0000
0000
1010
0000
0000
1100
0000
0000
0000
0010
0000
0000
0001
0000
0000
,  // measure 30
1001
0000
0000
0000
0010
0000
1000
0000
0100
1000
0000
0000
1001
0000
0000
0000
,  // measure 31
0101
0000
0000
0000
0010
0000
0100
0000
0001
1000
0000
0000
1010
0000
0000
0000
,  // measure 32
1001
0000
1000
0100
0010
1000
0010
0000
,  // measure 33
0011
0000
0000
0101
0000
0000
0110
0000
1000
0001
1000
0001
1000
0001
1000
0002
,  // measure 34
0200
0000
0000
0000
,  // measure 35
0000
0000
0000
0000
,  // measure 36
0000
0000
0000
0000
,  // measure 37
0000
0000
0000
0303
,  // measure 38
2000
0000
0000
0000
,  // measure 39
0200
0000
0000
0300
,  // measure 40
3002
0000
0000
0000
,  // measure 41
0020
0000
0000
0033
,  // measure 42
1000
0100
0001
0100
,  // measure 43
1000
0010
0001
0010
,  // measure 44
1000
0010
0001
0100
,  // measure 45
1000
0100
0001
0010
,  // measure 46
1000
0000
0000
1000
0000
0000
2000
0000
0000
0000
0000
0000
3000
0000
0000
0000
,  // measure 47
0001
0000
0000
0001
0000
0000
0002
0000
0000
0000
0000
0000
0003
0000
0000
0000
,  // measure 48
0100
0000
0000
0001
0000
0000
0010
0000
0000
0000
0001
0000
0000
1000
0000
0000
,  // measure 49
0100
0000
0000
1000
0000
0000
0010
0000
0100
0000
0010
0000
0100
0000
0010
0000
,  // measure 50
1000
0000
0000
1100
0000
0000
0001
0000
1000
0000
0100
0000
0010
0000
0001
0000
,  // measure 51
0100
0000
0000
1010
0000
0000
0101
0000
0000
0000
0100
0000
0010
0000
1000
0000
,  // measure 52
0001
0000
0000
1000
0000
0000
0110
0000
0000
0000
1001
0000
0000
1000
0010
0000
,  // measure 53
0100
0001
1000
0010
0000
0010
0100
0000
,  // measure 54
0101
0000
0000
1001
0000
0000
1000
0000
0100
0000
0001
0000
0100
0000
0000
0000
,  // measure 55
0110
0000
0000
1001
0000
0000
0101
0000
0000
0100
0010
0000
1000
0000
0010
0000
,  // measure 56
0100
0000
0000
1010
0000
0000
0010
0000
0000
0000
0100
0000
0000
1001
0000
0000
,  // measure 57
0001
0000
0100
0000
0010
0000
1000
0000
0000
0000
0010
0000
0100
0001
0100
0001
,  // measure 58
0100
0000
0000
0100
0001
0000
0100
0000
0010
0000
1000
0000
0000
0010
0000
0000
,  // measure 59
0100
0000
0000
0001
0100
0000
0010
0000
1000
0000
0001
0000
0100
0000
0000
0000
,  // measure 60
0010
0000
0000
1010
0000
0000
1000
0000
0000
1100
0000
0000
0110
0000
0000
0001
,  // measure 61
1000
0000
0000
0101
0000
0000
1010
0000
0100
0000
0010
0000
0000
1001
0000
0000
,  // measure 62
0100
0000
0000
0001
1000
0000
0100
0000
1000
0000
0001
0000
0000
0101
0000
0000
,  // measure 63
0110
0000
0000
0010
1000
0000
0100
0000
0010
0000
0000
0000
1100
0000
0000
0000
,  // measure 64
0010
0000
0000
0100
0000
0000
0010
0000
0001
0000
0010
0000
0100
0000
1000
0000
,  // measure 65
0010
0000
0000
1000
0000
0000
0001
0000
0000
0000
0100
0000
0000
0010
0000
0000
,  // measure 66
0201
0000
0000
0000
,  // measure 67
0320
0000
0000
0000
,  // measure 68
1000
0000
0000
1000
0000
0000
1000
0000
0000
0000
1000
0000
0000
2030
0000
0000
,  // measure 69
0010
0000
0000
0010
0000
0000
0010
0000
0000
0000
0010
0000
0000
3010
0000
0000
,  // measure 70
0101
0000
0000
0000
;

//---------------dance-single - Blank----------------
#NOTES:
     dance-single:
     Blank:
     Medium:
     5:
     0.242,0.314,0.198,0.087,0.040:
0000
0000
0000
0000
,
0000
0000
0000
0000
,
0000
0000
0000
0000
,
0000
0000
0000
0000
,
0000
0000
0000
0000
,
0000
0000
0000
0000
,
0000
0000
0000
0000
,
0000
0000
0000
0000
,
0000
0000
0000
0000
,
1000
0000
0000
1000
0000
1000
0000
0000
,
0010
0000
0000
0010
0000
0010
0000
0000
,
0100
0000
0000
0100
0000
0100
0000
0000
,
0001
0000
0000
0001
0000
0001
0000
0000
,
0100
0000
0000
0100
0000
0100
0000
0000
,
0010
0000
0000
0010
0000
0010
0000
0000
,
1000
0000
0000
1000
0000
1000
0000
0000
,
2002
0000
0000
3003
,
1001
0010
1000
0001
,
0101
0000
0000
0100
0001
0000
0100
0000
,
0110
0010
1000
0001
,
0100
0000
0000
0100
0000
0000
0100
0000
0000
0000
0000
0000
0010
0000
0000
0000
,
1001
0001
0010
0100
,
0110
0000
0000
1000
0001
0000
1000
0000
,
0010
1001
0100
1001
,
0110
0000
0000
1001
0000
0110
0000
0000
,
0101
1000
0001
0100
,
1001
0000
0000
1000
0100
0000
0010
0000
,
0001
0000
1001
0000
1000
0001
1000
0000
,
0110
0000
0000
0101
0000
1010
0000
0000
,
0100
1001
0010
0100
,
0110
0000
0000
0001
1000
0000
0100
0000
,
0110
1001
0001
1000
,
0101
0000
0000
1010
0000
0101
0000
0000
,
0020
0000
0000
0000
,
2030
0000
0000
0000
,
3002
0000
0000
0000
,
0203
0000
0000
0000
,
0310
0010
0010
0010
,
0100
0100
0100
0100
,
0001
0001
0001
0001
,
1000
0000
0000
1000
0000
0000
2000
0000
0000
0000
0000
0000
3000
0000
0000
0000
,
0001
0000
0000
0100
0000
0000
0001
0000
0000
0000
0000
0000
0100
0000
0000
0000
,
0010
0000
0000
1000
0000
0000
0010
0000
0000
0000
0000
0000
1000
0000
0000
0000
,
0100
0000
0000
1000
0000
0000
0100
0000
0000
0000
0000
0000
1000
0000
0000
0000
,
0001
0000
0000
0010
0000
0000
0001
0000
0000
0000
0000
0000
0010
0000
0000
0000
,
0001
0000
0000
1000
0000
0000
0001
0000
0000
0000
0000
0000
1000
0000
0000
0000
,
0010
0000
0000
1000
0000
0000
0010
0000
0000
0000
0000
0000
1000
0000
0000
0000
,
0001
0000
0000
0100
0000
0000
0001
0000
0000
0000
0000
0000
0100
0000
0000
0000
,
0010
0000
0000
0100
0000
0000
0010
0000
0000
0000
0000
0000
0100
0000
0000
0000
,
0001
0000
0100
0010
0100
0000
0001
0000
,
1000
0000
0010
0100
0010
0000
1000
0000
,
0001
0000
0100
0010
0100
0000
0001
0000
,
1000
0000
0010
0100
0010
0000
1000
0000
,
0001
0000
1000
0100
1000
0000
0001
0000
,
1000
0000
0001
0010
0001
0000
1000
0000
,
0001
0000
1000
0100
1000
0000
0001
0000
,
0010
0000
0000
0100
0000
0000
0010
0000
,
1002
0000
0000
0000
,
0203
0000
0000
0000
,
0320
0000
0000
0000
,
2030
0000
0000
0000
,
3100
0000
0000
0000
;

//---------------dance-single - Blank----------------
#NOTES:
     dance-single:
     Blank:
     Easy:
     3:
     0.165,0.217,0.032,0.158,0.000:
0000
0000
0000
0000
,
0000
0000
0000
0000
,
0000
0000
0000
0000
,
0000
0000
0000
0000
,
0000
0000
0000
0000
,
0000
0000
0000
0000
,
0000
0000
0000
0000
,
0000
0000
0000
0000
,
0000
0000
0000
0000
,
1001
0000
0000
0000
,
0001
0000
0000
0000
,
1001
0000
0000
0000
,
1000
0000
0000
0000
,
0110
0000
0000
0000
,
0010
0000
0000
0000
,
0110
0000
0000
0000
,
0200
0000
0000
0300
,
0001
0000
0001
0001
,
0010
0000
0010
0010
,
0100
0000
0100
0100
,
1000
0000
1000
1000
,
0100
0000
0100
0100
,
0010
0000
0010
0010
,
0001
0000
0001
0001
,
1000
0000
0001
1000
,
0010
0000
1000
1000
,
0001
0000
0100
0100
,
0010
0000
1000
1000
,
0001
0000
0100
0100
,
0010
0000
1000
1000
,
0001
0000
0100
0100
,
0010
0000
1000
1000
,
0002
0000
2000
3003
,
0002
0000
0000
0000
,
0203
0000
0000
0000
,
0320
0000
0000
0000
,
2030
0000
0000
0000
,
3010
0010
0010
0010
,
0100
0100
0100
0100
,
0001
0001
0001
0001
,
1000
0000
2000
3000
,
0001
0100
0002
0003
,
1000
0100
2000
3000
,
0001
0100
0002
0003
,
1000
0100
2000
3000
,
0001
0010
0002
0003
,
1000
0010
2000
3000
,
0001
0010
0002
0003
,
1000
0010
2000
3000
,
0001
0000
0100
0000
,
1000
0000
0100
0000
,
0001
0000
0010
0000
,
1000
0000
0010
0000
,
0001
0000
0100
0100
,
1000
0000
0100
0100
,
0001
0000
1000
1000
,
0010
0000
0001
1000
,
0002
0000
0000
0000
,
0203
0000
0000
0000
,
0320
0000
0000
0000
,
2030
0000
0000
0000
,
3100
0000
0000
0000
;
