#TITLE:Shine 2013;
#SUBTITLE:;
#ARTIST:AS-13;
#TITLETRANSLIT:;
#SUBTITLETRANSLIT:;
#ARTISTTRANSLIT:;
#GENRE:;
#CREDIT:;
#BANNER:shinebn.PNG;
#BACKGROUND:shinebg.png;
#LYRICSPATH:;
#CDTITLE:;
#MUSIC:Shine 2013.mp3;
#OFFSET:-0.040;
#SAMPLESTART:90.940;
#SAMPLELENGTH:12.000;
#SELECTABLE:YES;
#BPMS:0.000=95.000,16.000=190.000;
#STOPS:;
#TIMESIGNATURES:0.000=4=4
;
#BGCHANGES:;
#KEYSOUNDS:;

//---------------dance-single - Blank----------------
#NOTES:
     dance-single:
     Blank:
     Hard:
     9:
     0.554,0.577,0.266,0.066,0.000,481.000,36.000,9.000,0.000,0.000,0.000,0.554,0.577,0.266,0.066,0.000,481.000,36.000,9.000,0.000,0.000,0.000:
0000
0000
0000
0000
,
0000
0000
0000
0000
,
0000
0000
0000
0000
,
0000
0000
0000
0000
,
0101
0001
0000
0000
0000
0000
0101
0001
,
0000
0000
0000
0000
0101
0001
0000
0000
,
1010
1000
0000
0000
0000
0000
1010
1000
,
0000
0000
0000
0000
1010
1000
0000
0000
,
0011
0001
0000
0000
0000
0000
0011
0001
,
0000
0000
0000
0000
0011
0001
0000
0000
,
1100
1000
0000
0000
0000
0000
1100
1000
,
0000
0000
0000
0000
1100
1000
0000
0000
,
0101
0000
0000
0010
0100
0000
1001
0000
,
0000
0000
0110
0000
1000
0001
0000
0100
,
0101
0000
0000
0010
0100
0000
1001
0000
,
0010
1000
0010
0000
0101
0000
0100
0010
,
1001
0000
0000
1000
0010
0000
0010
1000
,
0000
1000
0001
0000
0100
0001
0100
0000
,
2002
0000
0000
0000
,
0000
0000
0000
3003
,
0100
0000
0001
0000
1000
0001
0100
0000
,
0010
0000
0100
0001
0000
0100
0001
0000
,
1000
1100
0001
0101
,
1000
0001
1000
0100
0000
0001
0100
0000
,
1000
0000
0010
0000
0001
0010
1000
0000
,
0001
0000
0101
0000
0100
0001
0010
0000
,
0100
1000
0100
0000
0010
0001
0010
0000
,
0001
0100
0010
1000
0010
0100
0001
0000
,
0100
0000
0001
0100
0000
0001
0100
0001
,
0010
0100
0011
1100
,
0001
1000
0100
0000
1000
0001
0100
0000
,
0010
1000
0010
1000
0010
0100
0001
0000
,
0100
0101
0010
0101
,
1000
0001
0100
0000
0010
0000
1001
0000
,
0100
0001
0100
0001
0100
0010
0100
0010
,
1000
0010
0001
0100
,
1001
0000
0100
0001
0000
0100
0010
0100
,
0001
0000
1000
0010
0000
1000
0001
1000
,
0100
0000
1000
0100
0000
0010
0001
0010
,
0100
0000
1000
0100
0000
0010
0001
1000
,
0010
0000
1000
0001
0000
0100
0001
0100
,
0001
0000
1000
0100
0000
1000
0001
1000
,
0100
0000
1000
0001
0000
0100
0001
0100
,
0010
0100
0010
0100
0001
0100
0001
0000
,
0010
0000
0001
0010
0000
0100
1000
0100
,
0010
0000
0100
1000
0000
0100
0010
0100
,
0010
0000
0001
0010
0000
0100
1000
0100
,
0010
0000
0001
0010
0000
0001
1000
0001
,
0100
0000
0001
0100
0000
0010
0100
0001
,
0100
0000
0001
1000
0000
0001
1000
0100
,
1000
0000
0010
0100
0000
0001
0100
0010
,
1000
1010
0010
1010
,
0100
0001
1000
0001
1000
0010
0100
0000
,
0010
1000
0001
0100
0001
1000
0010
0000
,
1000
0010
0100
0001
0100
0010
1000
0000
,
0010
0100
0001
1000
0001
1000
0100
0000
,
1000
0001
0100
0000
0001
1000
0100
1000
,
0100
1000
0010
0000
1000
0010
0100
0000
,
0010
0100
0010
0100
0001
0100
0001
0100
,
0010
0100
0010
0000
1000
0010
0100
0000
,
0001
1000
0100
1000
0001
0000
1000
0001
,
0100
0001
0100
0001
0100
0000
0010
0000
,
0100
0001
0100
0010
0000
0100
0010
0100
,
0001
0101
0100
1001
,
0010
1000
0010
0000
0100
0001
1000
0000
,
0100
1000
0001
0100
0001
1000
0100
0000
,
0010
0100
0010
0100
0010
0001
1000
0001
,
0010
0100
1000
0000
0100
0010
0001
0000
,
0101
0100
0010
0100
0010
0100
0010
0100
,
0001
0100
0010
1000
0010
0100
0001
1000
,
0100
1000
0100
1000
0100
1000
0100
1000
,
0001
0010
0001
1000
0010
1000
0001
0010
,
0100
0010
0100
0010
0100
0010
0100
0010
,
0001
1000
0100
1000
0001
0010
0001
0100
,
0010
1000
0010
1000
0001
1000
0001
1000
,
0001
0100
0001
0100
0010
1000
0010
0000
,
0101
0001
0100
0001
0100
0001
0100
0001
,
1000
0001
0100
0010
1000
0010
0100
0001
,
0010
0001
0010
0001
0010
0001
0010
0001
,
1000
0100
0010
0001
0010
0100
1000
0100
,
1000
0010
1000
0010
1000
0010
1000
0010
,
0100
0001
1000
0001
0100
0001
1000
0010
,
0100
0001
0100
0001
1000
0010
1000
0010
,
1000
0100
1000
0100
0010
0100
1000
0001
,
0201
0000
0000
0000
,
0010
0000
0000
0000
,
0302
0000
0000
0010
0000
0000
0010
0000
,
2003
0000
0000
0000
,
3200
0000
0000
0000
,
0010
0000
0000
0000
,
2300
0000
0000
0010
0000
0000
3002
0000
,
0023
0000
0000
0000
,
0130
0000
0000
0000
;

//---------------dance-single - Blank----------------
#NOTES:
     dance-single:
     Blank:
     Medium:
     6:
     0.443,0.509,0.384,0.162,0.000,346.000,52.000,22.000,0.000,0.000,0.000,0.443,0.509,0.384,0.162,0.000,346.000,52.000,22.000,0.000,0.000,0.000:
0000
0000
0000
0000
,
0000
0000
0000
0000
,
0000
0000
0000
0000
,
0000
0000
0000
0000
,
0101
0000
0000
0101
,
0000
0000
0101
0000
,
1010
0000
0000
1010
,
0000
0000
1010
0000
,
1100
0000
0000
1100
,
0000
0000
1100
0000
,
0011
0000
0000
0011
,
0000
0000
0011
0000
,
0101
0000
0010
0100
,
0000
0100
0010
0100
,
1001
0000
0010
0100
,
0000
0001
0100
0010
,
1001
0000
0100
0101
,
0000
0010
1010
0101
,
2002
0000
0000
0000
,
0000
0000
0000
3003
,
1000
0100
0010
0100
,
1000
0010
0100
0001
,
1000
0001
0100
0010
,
2000
0100
0010
0100
,
3001
0001
0100
0010
,
1000
0010
0100
0110
,
0001
0101
0100
0110
,
1000
1010
0001
0101
,
1001
0110
1000
0010
,
0100
0001
0100
1001
,
0010
1000
0010
0100
,
0002
0100
1000
0010
,
2003
0100
3001
0100
,
0110
1001
0100
0010
,
1010
1010
1100
1100
,
0010
0100
0010
0100
0010
0100
0010
0000
,
1001
0000
0100
0000
0001
0100
0001
0000
,
1000
0001
1000
1100
,
0001
0000
0010
0000
0001
1000
0001
1000
,
0001
0000
0100
0000
0001
0100
0001
0000
,
1000
1001
0001
1001
,
1000
0000
0010
0000
1000
0010
0100
0000
,
0001
0100
1000
0100
,
0001
1000
0001
0000
1000
0001
1000
0000
,
0100
1000
0100
1100
,
0010
0001
0010
0011
,
0001
0100
0010
0110
,
1001
0100
0001
0100
,
1010
0000
0100
0000
0010
0100
0010
0000
,
1000
0000
0010
0000
1000
0001
0100
0000
,
0001
1000
0100
1000
,
0010
1000
0100
0000
0010
0001
0100
0000
,
1010
0000
0100
0000
0001
1000
0100
0000
,
1000
0000
0001
0000
1000
0001
1000
0000
,
0010
0000
1000
0000
0010
0100
0010
0000
,
1000
0010
0100
0101
,
0001
0000
1000
0000
0100
0000
1000
0001
,
1000
0001
1000
0000
0001
0000
0100
0000
,
1000
0100
0001
0010
,
0100
0010
0100
0000
0010
0100
0010
0000
,
1001
0001
0100
0001
,
1000
1100
0001
0101
,
1000
0000
0001
0000
0100
0010
0100
0000
,
0010
0000
1000
0000
0010
0100
0010
0100
,
0010
1000
0001
0100
,
0101
0101
1000
1100
,
0001
1000
0100
1000
,
0010
1000
0010
1000
0010
0100
0010
0000
,
0101
0000
0100
0000
0001
0100
0001
0000
,
0100
0000
0010
0100
0000
0010
0100
0000
,
0010
1000
0001
0100
,
0020
0000
0030
1000
0000
0010
1000
0000
,
0001
0100
1000
0100
,
0001
0000
1000
0100
0000
1000
0100
0000
,
0010
0010
0100
0100
,
0010
0000
0001
0000
1000
0001
1000
0000
,
0100
0000
0100
1000
0000
1000
0100
0000
,
1000
0000
1000
0010
0000
0010
1000
0000
,
0001
0000
0001
0010
0000
0010
0001
0000
,
0100
0000
0100
0001
0000
0001
0100
0000
,
0010
0000
0100
0010
0000
0100
0010
0000
,
0100
0000
0010
0100
0000
0010
0100
0000
,
0001
1000
0010
0100
,
0001
1000
0001
0000
0100
0010
0100
0000
,
1002
0000
0003
0001
,
0200
0000
0300
0100
,
0020
0000
0030
0020
0000
0030
0020
0000
,
2030
0000
3000
1000
,
0200
0000
0000
0320
,
0032
0000
0000
0203
,
0320
0000
0000
2030
0000
0000
3020
0000
,
0230
0000
0000
0320
0000
0000
0230
0000
,
0301
0000
0000
0000
;

//---------------dance-single - Blank----------------
#NOTES:
     dance-single:
     Blank:
     Easy:
     3:
     0.254,0.272,0.015,0.288,0.000,200.000,2.000,39.000,0.000,0.000,0.000,0.254,0.272,0.015,0.288,0.000,200.000,2.000,39.000,0.000,0.000,0.000: // measure 1
0000
0000
0000
0000
,  // measure 2
0000
0000
0000
0000
,  // measure 3
0000
0000
0000
0000
,  // measure 4
0000
0000
0000
0000
,  // measure 5
0001
0000
0000
0001
,  // measure 6
0000
0000
0001
0000
,  // measure 7
0100
0000
0000
0100
,  // measure 8
0000
0000
0100
0000
,  // measure 9
0010
0000
0000
0010
,  // measure 10
0000
0000
0010
0000
,  // measure 11
1000
0000
0000
1000
,  // measure 12
0000
0000
1000
0000
,  // measure 13
0001
0000
0000
0100
,  // measure 14
0000
0000
0001
0000
,  // measure 15
1000
0000
0000
0010
,  // measure 16
0000
0000
1000
0000
,  // measure 17
0100
0000
0000
1000
,  // measure 18
0000
0000
0100
0000
,  // measure 19
2002
0000
0000
0000
,  // measure 20
0000
0000
0000
3003
,  // measure 21
0010
0000
0100
0000
,  // measure 22
0001
0000
0100
0000
,  // measure 23
1000
0000
0100
0000
,  // measure 24
0001
0100
0010
0000
,  // measure 25
1000
1000
0010
0000
,  // measure 26
0001
0001
0100
0000
,  // measure 27
1000
0000
0100
0000
,  // measure 28
0001
1000
0100
1000
,  // measure 29
0100
0000
0010
0000
,  // measure 30
0100
1000
0010
0000
,  // measure 31
0100
0000
0010
0000
,  // measure 32
0100
0001
0100
0001
,  // measure 33
0010
0000
0100
0000
,  // measure 34
1000
0100
1000
0000
,  // measure 35
0001
0001
0001
0001
,  // measure 36
1000
1000
1000
1000
,  // measure 37
0010
0100
0000
0100
,  // measure 38
0000
0001
0000
0100
,  // measure 39
0000
1000
0000
0010
,  // measure 40
0001
0001
0010
0010
,  // measure 41
0001
1000
0000
0001
,  // measure 42
0000
0100
0000
0100
,  // measure 43
0000
0001
0000
0001
,  // measure 44
0000
0100
0010
0100
,  // measure 45
0010
1000
0000
0001
,  // measure 46
0000
0100
0000
0001
,  // measure 47
1000
0000
1000
1000
,  // measure 48
1000
0000
0001
0001
,  // measure 49
0001
0000
0100
0000
,  // measure 50
0001
1000
0100
0000
,  // measure 51
0010
0000
0010
0000
,  // measure 52
0001
0001
1000
1000
,  // measure 53
0002
0003
0001
0001
,  // measure 54
0200
0300
0100
0100
,  // measure 55
0002
0000
0203
0000
,  // measure 56
0302
0000
0203
0000
,  // measure 57
0320
0030
0010
0010
,  // measure 58
2000
3000
1000
1000
,  // measure 59
0020
0000
0230
0000
,  // measure 60
0302
0000
2003
0000
,  // measure 61
3200
0000
1300
0100
,  // measure 62
2000
0000
3200
0000
,  // measure 63
0310
0010
0010
0100
,  // measure 64
0020
0000
0032
0000
,  // measure 65
0203
0000
0010
0010
,  // measure 66
0010
0000
0010
0000
,  // measure 67
0302
0000
0100
0000
,  // measure 68
0100
0000
0100
0000
,  // measure 69
2003
0000
3000
0100
,  // measure 70
0020
0000
0030
0100
,  // measure 71
2000
3000
2000
3000
,  // measure 72
0200
0300
0020
0030
,  // measure 73
0002
0000
0003
0010
,  // measure 74
0200
0000
0300
0010
,  // measure 75
0002
0003
0002
0003
,  // measure 76
0100
0001
0100
0001
,  // measure 77
0200
0000
0300
0010
,  // measure 78
2000
0000
3000
0010
,  // measure 79
0200
0300
0200
0300
,  // measure 80
0010
1000
0010
1000
,  // measure 81
0002
0000
0003
1000
,  // measure 82
0200
0000
0300
1000
,  // measure 83
0002
0003
0002
0003
,  // measure 84
0100
0100
0010
0010
,  // measure 85
1001
0000
0000
0000
,  // measure 86
0100
0000
0000
0000
,  // measure 87
0010
0000
0010
0000
,  // measure 88
0010
0000
0000
0000
,  // measure 89
0100
0000
0000
0000
,  // measure 90
0001
0000
0000
0000
,  // measure 91
1000
0000
1000
0000
,  // measure 92
0001
0000
0001
0000
,  // measure 93
0100
0000
0000
0000
;
