#VERSION:0.83;
#TITLE:Secret Island;
#SUBTITLE:;
#ARTIST:AS-13 with IA;
#TITLETRANSLIT:;
#SUBTITLETRANSLIT:;
#ARTISTTRANSLIT:;
#GENRE:;
#ORIGIN:;
#TAGS:;
#CREDIT:;
#BANNER:secretisland-bn.png;
#BACKGROUND:secretisland-bg.png;
#PREVIEWVID:;
#JACKET:;
#CDIMAGE:;
#DISCIMAGE:;
#LYRICSPATH:;
#CDTITLE:;
#MUSIC:Secret Island.ogg;
#OFFSET:-0.105000;
#SAMPLESTART:8.984994;
#SAMPLELENGTH:12.000000;
#SELECTABLE:YES;
#BPMS:0.000000=135.000000
;
#STOPS:;
#DELAYS:;
#WARPS:;
#TIMESIGNATURES:0.000000=4=4
;
#TICKCOUNTS:0.000000=4
;
#COMBOS:0.000000=1
;
#SPEEDS:0.000000=1.000000=0.000000=0
;
#SCROLLS:0.000000=1.000000
;
#XSCROLLS:0.000000=0.000000 ;
#FAKES:;
#LABELS:0.000000=Song Start
;
#BGCHANGES:;
#KEYSOUNDS:;
#ATTACKS:
;

//---------------dance-single - ----------------
#NOTEDATA:;
#CHARTNAME:;
#CHARTHASH:2152040327;
#STEPSTYPE:dance-single;
#BANNER:;
#DESCRIPTION:;
#CHARTSTYLE:;
#DIFFICULTY:Easy;
#METER:4;
#METERF:4.000000;
#LASTSECONDHINT:81.877777;
#RADARVALUES:0.237697,0.323051,0.097239,0.021609,0.000000,154.000000,145.000000,9.000000,2.000000,0.000000,0.000000,0.000000,0.000000,0.000000,0.237697,0.323051,0.097239,0.021609,0.000000,154.000000,145.000000,9.000000,2.000000,0.000000,0.000000,0.000000,0.000000,0.000000;
#CREDIT:;
#NOTES:
0000
0000
0000
0000
,
0000
0000
0000
0000
,
1000
0000
0000
1000
0000
0000
0000
0000
,
0001
0000
0000
0001
0000
0000
0000
0000
,
0100
0000
0000
0000
,
1001
0000
0010
1000
,
0100
0000
0001
0100
,
1000
0000
0001
0100
,
0010
0000
0001
0010
,
1000
0000
0001
1000
,
0001
0010
0000
0010
,
0001
0000
1000
0001
,
0100
0100
0001
1000
,
0200
0000
0000
0300
,
1001
0001
0100
0010
,
1000
0001
0100
0000
,
0010
0001
1000
0010
,
0001
0100
0010
0000
,
1000
0100
0010
1000
,
0001
0010
1000
0000
,
0001
1001
1000
1001
,
0010
0100
0110
1001
,
0100
0000
0000
0001
1000
0000
0000
0000
,
0100
0000
0000
1000
0001
0000
0000
0000
,
0010
0000
0000
0001
0100
0000
0000
0000
,
0010
0000
0000
1000
0100
0000
0000
0000
,
0010
0000
0000
0010
0100
0000
0000
0100
,
0010
0010
0010
0010
,
1001
0100
1000
0010
,
1000
0000
0001
0001
0000
0000
0010
0000
,
0001
0000
1000
1000
0000
0000
0010
0000
,
1000
0000
0100
0000
1000
0100
1000
0000
,
0001
0100
1000
0010
,
0001
0000
1000
1000
0000
0000
0010
0000
,
1000
0000
0001
0001
0000
0000
0100
0000
,
0010
0001
0100
1000
,
0110
0000
0000
0000
1001
0000
0000
0001
,
1000
0000
0000
1000
0100
0000
0000
0000
,
1000
0000
0000
0001
0100
0000
0010
0000
,
1000
0000
0000
1000
0010
0000
0000
0000
,
1000
0000
0001
0000
0100
0100
0000
0000
,
0001
0000
1000
0000
0100
0000
0000
0100
,
0010
0001
0100
0010
,
1000
0000
0100
0000
0010
0001
1000
0001
,
0200
0000
0000
0000
,
0000
0000
0000
0000
,
0300
0000
0000
0000
;

//---------------dance-single - ----------------
#NOTEDATA:;
#CHARTNAME:;
#CHARTHASH:3012049933;
#STEPSTYPE:dance-single;
#BANNER:;
#DESCRIPTION:;
#CHARTSTYLE:;
#DIFFICULTY:Medium;
#METER:6;
#METERF:6.000000;
#LASTSECONDHINT:81.877777;
#RADARVALUES:0.344197,0.347901,0.151261,0.032413,0.097239,223.000000,209.000000,14.000000,3.000000,0.000000,0.000000,0.000000,0.000000,0.000000,0.344197,0.347901,0.151261,0.032413,0.097239,223.000000,209.000000,14.000000,3.000000,0.000000,0.000000,0.000000,0.000000,0.000000;
#CREDIT:;
#NOTES:
0000
0000
0000
0000
,
0000
0000
0000
0000
0000
0000
0000
0100
,
0001
0000
0000
0001
0000
0000
0001
0000
0000
0000
0000
0000
0000
0000
0100
0000
,
1000
0000
0000
1000
0000
0000
1000
0000
0000
0000
0000
0000
0000
0000
0100
0000
,
0001
0000
0000
0001
0000
0000
1000
0000
0000
1000
0000
0000
0001
0000
0000
0000
,
1100
0000
0000
1000
0000
0000
0001
0000
0000
0000
0100
0000
0000
0000
1000
0000
,
0000
0100
0000
0001
0000
1000
0100
1000
,
0001
0000
0000
1000
0000
0000
0100
0000
0000
0000
0001
0000
0000
0000
0010
0000
,
0000
1000
0000
0010
0000
0001
0100
1000
,
0000
0000
1001
0000
0001
0100
0000
1000
,
0000
0010
0000
0010
0001
0000
1000
0010
,
1000
0000
0000
0001
0000
0000
1000
0000
0000
0000
0100
0000
0000
0000
1001
0000
,
0000
0100
0001
0100
0000
0010
0000
0020
,
0000
0000
0000
0030
,
1000
0100
1000
0100
0000
1000
0100
1000
,
0001
0100
0001
0100
0000
0000
0000
0000
,
0001
0010
0001
0010
0000
0001
0010
0001
,
1000
0010
1000
0010
0000
0000
0000
0000
,
1000
0001
1000
0100
0000
1000
0100
1000
,
0001
0100
0001
0100
0000
0000
0000
0001
,
0010
0001
0010
0001
0000
1000
0001
1000
,
0010
1000
0010
2000
0000
0000
3000
0000
,
0101
0000
0000
0100
0000
0000
0001
0000
0010
0000
0000
0000
0000
0000
0000
0000
,
1010
0000
0000
0010
0000
0000
1000
0000
0100
0000
0000
0000
0000
0000
0000
0000
,
1001
0000
0000
0001
0000
0000
0100
0000
1000
0000
0000
0000
0000
0000
0000
0000
,
1001
0000
0000
1000
0000
0000
0100
0000
0001
0000
0000
0000
0000
0000
0000
0000
,
0110
0000
0000
0010
0000
0000
0100
0000
0010
0000
0000
0001
0000
0000
0100
0000
,
0010
0010
0010
1001
,
0100
0000
0001
1000
0000
1000
0001
0000
,
0010
0000
0001
0100
0000
0001
0010
0001
,
0010
0000
0010
0001
0000
1000
0000
1000
,
0010
0000
0000
0000
1000
0000
0000
0010
0000
0000
0100
0000
0001
0000
0100
0000
,
0010
0000
1000
0001
0000
0100
0000
0001
,
1000
0001
1000
0010
0000
0010
1000
0000
,
0100
0010
0100
0010
0000
0001
1000
0000
,
0001
0000
0100
0000
1000
0100
0001
0000
,
1100
0000
1000
0000
0001
0100
0000
0100
,
0001
0000
0000
0001
0000
0000
1000
0000
0100
0000
0000
0000
0000
0000
0000
0000
,
1010
0000
0000
1000
0000
0000
0010
0000
1000
0000
0000
0000
1000
0000
0001
0000
,
0010
0000
0000
0001
0000
0000
0100
0000
0010
0000
0000
0000
0000
0000
0100
0000
,
0001
0000
0001
0100
0010
1000
0000
0000
,
1000
0000
0000
0010
0000
0000
0100
0000
0001
0000
0000
0000
0000
0000
1000
0000
,
0001
0110
1000
0110
,
0001
0000
0110
0000
1000
0010
1000
0001
,
0200
0000
0000
0000
,
0000
0000
0000
0000
,
0300
0000
0000
0000
;

//---------------dance-single - ----------------
#NOTEDATA:;
#CHARTNAME:;
#CHARTHASH:3866701945;
#STEPSTYPE:dance-single;
#BANNER:;
#DESCRIPTION:;
#CHARTSTYLE:;
#DIFFICULTY:Hard;
#METER:9;
#METERF:9.000000;
#LASTSECONDHINT:81.877777;
#RADARVALUES:0.544850,0.621252,0.226892,0.043218,0.437578,353.000000,332.000000,21.000000,4.000000,0.000000,0.000000,0.000000,0.000000,0.000000,0.544850,0.621252,0.226892,0.043218,0.437578,353.000000,332.000000,21.000000,4.000000,0.000000,0.000000,0.000000,0.000000,0.000000;
#CREDIT:;
#NOTES:
// measure 0
0000
0000
0000
0000
,  // measure 1
0000
0000
0000
0000
0000
0000
0000
0100
,  // measure 2
0001
0000
0000
0001
0100
0000
0001
0000
0000
0000
0001
0000
0000
0000
0001
0000
,  // measure 3
0010
0000
0000
0010
0001
0000
0010
0000
0000
0000
0010
0000
0000
0000
0010
0000
,  // measure 4
0100
0000
0000
0001
0000
0000
0100
0000
0000
1000
0000
0000
0010
0000
0100
0000
,  // measure 5
1010
0000
0010
1000
0000
0000
0010
0000
0100
0000
1000
0000
0100
0000
0001
0000
,  // measure 6
0000
0001
0100
0000
0010
0000
1000
0000
0000
1000
0010
0000
0100
0000
0010
0000
,  // measure 7
1000
0000
0000
1010
0000
0000
0001
0000
0010
0000
0100
0000
0001
0000
0100
0000
,  // measure 8
0000
0100
1000
0010
0000
0010
1000
0100
,  // measure 9
0010
0000
0000
0010
0100
0000
1000
0000
0100
0000
0001
0000
0000
0000
0001
0000
,  // measure 10
0100
0010
0001
0010
0000
1001
0100
1000
,  // measure 11
0001
0000
0100
0001
0000
0000
0100
0000
0010
0000
0100
0000
0010
0000
1000
0000
,  // measure 12
0000
0010
0001
0010
0000
1000
0100
0020
,  // measure 13
0000
0000
0000
0030
,  // measure 14
1100
0000
0100
0000
1000
0000
0010
0000
0000
0100
0010
0000
1000
0000
0100
0000
,  // measure 15
0001
0100
0001
0000
0100
0000
1000
0000
0000
0000
1000
0000
0010
0000
0000
0000
,  // measure 16
0101
0000
0010
0000
0100
0000
0001
0000
0000
0001
0100
0000
0010
0000
0001
0000
,  // measure 17
0010
0000
1000
0000
0100
0000
0010
0000
0000
0000
1000
0010
0000
0000
0010
0000
,  // measure 18
0001
0000
1000
0000
0010
0000
1000
0000
0100
1000
0000
0100
1000
0000
0010
0000
,  // measure 19
0100
0000
0001
0100
0001
0000
0010
0000
0000
0000
1001
0000
0010
0000
1000
0000
,  // measure 20
0001
0100
0010
1000
0100
0010
0001
0100
,  // measure 21
0010
1000
0100
0010
0001
0100
0010
0100
,  // measure 22
1000
0000
0000
1100
0000
0000
0100
0000
0001
0000
0000
0000
0000
0000
0000
0000
,  // measure 23
1000
0000
1000
0100
0000
0000
0100
0000
0001
0000
0000
0000
0000
0000
0000
0000
,  // measure 24
1100
0000
1000
0001
0000
0001
0100
0000
1000
0000
0000
0000
0000
0000
0000
0000
,  // measure 25
0101
0000
0001
0100
0000
1000
0100
0000
1000
0000
0000
0000
0000
0000
0000
0000
,  // measure 26
1010
0000
0000
1100
0000
0000
0001
0000
0011
0000
0000
0101
0000
0000
1000
0000
,  // measure 27
2002
0000
0000
0000
0000
3003
0000
0100
,  // measure 28
0010
1000
0100
0000
1000
0000
0100
0000
0000
0100
0010
0000
0100
0000
0010
0000
,  // measure 29
0001
0100
0010
0000
0100
0000
0001
0000
0000
0010
0100
0000
1000
0000
0010
0000
,  // measure 30
1000
0010
0100
0000
0001
0000
0100
0000
0010
0100
0010
0000
1000
0010
0100
0000
,  // measure 31
0001
0100
1000
0000
0100
0000
0001
0010
0000
0010
1000
0000
0010
0001
0100
0000
,  // measure 32
0001
0100
0001
0000
0010
0000
0100
0000
0000
1000
0100
0000
1000
0000
0010
0000
,  // measure 33
1000
0100
0010
0000
0001
0000
0100
0000
0000
0100
0010
0000
1000
0000
0100
0010
,  // measure 34
0001
1000
0001
0000
0100
0000
1000
0000
0100
0001
0100
0000
0010
0000
1000
0000
,  // measure 35
0100
0010
0100
0000
1000
0000
0100
0010
0000
0001
0010
0000
0100
1000
0100
1000
,  // measure 36
0001
0000
0100
0001
0000
0100
0001
0000
1010
0000
0100
0000
0000
0100
0010
0000
,  // measure 37
1001
0000
0000
1000
0000
0010
1000
0000
0011
0000
0000
0000
0001
0010
0100
1000
,  // measure 38
0010
0000
1000
0001
0000
0001
1000
0000
0101
0000
1000
0001
1000
0100
1000
0001
,  // measure 39
0100
0000
0000
0010
0000
0100
0001
0000
0011
0000
0000
0000
0100
0010
0001
0010
,  // measure 40
0100
0000
1000
0001
0100
0000
0100
0000
1001
0000
0100
0000
0000
1000
0100
0010
,  // measure 41
0001
0000
0001
0100
0000
0100
0010
0000
1001
0000
0000
0000
1000
0001
0100
0000
,  // measure 42
0010
0000
1000
0001
0000
1000
0100
0000
0010
0000
0001
1000
0000
0001
0100
0000
,  // measure 43
0010
0000
1000
0100
0000
1000
0001
0100
0010
0100
0001
1000
0001
0100
0010
1000
,  // measure 44
0200
0000
0000
0000
,  // measure 45
0000
0000
0000
0000
,  // measure 46
0300
0000
0000
0000
;
