#TITLE:Saria's Song;
#SUBTITLE:(AS-13 Remix);
#ARTIST:AS-13;
#TITLETRANSLIT:;
#SUBTITLETRANSLIT:;
#ARTISTTRANSLIT:;
#CREDIT:;
#BANNER:saria-bn.JPG;
#BACKGROUND:saria-bg.JPG;
#LYRICSPATH:;
#CDTITLE:;
#MUSIC:Saria's Song (AS-13 Remix).mp3;
#OFFSET:-0.040;
#SAMPLESTART:3.448;
#SAMPLELENGTH:12.000;
#SELECTABLE:YES;
#BPMS:0.000=140.000;
#STOPS:;
#BGCHANGES:;

//---------------dance-single - Blank----------------
#NOTES:
     dance-single:
     Blank:
     Hard:
     7:
     0.588,0.546,0.080,0.080,0.032: // measure 1
0000
0000
0000
0000
,  // measure 2
0000
0000
0000
0000
,  // measure 3
1001
0100
0010
0000
1001
0100
0010
0000
,  // measure 4
1000
0010
0100
0001
0010
0000
1000
0010
,  // measure 5
0001
0100
2000
0000
3002
0000
0103
1000
,  // measure 6
0001
0100
0020
0000
1030
0010
0100
0000
,  // measure 7
0101
1000
0010
0000
0101
1000
0010
0000
,  // measure 8
0100
0010
1000
0000
0010
0001
0100
0010
,  // measure 9
0001
1000
0100
0000
0010
0100
1000
0001
,  // measure 10
0100
0001
0010
0000
0002
2003
3002
2003
,  // measure 11
3010
1000
0010
1000
0001
0010
0001
0010
,  // measure 12
0100
1000
0100
1000
0001
0100
0001
0100
,  // measure 13
0010
1000
0010
1000
0001
0010
0001
0010
,  // measure 14
0100
1000
0100
1000
0001
0100
0001
0100
,  // measure 15
0010
1000
0010
1000
0100
1000
0100
1000
,  // measure 16
0001
0010
0001
0010
0001
0100
0001
0100
,  // measure 17
0001
0001
1000
1000
0100
0100
0010
0010
,  // measure 18
0001
0000
0001
0000
1000
0000
1000
0000
0100
0000
0100
0000
0010
0001
0000
0010
,  // measure 19
0002
0000
0000
0000
,  // measure 20
1000
1000
1000
1000
1003
0000
0110
0000
,  // measure 21
0001
0100
0010
0000
0001
0100
0010
0000
,  // measure 22
0001
1000
0100
0010
0001
0000
0010
0100
,  // measure 23
1000
0010
0100
0000
1000
0100
0010
0001
,  // measure 24
0100
0010
0001
0000
0100
0010
1000
0001
,  // measure 25
1000
0100
0010
0000
1000
0100
0010
0000
,  // measure 26
1000
0100
0010
1000
0100
0000
0001
0100
,  // measure 27
0010
1000
0100
0000
0010
0100
1000
0001
,  // measure 28
0100
0000
0010
0000
0100
0000
0010
0000
0100
0000
0010
0000
0100
0010
0100
0010
,  // measure 29
1000
0010
1000
0010
0100
0001
0100
0001
,  // measure 30
1000
0100
1000
0100
0010
0001
0010
0001
,  // measure 31
1000
0010
1000
0010
0100
0001
0100
0001
,  // measure 32
1000
0100
1000
0100
0010
0001
0010
0001
,  // measure 33
0100
0010
0100
0010
1000
0001
1000
0001
,  // measure 34
0010
0100
0010
0100
1000
0001
1000
0001
,  // measure 35
0100
0100
0010
0010
1000
1000
0001
0001
,  // measure 36
0100
0000
0100
0000
0010
0000
0010
0000
1000
0000
1000
0000
0001
0100
0000
0001
,  // measure 37
0200
0000
0000
0000
,  // measure 38
0010
0010
0010
0010
0310
0000
1001
0000
,  // measure 39
1000
1000
1000
0000
0100
0100
0100
0000
,  // measure 40
0001
0001
0001
0000
0010
0010
0010
0000
,  // measure 41
1000
0010
1000
0000
0010
0001
0010
0000
,  // measure 42
0001
0100
0001
0000
0100
1000
0100
0000
,  // measure 43
0010
0001
0100
0000
0010
1000
0001
0000
,  // measure 44
0010
0100
0001
0000
1000
0100
0010
0000
,  // measure 45
1000
0010
0100
0000
1000
0001
0100
0000
,  // measure 46
0010
0001
1000
0000
0100
0001
0010
0000
,  // measure 47
1000
0010
1000
1000
0001
0100
0001
0001
,  // measure 48
1000
0100
1000
1000
0001
0010
0001
0001
,  // measure 49
0100
0001
0100
0100
0010
1000
0010
0010
,  // measure 50
0100
0010
1000
1000
0010
0100
0001
0001
,  // measure 51
1000
0001
0100
0000
0001
1000
0100
0000
,  // measure 52
0010
0001
0010
0001
0010
0000
0100
0010
,  // measure 53
0100
0010
0100
0000
0011
0000
1100
0000
,  // measure 54
0010
0100
0010
0100
1000
0001
1001
0000
,  // measure 55
0010
1000
0010
1000
0100
0010
0100
0010
,  // measure 56
0001
1000
0001
1000
0010
0100
0010
0100
,  // measure 57
0001
0100
0001
0100
0010
1000
0010
1000
,  // measure 58
0100
1000
0100
1000
0001
0010
0001
0010
,  // measure 59
0100
0010
0100
0010
0001
1000
0001
1000
,  // measure 60
0010
0100
0010
0100
0001
0100
0001
0100
,  // measure 61
0010
1000
0010
1000
0001
0010
0001
0010
,  // measure 62
0100
1000
0100
1000
0010
0100
0010
0100
,  // measure 63
0001
1000
0001
1000
0010
1000
0010
1000
,  // measure 64
0001
0010
0001
0010
0100
1000
0100
1000
,  // measure 65
0100
0010
0100
0010
0001
1000
0001
1000
,  // measure 66
0010
1000
0010
1000
0001
0100
0001
0100
,  // measure 67
0010
0100
0001
0100
0010
1000
0010
0100
,  // measure 68
0001
0010
0100
1000
0100
0010
0001
0010
,  // measure 69
0001
0001
1000
1000
0100
0100
0010
0010
,  // measure 70
0001
0000
0001
0000
0100
0000
0100
0000
0010
0000
0010
0000
1000
0010
0000
1000
,  // measure 71
0002
0000
0000
0000
,  // measure 72
0013
0100
0010
0100
0010
0000
1001
0000
;

//---------------dance-single - Blank----------------
#NOTES:
     dance-single:
     Blank:
     Medium:
     6:
     0.430,0.460,0.336,0.216,0.000:
0000
0000
0000
0000
,
0000
0000
0000
0000
,
0001
0001
0100
0000
0001
0001
0100
0000
,
0001
0010
0100
1000
,
0010
0101
0100
1010
,
0010
0100
0010
1001
,
1000
1000
0010
0000
1000
1000
0010
0000
,
1000
0100
0010
0001
,
0100
0001
0200
0000
0000
0000
0000
0301
,
1000
0001
2000
0000
0000
0000
3000
0000
,
0001
1000
0001
0000
1000
0001
1000
0000
,
0001
1000
0002
0000
1000
0000
1003
0000
,
0001
0100
0010
0100
,
0001
0100
0020
0000
2030
0000
3002
0000
,
0103
0000
0001
0000
1000
0001
1000
0000
,
0100
1001
0100
1001
,
0001
0100
0001
0000
0001
0100
0001
0000
,
0001
0100
0001
0000
0100
0000
0001
0000
,
2002
0000
0000
3000
,
0013
0010
0010
0010
0010
0000
0010
0000
,
1001
0001
1000
0101
,
0010
1000
0001
1000
,
0100
1000
0100
0000
0010
0000
0100
0000
,
1000
0100
2000
0000
3002
0000
2003
0000
,
3010
0000
1000
0000
0001
0100
0001
0000
,
1000
0000
0001
0000
0100
0000
0010
1000
,
0010
2002
3003
0110
,
1000
0010
0001
0100
,
1000
0001
1000
0000
0001
0000
0100
0000
,
0010
1000
0002
0000
0000
0000
1003
0000
,
0100
1000
0001
1001
,
0220
0000
0330
0000
1000
0001
0010
0000
,
0001
0101
0101
1001
,
1000
0000
0100
1000
0001
0000
0100
0000
,
0010
0010
0010
0000
0100
0100
0100
0000
,
0010
0010
0010
0000
0100
0000
0100
0000
,
1001
0110
1001
0110
,
1002
1000
1000
1003
,
0101
0000
0000
0010
0000
0000
1000
0000
,
0000
0010
0000
0100
0001
0000
0010
0001
,
1000
0000
0000
0010
0000
1000
0010
0000
,
0000
0100
0000
0001
0100
0000
0010
0000
,
1000
0000
0000
0001
0000
0000
1000
0000
,
0001
0000
0101
0000
1010
0000
1000
0010
,
1000
0000
0200
0000
0300
1000
0100
0000
,
1000
0000
0010
0000
1000
0001
0010
0000
,
0001
0000
0001
1000
0000
1000
0001
0000
,
1000
0001
0100
0101
,
2002
0000
3003
0001
0020
0000
0030
0000
,
2200
0000
3300
1000
0020
0000
0030
0000
,
1000
1001
0100
0011
,
0001
0010
0001
0000
1000
0001
0100
0000
,
0001
0000
0100
0001
0000
0000
0100
0000
,
0010
1001
0100
1001
,
0010
1000
0010
0000
1000
0010
1000
0000
,
0001
0000
0101
0000
0100
0001
0100
0000
,
0010
0000
1000
0000
0001
0000
1000
0001
,
0020
0000
0030
0001
0010
0000
1100
0000
,
0001
0000
0100
0000
0001
0000
1000
0100
,
1000
0000
0001
1000
0000
0001
0000
0000
,
0100
1010
0010
1001
,
1000
0010
1010
0101
,
0100
0001
1000
0100
,
1000
0001
0100
0000
0001
1000
0100
0000
,
0010
0000
0001
0000
1000
0000
0001
1000
,
0010
1000
0020
0000
0000
0000
0000
0000
,
0130
0000
0001
0000
0010
0100
0000
0010
,
0001
0000
1000
0000
0001
0000
1000
0001
,
1000
1100
1001
0101
,
1010
0000
1001
0000
0011
0000
0010
0100
,
2000
0000
0000
0000
,
3001
0001
0001
0001
;

//---------------dance-single - Blank----------------
#NOTES:
     dance-single:
     Blank:
     Easy:
     4:
     0.304,0.316,0.200,0.176,0.000:
0000
0000
0000
0000
,
0000
0000
0000
0000
,
1001
0000
0001
0100
,
0100
0000
0010
0100
,
1001
0000
1001
0100
,
1001
0010
0000
0010
,
1000
0001
1000
0010
,
1000
0001
0010
0000
,
0001
0010
0000
0001
,
0010
0002
0000
0000
,
1003
1000
0001
0001
,
0100
0200
0000
0300
,
0001
0100
0010
1000
,
0100
0020
0000
0030
,
0001
0010
1000
0010
,
0001
0200
0000
0300
,
0010
0010
1000
1000
,
0001
0001
1000
1000
,
2002
0000
0000
3003
,
0110
0010
0010
0010
,
1000
1000
0010
0010
,
1000
0100
0010
0100
,
1000
0200
0300
1000
,
0001
0200
0000
0300
,
0001
1000
0001
1001
,
1000
0001
1000
1001
,
0001
0000
0100
0000
,
1000
0100
0001
0000
,
0110
0000
1001
1001
,
0110
0000
1000
0010
,
0001
0010
1000
0010
,
0001
0010
1000
0010
,
1001
0000
0001
0100
,
1001
0000
1000
0010
,
0100
0100
0001
0001
,
0010
0010
0001
1000
,
2200
0000
0000
3300
,
0010
0010
0100
0100
,
1001
0000
0001
0000
,
1000
1000
0100
0100
,
0010
0200
0000
0000
,
0310
0200
0000
0000
,
1300
0000
0100
0000
,
0010
0001
0200
0300
,
0001
0100
0000
0010
,
1000
1001
0000
0000
,
0001
0001
1000
1000
,
1001
0110
1001
0000
,
0001
0020
0000
0000
,
0031
0200
0000
0000
,
0301
1000
0001
1000
,
0010
1000
0100
0000
,
1000
0100
0010
0000
,
0001
0100
0110
1001
,
1000
1000
0010
0010
,
1000
0100
0020
0030
,
0001
0010
0001
1000
,
0100
2000
0000
3000
,
0001
1000
0010
0100
,
0001
0100
0010
1000
,
0100
0100
0010
0010
,
0001
2000
0000
3000
,
0010
1000
0001
1000
,
0001
0100
0001
0010
,
0001
1000
0010
1000
,
2002
0000
3003
0110
,
0010
1000
0001
1000
,
0001
0200
0000
0300
,
0001
0001
1000
1000
,
0100
0100
1000
0001
,
0020
0000
0000
0030
,
1001
0001
0001
0001
;
