#VERSION:0.81;
#TITLE:Sapphire Stardust;
#SUBTITLE:;
#ARTIST:AS-13;
#TITLETRANSLIT:;
#SUBTITLETRANSLIT:;
#ARTISTTRANSLIT:;
#GENRE:;
#ORIGIN:;
#CREDIT:;
#BANNER:sapphire-bn.png;
#BACKGROUND:sapphire-bg.png;
#PREVIEWVID:;
#JACKET:;
#CDIMAGE:;
#DISCIMAGE:;
#LYRICSPATH:;
#CDTITLE:;
#MUSIC:Sapphire Stardust.mp3;
#OFFSET:-1.780000;
#SAMPLESTART:54.699989;
#SAMPLELENGTH:12.000000;
#SELECTABLE:YES;
#BPMS:0.000=145.000;
#STOPS:;
#DELAYS:;
#WARPS:;
#TIMESIGNATURES:0.000=4=4;
#TICKCOUNTS:0.000=4;
#COMBOS:0.000=1;
#SPEEDS:0.000=1.000=0.000=0;
#SCROLLS:0.000=1.000;
#FAKES:;
#LABELS:0.000=Song Start;
#BGCHANGES:;
#KEYSOUNDS:;
#ATTACKS:
;

//---------------dance-single - ----------------
#NOTEDATA:;
#CHARTNAME:;
#STEPSTYPE:dance-single;
#DESCRIPTION:;
#CHARTSTYLE:;
#DIFFICULTY:Hard;
#METER:7;
#RADARVALUES:0.377114,0.368621,0.152124,0.170021,0.196866,259.000000,17.000000,19.000000,0.000000,0.000000,0.000000,0.000000,0.000000,0.377114,0.368621,0.152124,0.170021,0.196866,259.000000,17.000000,19.000000,0.000000,0.000000,0.000000,0.000000,0.000000;
#CREDIT:;
#NOTES:
0000
0000
0000
0000
,
0000
0000
0000
0000
,
0000
0000
0000
0000
,
0000
0000
0000
0000
,
0001
0000
0000
0100
0000
0000
0001
0000
0000
0000
0200
0000
0000
0000
0000
0000
,
0000
0000
0000
0300
,
0010
0000
0000
1000
0000
0000
0100
0000
0000
0000
1000
0000
0000
0000
1000
0000
,
0000
0001
0000
0020
0000
0000
0030
0000
,
0001
0000
0000
0100
0000
0000
0001
0000
1000
0000
0010
0000
0100
0000
0000
0000
,
0010
1000
0100
0000
1000
0000
0010
1000
,
0001
0000
0000
0100
0000
0000
0010
0000
0000
0000
1000
0000
0010
0000
1000
0000
,
0000
0001
1000
0200
0000
0000
0300
0000
,
1000
0000
0000
0001
0000
0000
0100
0000
0001
0000
0100
0000
0001
0000
0000
0000
,
1000
0010
0100
0000
0010
1000
0010
0100
,
0001
0000
0000
0100
0000
0000
0010
0000
1000
0000
0010
0000
0000
0000
0100
0000
,
0000
0100
0000
0020
0000
0000
0130
0010
,
2002
0000
3003
0000
1000
0000
1000
0100
,
0000
0010
0000
0010
0000
0000
0100
0000
,
2000
0000
0000
0000
3001
0000
0001
1000
,
0000
0010
0000
0010
0000
0000
0100
0000
,
0020
0000
0030
0000
2000
0000
0000
3100
,
0000
2000
0000
0000
3001
0000
1000
0000
,
0010
0000
0010
0000
1000
0000
0000
0001
,
0000
1000
0000
1000
0100
0000
1000
0000
,
0002
0000
0000
0000
0103
0000
0001
1000
,
0000
1000
0000
1000
0000
0000
0100
0000
,
0020
0000
0000
0000
0130
0000
0010
0001
,
0000
0100
0000
0001
0000
0000
0001
0000
,
0020
0000
0000
0000
0031
0000
1000
0100
,
0000
1000
0000
1000
0001
0000
1000
0000
,
0100
0000
0000
0010
0000
0000
0001
0000
0000
0001
0000
0000
1000
0000
0100
0000
,
0020
0030
1001
0110
,
0001
0000
0000
0100
0000
0000
0010
0000
0000
0010
0000
0000
0100
0000
0001
0000
,
1000
0000
0000
0100
0000
0000
0010
0000
0000
0010
0000
0000
0100
0000
0010
0000
,
0001
0000
0000
1000
0000
0000
0010
0000
0000
0010
0000
0000
0100
0000
0010
0000
,
1000
0000
0000
0001
0000
0000
0100
0000
0000
0100
0000
0000
0001
0000
0100
0000
,
0010
0000
0000
1000
0000
0000
0001
0000
0000
0100
0000
0000
0001
0000
1000
0000
,
0010
0000
0000
1000
0000
0000
0100
0000
0000
1000
0000
0000
0100
0000
1000
0000
,
0001
0000
0000
0100
0000
0000
0010
0000
0000
0100
0000
0000
0010
0000
0100
0000
,
1000
0000
0000
0100
0000
0000
0010
0000
0000
1000
0000
0000
0001
0000
1000
0000
,
0100
0000
0000
1000
0000
0000
0010
0000
0000
0010
0000
0000
1000
0000
0010
0000
,
0100
0000
0000
0001
0000
0000
1000
0000
0000
1000
0000
0000
0010
0000
1000
0000
,
0001
0000
0000
0010
0000
0000
0001
0000
0000
0001
0000
0000
0010
0000
0001
0000
,
1000
0000
0000
0100
0000
0000
0010
0000
0000
0010
0000
0000
0100
0000
0010
0000
,
0001
0000
0000
0100
0000
0000
0001
0000
0000
1000
0000
0000
0001
0000
0100
0000
,
0010
0000
0000
1000
0000
0000
0100
0000
0000
1000
0000
0000
0100
0000
1000
0000
,
0001
0000
0000
0100
0000
0000
0010
0000
0000
0100
0000
0000
0001
0000
0100
0000
,
0010
0000
0000
1000
0000
0000
0001
0000
0000
0001
0000
0000
0100
0000
0001
0000
,
0010
1100
0000
1100
,
0000
1001
0000
1100
,
0001
0101
0000
1001
,
0010
1000
0101
0001
,
0010
1100
0100
1001
,
1000
0101
0010
0101
,
1000
1010
0001
1010
,
0100
0001
2020
3030
,
0100
0000
0000
0100
0000
0000
0010
0000
0000
0000
2000
0000
0000
0000
0000
0000
,
0000
0000
3000
0000
,
0100
0000
0000
0100
0000
0000
0010
0000
0000
0000
0001
0000
0000
0000
0001
0000
,
0000
1000
0000
0200
0000
0000
0300
0000
,
0010
0000
0000
0010
0000
0000
0100
0000
0000
0000
2000
0000
0000
0000
0000
0000
,
0000
0000
3000
0000
,
0001
0000
0000
0100
0000
0000
0010
0000
0000
0000
0100
0000
0000
0000
0001
0000
,
0000
1000
0000
0010
0000
0000
0000
0000
;

//---------------dance-single - ----------------
#NOTEDATA:;
#CHARTNAME:;
#STEPSTYPE:dance-single;
#DESCRIPTION:;
#CHARTSTYLE:;
#DIFFICULTY:Medium;
#METER:6;
#RADARVALUES:0.329815,0.343621,0.044742,0.304248,0.026845,219.000000,5.000000,34.000000,0.000000,0.000000,0.000000,0.000000,0.000000,0.329815,0.343621,0.044742,0.304248,0.026845,219.000000,5.000000,34.000000,0.000000,0.000000,0.000000,0.000000,0.000000;
#CREDIT:;
#NOTES:
0000
0000
0000
0000
,
0000
0000
0000
0000
,
0000
0000
0000
0000
,
0000
0000
0000
0000
,
0001
0000
0000
1000
0000
0200
0000
0000
,
0000
0000
0300
0000
,
1000
0000
0000
0010
0000
0010
0000
1000
,
0000
0001
0000
0020
0000
0000
0030
0000
,
0001
0000
0000
0001
0000
0000
0100
0000
0000
0000
0002
0000
0000
0000
0000
0000
,
0000
0010
0000
0013
,
1000
0000
0000
1000
0000
0000
0010
0000
0000
0000
1000
0000
0000
0000
1000
0000
,
0000
0001
0000
0200
0000
0000
0300
0000
,
0010
0000
0000
0010
0000
0000
0100
0000
0000
0000
0002
0000
0000
0000
0000
0000
,
0000
0100
0010
0010
,
1003
0000
0000
1000
0000
0000
0010
0000
0000
0000
1000
0000
0000
0000
0001
0000
,
0000
0001
0000
0202
0000
0000
0303
0000
,
2020
0000
3030
0000
0001
0000
0010
0001
,
0000
1000
0000
0001
0000
0000
0100
0000
,
0020
0000
0030
0000
1000
0000
0010
1000
,
0000
0001
0000
1000
0000
0000
1000
0000
,
0200
0000
0300
0000
2000
0000
0000
3010
,
0000
1000
0000
0000
0001
0000
0100
0000
,
0001
0000
0001
0000
0010
0000
0010
0100
,
0000
0010
0000
0000
0001
0000
1000
0000
,
0202
0000
0303
0000
1000
0000
0001
0100
,
0000
0001
0000
1000
0000
0000
0001
0000
,
0020
0000
0030
0000
0001
0000
0010
1000
,
0000
0010
0000
0002
0000
0000
2003
0000
,
3010
0000
0000
0000
1000
0000
0010
1000
,
0000
0001
0000
0000
0100
0000
0001
0000
,
1000
0100
0010
0001
,
2000
3000
1010
1100
,
0001
0000
0100
0000
0010
0000
1000
0010
,
0100
0000
0001
0000
0010
0000
0100
0010
,
0001
0000
1000
0000
0010
0000
1000
0001
,
0100
0000
0010
0000
1000
0000
0100
1000
,
0001
0000
0100
0000
0001
0000
0010
0001
,
0100
0000
0010
0000
0100
0000
1000
0100
,
0001
0000
1000
0000
0100
0000
0001
0100
,
1000
0000
0010
0000
1000
0010
1000
0001
,
0100
0000
0001
0000
1000
0100
1000
0100
,
0010
0000
0100
0000
1000
0010
1000
0001
,
1000
0000
0001
0000
1000
0100
1000
0100
,
1000
0000
0001
0000
0100
0001
0100
0010
,
0100
0000
0010
0000
0100
0010
0100
0001
,
0100
0000
0001
0000
0010
0001
1000
0001
,
1000
0010
1000
0001
,
0100
0000
0010
1000
0001
0100
0010
1000
,
0002
0010
0000
0010
,
0000
0100
0000
0103
,
2000
0010
0000
0010
,
0000
0001
0020
3030
,
0002
0100
0010
0200
,
0000
0000
0300
0003
,
2000
0100
0100
0010
,
0010
0100
0002
3003
,
0020
0000
0000
0032
0000
0000
0000
0000
,
0000
0000
0000
0000
,
2003
0000
0000
3200
0000
0000
0000
0320
,
0000
0032
0000
0203
0000
0000
0000
0000
,
0310
0000
0000
0010
0000
0000
1000
0000
0000
0000
0200
0000
0000
0000
0000
0000
,
0000
0000
0000
0300
,
1000
0000
0000
0100
0000
0000
1000
0000
0000
0000
0100
0000
0000
0000
0010
0000
,
0000
0001
0000
0200
0000
0000
0000
0000
,
0300
0000
0000
0000
;

//---------------dance-single - ----------------
#NOTEDATA:;
#CHARTNAME:;
#STEPSTYPE:dance-single;
#DESCRIPTION:;
#CHARTSTYLE:;
#DIFFICULTY:Easy;
#METER:3;
#RADARVALUES:0.201980,0.229081,0.008948,0.152124,0.000000,140.000000,1.000000,17.000000,0.000000,0.000000,0.000000,0.000000,0.000000,0.201980,0.229081,0.008948,0.152124,0.000000,140.000000,1.000000,17.000000,0.000000,0.000000,0.000000,0.000000,0.000000;
#CREDIT:;
#NOTES:
// measure 0
0000
0000
0000
0000
,  // measure 1
0000
0000
0000
0000
,  // measure 2
0000
0000
0000
0000
,  // measure 3
0000
0000
0000
0000
,  // measure 4
0001
0001
0000
0200
,  // measure 5
0000
0000
0300
0000
,  // measure 6
1000
1000
0000
0100
,  // measure 7
0000
0020
0000
0030
,  // measure 8
0001
0010
0010
0020
,  // measure 9
0000
0000
0030
0000
,  // measure 10
1000
0100
0100
0000
,  // measure 11
0010
0000
0100
0000
,  // measure 12
1000
0010
0020
0000
,  // measure 13
0030
0000
0010
0000
,  // measure 14
0001
0010
0010
0000
,  // measure 15
0010
0000
0100
0000
,  // measure 16
1001
0000
1000
0000
,  // measure 17
0100
0000
1000
0000
,  // measure 18
0001
0000
0010
0000
,  // measure 19
0001
0000
1000
0000
,  // measure 20
0010
0000
0010
0000
,  // measure 21
1000
0000
0001
0000
,  // measure 22
0010
0000
0100
0000
,  // measure 23
1000
0000
1000
0001
,  // measure 24
1000
0000
0100
0000
,  // measure 25
1000
0000
0010
0000
,  // measure 26
0001
0000
0010
0000
,  // measure 27
0001
0000
0100
0000
,  // measure 28
1000
0000
1000
0000
,  // measure 29
0001
0000
0001
0000
,  // measure 30
0100
0100
0100
0010
,  // measure 31
0020
0000
0000
0030
,  // measure 32
1000
0000
0010
1000
,  // measure 33
0010
0000
1000
0100
,  // measure 34
1000
0000
0010
1000
,  // measure 35
0010
0000
1000
0100
,  // measure 36
1000
0000
0001
0100
,  // measure 37
0001
0000
0010
0001
,  // measure 38
0010
0000
0001
0100
,  // measure 39
0001
0000
0010
0001
,  // measure 40
0010
0000
0100
0010
,  // measure 41
0100
0000
1000
0100
,  // measure 42
1000
0000
0001
0010
,  // measure 43
0001
0000
1000
0001
,  // measure 44
1000
0000
0010
0100
,  // measure 45
0010
0000
1000
0001
,  // measure 46
1000
0000
0010
1000
,  // measure 47
0001
0010
0100
1000
,  // measure 48
0002
0100
0000
0100
,  // measure 49
0000
0100
0000
0100
,  // measure 50
0000
0010
0000
0010
,  // measure 51
0000
0103
0000
0000
,  // measure 52
2000
0010
0000
0010
,  // measure 53
0000
0100
0000
0100
,  // measure 54
0000
0001
0000
0010
,  // measure 55
0010
0010
0020
3030
,  // measure 56
0002
0000
0203
0000
,  // measure 57
0000
0000
0000
0000
,  // measure 58
0320
0000
2030
0000
,  // measure 59
3001
0100
0002
0000
,  // measure 60
2003
0000
3200
0000
,  // measure 61
0000
0000
0000
0000
,  // measure 62
2300
0000
0010
0000
,  // measure 63
0010
0010
0020
0000
,  // measure 64
3030
0000
0000
0000
;
