#VERSION:0.81;
#TITLE:Pokemon Red/Blue;
#SUBTITLE:(AS-13 Dubstep Remix);
#ARTIST:AS-13;
#TITLETRANSLIT:;
#SUBTITLETRANSLIT:;
#ARTISTTRANSLIT:;
#GENRE:;
#ORIGIN:;
#CREDIT:;
#BANNER:pokedubbn.PNG;
#BACKGROUND:pokedub.PNG;
#PREVIEWVID:;
#JACKET:;
#CDIMAGE:;
#DISCIMAGE:;
#LYRICSPATH:;
#CDTITLE:;
#MUSIC:Pokemon RedBlue (Dubstep Remix).mp3;
#OFFSET:-0.060000;
#SAMPLESTART:28.500000;
#SAMPLELENGTH:12.000000;
#SELECTABLE:YES;
#BPMS:0.000=135.000;
#STOPS:60.000=1.350,
155.000=0.450;
#DELAYS:;
#WARPS:;
#TIMESIGNATURES:0.000=4=4;
#TICKCOUNTS:0.000=4;
#COMBOS:0.000=1;
#SPEEDS:0.000=1.000=0.000=0;
#SCROLLS:0.000=1.000;
#FAKES:;
#LABELS:0.000=Song Start;
#BGCHANGES:;
#KEYSOUNDS:;
#ATTACKS:
;

//---------------dance-single - Blank----------------
#NOTEDATA:;
#CHARTNAME:Blank;
#STEPSTYPE:dance-single;
#DESCRIPTION:Blank;
#CHARTSTYLE:;
#DIFFICULTY:Hard;
#METER:9;
#RADARVALUES:0.577033,0.601975,0.477758,0.043433,0.364834,405.000000,55.000000,5.000000,0.000000,0.000000,0.000000,0.000000,0.000000,0.577033,0.601975,0.477758,0.043433,0.364834,405.000000,55.000000,5.000000,0.000000,0.000000,0.000000,0.000000,0.000000;
#CREDIT:Blank;
#NOTES:
0000
0000
0000
0000
,
0000
0000
0000
0000
,
0000
0000
0000
0000
,
0000
0000
0000
0000
,
0000
0000
0000
0000
,
0000
0000
0000
0000
,
0000
0000
0000
0000
,
0000
0000
0000
0000
,
1001
0000
0000
0000
0001
0000
0000
0000
0000
0000
0001
0100
0001
0000
0000
0000
,
0001
0000
0000
0001
0000
0000
1000
0100
1000
0100
1000
0100
,
1000
0000
0000
0000
1000
0000
0000
0000
0000
0000
1000
0100
1000
0000
0000
0000
,
1000
0000
0000
1000
0000
0000
0001
0100
0001
0100
0001
0100
,
0001
0000
0000
0000
0001
0000
0000
0000
0000
0000
0100
0001
0100
0000
0000
0000
,
0001
0000
0000
0001
0000
0000
0100
0001
0100
0001
0100
0001
,
1000
0000
0000
0000
1000
0000
0000
0000
0000
0000
0100
1000
0001
0000
0000
0000
,
0010
0000
1001
0000
0100
0001
0010
0001
,
0100
0000
0010
1000
0100
1000
0020
0000
,
1030
0000
0001
1000
0020
0000
0000
0000
1030
0000
0001
0000
0100
0000
0001
0000
,
1000
0000
0000
0001
0000
0000
1000
0000
0000
0001
0000
0000
0200
0000
0000
0000
0000
0000
0000
0000
0000
0000
0000
0000
0301
0000
0000
0000
0000
0000
0100
0000
0000
0000
0000
0000
0010
0000
0000
0000
0000
0000
0000
0000
1001
0000
0000
0000
,
0000
0000
0110
0000
0000
0000
1001
0000
0000
0000
0000
0000
0100
0000
0000
0010
0000
0000
1000
0000
0000
0001
0000
0000
,
0100
0000
0000
0000
0000
0000
0010
0000
0000
1000
0000
0000
0001
0000
0000
0100
0000
0000
0110
0000
0000
0000
0101
0000
,
0000
0000
1100
0000
0000
0000
1001
0000
0000
0000
0000
0000
0001
0000
0000
0100
0000
0000
0010
0000
0000
0000
1000
0000
,
0000
0000
0100
0000
0000
0000
0010
0000
0000
0001
0000
0000
0100
0000
0000
0000
0000
0000
0010
0000
0000
0100
0000
0000
,
0001
1000
0000
0000
0110
0000
0000
0000
0001
0000
0010
0000
0100
0000
1000
0000
,
0001
0000
1000
0100
0010
0100
1001
0000
,
0001
0100
0010
0100
0001
0000
0000
0000
1000
0000
0100
0000
0010
0000
0100
0000
,
1000
0100
1000
0100
0010
0000
0100
0000
1000
0000
0100
0000
0010
0001
0010
0000
,
0100
0010
0000
0000
1001
0000
0000
0100
0001
0000
0100
0000
0010
0000
1000
0000
,
0010
0000
0000
0100
0000
0000
0101
0000
0000
0000
0000
0000
0010
0000
0000
0100
0000
0000
0001
0000
0000
0000
0100
0000
,
0000
0000
0010
0000
0000
0000
1001
0000
0000
0000
0000
0000
0100
0000
0000
0010
0000
0000
1001
0000
0000
1000
0000
0000
,
0100
0000
0000
0000
0010
0000
0100
0000
1000
0001
0000
0000
0110
0000
1001
0000
,
0000
0100
0000
0000
0101
0000
0000
0000
0010
0000
0100
0000
1001
0000
0000
0000
,
0101
0000
1001
0010
1000
0001
1001
0000
,
0110
0000
1001
1000
0010
1000
1100
0100
,
0010
0000
0100
1000
0010
1000
1001
0000
,
0110
0000
0000
0000
1001
0000
0001
0100
0001
0000
0001
0100
0001
0000
0001
0100
,
0001
0000
0000
0000
0000
0000
0001
0000
0000
0100
0000
0000
0001
0000
0000
0000
0000
0000
0001
0000
0000
0100
0000
0000
0001
0000
0000
0000
0000
0000
0001
0000
0000
0100
0000
0000
0010
0000
0000
0000
0000
0000
0000
0000
0010
0000
0000
0000
,
0000
0000
0000
0000
0010
0000
0000
0000
0000
0000
0000
0000
1001
0000
0000
0000
0000
0000
1000
0000
0000
0100
0000
0000
1000
0000
0000
0000
0000
0000
1000
0000
0000
0100
0000
0000
1000
0000
0000
0000
0000
0000
1000
0000
0000
0100
0000
0000
,
1000
0000
1000
0100
1000
0000
1000
0100
1000
0000
1000
0100
0010
0000
0000
0000
,
1001
0000
0010
1000
0100
0010
0100
0000
,
1000
0000
0100
0000
0010
0000
0100
0000
1001
0000
0000
0001
0100
0000
0010
1000
,
0100
0000
0000
0000
1000
0000
0100
0000
0010
0000
0001
0000
0010
0000
0001
0010
,
0100
0000
0000
0000
1000
0000
0100
0000
0010
0000
0100
0000
1000
0001
0000
0000
,
0110
0000
0000
1000
0010
0000
0100
0000
0001
0000
0100
0000
0010
0000
0100
0000
,
0001
0000
0000
0000
0000
0000
1000
0000
0000
0010
0000
0000
0101
0000
0000
0000
1010
0000
0000
0000
0101
0000
0000
0000
,
1001
0000
0000
0000
0000
0000
1000
0000
0000
0001
0000
0000
0100
0000
0000
0000
0001
0000
0000
0000
1000
0000
0000
0000
,
0100
0000
1000
0000
0100
0000
1000
0000
1010
0000
0010
0000
0100
0010
0000
0000
,
0101
0000
1000
0100
0001
0100
1000
0000
,
0001
0000
0100
0000
0010
0000
1000
0000
1010
0000
0000
0000
0100
0010
1000
0001
,
0100
0000
0001
0000
0010
0000
0000
0000
0100
0000
1000
0000
0100
1000
0100
1000
,
0200
0000
0000
0000
0310
0000
0100
0000
1000
0000
0010
0000
0100
0001
0000
0000
,
0101
0000
1000
0001
0100
0001
1000
0100
,
0020
0000
0000
0000
0000
0000
0130
0000
0000
1000
0000
0000
0010
0000
0000
0000
0100
0000
0000
0000
0001
0000
0000
0000
,
0101
1000
0001
1000
0101
0001
0100
0000
,
0010
0100
0001
1000
0110
0000
0010
0000
,
1001
0100
0010
0000
0101
0000
1001
0000
,
1100
0100
0010
0001
0011
0010
0100
0000
,
1001
0000
0101
0100
0010
0100
0001
0000
,
0101
0000
1001
0000
1000
0100
0010
0000
,
1001
0000
1000
0100
1000
0000
1000
0100
1000
0000
1000
0100
1000
0000
1000
0100
,
1000
0000
0000
0000
0000
0000
1000
0000
0000
0100
0000
0000
1000
0000
0000
0000
0000
0000
1000
0000
0000
0100
0000
0000
0010
0000
0000
0000
0000
0000
0000
0000
0010
0000
0000
0000
0000
0000
0000
0000
0010
0000
0000
0000
0000
0000
0000
0000
,
1001
0000
0001
0100
0001
0000
0001
0100
0001
0000
0001
0100
0001
0000
0001
0100
,
0001
0000
0000
0000
0000
0000
0001
0000
0000
0100
0000
0000
0001
0000
0000
0000
0000
0000
0001
0000
0000
0100
0000
0000
0010
0000
0000
0000
0000
0000
0000
0000
1000
0000
0000
0000
0000
0000
0000
0000
0001
0000
0000
0000
0000
0000
0000
0000
,
0110
0000
0000
0000
;

//---------------dance-single - ----------------
#NOTEDATA:;
#CHARTNAME:;
#STEPSTYPE:dance-single;
#DESCRIPTION:;
#CHARTSTYLE:;
#DIFFICULTY:Medium;
#METER:6;
#RADARVALUES:0.387170,0.410438,0.295341,0.321401,0.060806,241.000000,34.000000,37.000000,0.000000,0.000000,0.000000,0.000000,0.000000,0.387170,0.410438,0.295341,0.321401,0.060806,241.000000,34.000000,37.000000,0.000000,0.000000,0.000000,0.000000,0.000000;
#CREDIT:;
#NOTES:
0000
0000
0000
0000
,
0000
0000
0000
0000
,
0000
0000
0000
0000
,
0000
0000
0000
0000
,
0000
0000
0000
0000
,
0000
0000
0000
0000
,
0000
0000
0000
0000
,
0000
0000
0000
0000
,
1001
0000
0001
0000
0000
0001
0001
0000
,
0001
0001
0100
0010
,
1000
0000
1000
0000
0000
1000
1000
0000
,
1000
1000
0010
0100
,
0001
0000
0010
0000
0000
0001
0010
0000
,
0001
0010
0100
1000
,
0010
0000
1000
0000
0000
0010
2000
0000
,
3100
0000
0101
0000
0010
0000
1000
0010
,
0100
0001
0100
1010
,
0000
0200
0020
0000
0330
0000
1000
0000
,
0001
2000
0200
0000
3300
0000
0101
0000
,
1100
0000
1001
0000
0010
0001
0010
0001
,
0010
0000
0000
0100
0000
0000
1000
0000
0000
0001
0000
1000
,
0000
0200
0000
0020
0000
0000
0330
0000
0000
1001
0000
0001
,
0000
0000
1000
0000
0000
0000
2002
0000
0000
0000
0000
0000
3003
0000
0000
0000
0000
0000
0100
0000
0000
0001
0000
0000
,
1000
0001
1001
0000
0010
1000
0001
0000
,
0100
0000
0101
0000
0000
0010
1000
0000
,
0001
2000
0020
0000
3030
0000
0100
0000
,
0001
2000
0200
0000
3300
0000
1000
0001
,
0100
0000
2020
0000
3030
0100
0010
0000
,
1000
0000
0000
0000
0000
0000
0001
0000
0000
0100
0000
0000
0000
0000
0000
0000
0000
0000
1001
0000
0000
0000
0001
0000
,
0000
0000
0001
0000
0000
0000
0010
0000
0000
0000
0000
0000
0000
0000
0000
0100
0000
0000
2002
0000
0000
0000
0000
0000
,
3003
0000
1000
0001
0100
0000
0110
0000
,
0010
0000
1001
0000
0100
0001
0100
0000
,
0010
0000
1000
0000
0001
0000
0010
0001
,
1000
0000
1001
0000
0010
0100
0001
0000
,
0100
0010
1000
1100
,
0011
1001
0100
0100
,
0100
0100
0100
0010
,
1000
1001
0100
0100
,
0100
0100
0200
0310
,
1001
0000
0001
0000
0010
0100
1000
0000
,
0200
0000
0310
0000
2002
0000
3003
0002
,
0200
0000
0303
0000
1000
0000
0001
0020
,
0200
0000
0330
0000
1000
0100
1000
0000
,
0101
0000
0010
0100
0001
0100
0001
0000
,
1000
0000
0000
0001
0000
0000
0100
0000
0001
0000
2000
0000
,
0020
0000
0000
3030
0000
0000
1000
0000
0001
0000
1000
0000
,
2002
0000
3003
0000
0010
1000
0100
0000
,
1100
0000
0010
0100
1000
0000
0010
0000
,
0202
0000
0303
0100
0001
0000
1000
0001
,
2000
0000
3010
0000
1000
0000
0001
0010
,
0200
0000
0310
0000
0010
0100
1000
0000
,
1001
0001
0200
0310
,
0010
0000
0000
0100
0000
0000
0001
0000
0001
0000
0001
0000
,
0020
0000
0130
1000
,
0100
0010
2002
3003
,
0100
0000
0001
0100
0001
0000
0010
0000
,
0100
1000
0010
0100
,
1001
0000
0010
0001
0010
0000
0100
0000
,
0010
0001
0101
0101
,
1001
0010
0010
0010
,
0010
0010
1000
0100
,
1001
0010
0010
0010
,
0010
0000
0000
0010
0000
0000
0001
0000
1000
0000
0001
0000
,
1001
0000
0000
0000
;

//---------------dance-single - ----------------
#NOTEDATA:;
#CHARTNAME:;
#STEPSTYPE:dance-single;
#DESCRIPTION:;
#CHARTSTYLE:;
#DIFFICULTY:Easy;
#METER:3;
#RADARVALUES:0.187380,0.218900,0.086865,0.078179,0.000000,132.000000,10.000000,9.000000,0.000000,0.000000,0.000000,0.000000,0.000000,0.187380,0.218900,0.086865,0.078179,0.000000,132.000000,10.000000,9.000000,0.000000,0.000000,0.000000,0.000000,0.000000;
#CREDIT:;
#NOTES:
// measure 0
0000
0000
0000
0000
,  // measure 1
0000
0000
0000
0000
,  // measure 2
0000
0000
0000
0000
,  // measure 3
0000
0000
0000
0000
,  // measure 4
0000
0000
0000
0000
,  // measure 5
0000
0000
0000
0000
,  // measure 6
0000
0000
0000
0000
,  // measure 7
0000
0000
0000
0000
,  // measure 8
0001
0001
0000
0000
,  // measure 9
0001
0000
0001
0000
,  // measure 10
1000
1000
0000
0000
,  // measure 11
1000
0000
1000
0000
,  // measure 12
0010
0010
0000
0000
,  // measure 13
0010
0000
0010
0000
,  // measure 14
0100
0100
0000
0000
,  // measure 15
0100
0000
0000
0020
,  // measure 16
0000
0030
0000
1000
,  // measure 17
0010
0100
0000
0001
,  // measure 18
0000
0010
0000
0001
,  // measure 19
1000
1001
0000
0020
,  // measure 20
0000
0030
0000
1000
,  // measure 21
0001
0100
0000
0001
,  // measure 22
0100
0001
0000
0010
,  // measure 23
0000
1001
0000
0200
,  // measure 24
0000
0300
0000
1000
,  // measure 25
0100
0010
0000
0100
,  // measure 26
0000
0010
0000
0001
,  // measure 27
1000
1001
0000
0010
,  // measure 28
0000
1000
0000
0001
,  // measure 29
0100
0010
0000
2002
,  // measure 30
0000
3003
0000
1000
,  // measure 31
0010
0220
0330
0001
,  // measure 32
0001
1000
1000
0001
,  // measure 33
0001
0001
0000
0010
,  // measure 34
0010
0100
0100
0010
,  // measure 35
0010
0010
0000
0100
,  // measure 36
0000
0100
0000
0100
,  // measure 37
0000
0010
0000
0100
,  // measure 38
0000
0100
0000
0100
,  // measure 39
0000
0000
0020
0000
,  // measure 40
0030
0000
0001
1000
,  // measure 41
0010
0000
0100
0000
,  // measure 42
0010
0000
1000
0001
,  // measure 43
1001
0000
0010
0000
,  // measure 44
0001
0000
1000
0100
,  // measure 45
0010
0000
0001
0100
,  // measure 46
0001
0000
1000
0000
,  // measure 47
1001
0000
0010
0000
,  // measure 48
1000
0000
0100
1000
,  // measure 49
0100
0000
0010
0000
,  // measure 50
0001
0000
0010
0100
,  // measure 51
1001
0000
0001
0000
,  // measure 52
0100
0000
0001
1000
,  // measure 53
0100
0000
0020
0000
,  // measure 54
0030
0100
0010
0000
,  // measure 55
1001
0000
0010
0010
,  // measure 56
0100
0100
0010
0010
,  // measure 57
0010
0000
1000
1000
,  // measure 58
0001
0001
1000
1000
,  // measure 59
1000
0000
0010
0000
,  // measure 60
0010
0000
0010
0000
,  // measure 61
0001
0000
0010
0000
,  // measure 62
0010
0000
0010
0000
,  // measure 63
1001
0000
0000
0000
;
