#TITLE:Octopus's Garden;
#SUBTITLE:(AS-13 Remix);
#ARTIST:AS-13 with IA;
#TITLETRANSLIT:;
#SUBTITLETRANSLIT:;
#ARTISTTRANSLIT:;
#GENRE:;
#CREDIT:;
#BANNER:octopusgarden-bn.png;
#BACKGROUND:octopusgarden-bg.png;
#LYRICSPATH:;
#CDTITLE:;
#MUSIC:Octopus's Garden (AS-13 Remix).mp3;
#OFFSET:-0.070000;
#SAMPLESTART:95.404121;
#SAMPLELENGTH:20.279966;
#SELECTABLE:YES;
#BPMS:0.000000=95.000000
;
#STOPS:
;
#BGCHANGES:;
#KEYSOUNDS:;
#ATTACKS:;

//---------------dance-single - ----------------
#NOTES:
     dance-single:
     :
     Easy:
     5:
     0.307451,0.302671,0.129281,0.045629,0.000000,283.000000,266.000000,17.000000,6.000000,0.000000,0.000000,0.307451,0.302671,0.129281,0.045629,0.000000,283.000000,266.000000,17.000000,6.000000,0.000000,0.000000:
0000
0000
0000
0110
,
0000
0000
0000
1001
,
0010
0000
1000
1000
0100
0000
1000
0000
,
0001
0000
1000
1000
0100
0000
0010
0000
,
0001
0001
0010
0000
0001
1000
0010
0000
,
1000
1000
0100
0000
1000
0100
1000
0000
,
1001
0000
0100
0000
0001
0001
0010
0000
,
0001
0100
0001
0000
0100
0001
0010
0000
,
0001
0010
1000
0100
,
0001
1000
1001
0000
0100
0000
0100
0000
,
0001
0000
0100
0100
0020
0000
0030
0000
,
1000
0000
0100
1000
0002
0000
0003
0000
,
1000
1000
0100
0000
0001
0001
0010
0000
,
1000
0000
0010
0000
0100
0001
0100
0001
,
1000
0000
0100
0100
0020
0000
0030
0000
,
0100
0000
1000
0010
0020
0000
0030
0000
,
0100
0000
0010
0000
1000
0100
0000
0100
,
1000
0000
0010
0100
0001
0000
0100
0010
,
1000
0000
1000
0001
1000
0000
1000
0010
,
1000
0000
1000
0100
1000
0000
1000
0001
,
0001
0000
0001
0010
0001
0100
0001
0000
,
1001
0010
0010
0100
,
1001
0000
0001
0100
0010
0000
1001
0000
,
1000
0100
0001
0100
2000
0000
3000
0001
,
0100
0000
0010
0000
0001
0010
1000
0000
,
0001
1000
1001
0000
0100
0000
0100
0000
,
0001
0000
1000
0000
0100
0000
1000
0001
,
0100
0000
0010
0000
1000
0000
0010
0100
,
0001
0100
0001
0000
1000
0100
1000
0100
,
0010
0000
1001
0000
0001
0010
0001
0010
,
0100
0100
0100
0100
,
1001
0001
0100
0000
0001
1000
0010
0000
,
1000
0000
0010
0000
1000
0100
0010
0001
,
0010
0000
0100
0000
1000
0001
1000
0000
,
1010
0000
0001
0100
0001
0000
0001
1000
,
0010
0000
0010
1000
0001
1000
0001
1000
,
0010
0000
1000
0010
1000
0000
1000
0100
,
1000
0100
0010
0000
0110
0000
0002
0000
,
1003
0100
0001
0100
1000
0000
1001
0000
,
0001
0100
0010
0100
0001
0000
1000
0001
,
0100
0001
0100
0001
0100
1000
0100
1000
,
0100
0000
0010
0000
1000
0010
1000
0000
,
1100
0000
0001
1000
0100
0000
1000
0001
,
0100
0000
0001
0000
1000
0010
1000
0000
,
0011
0000
0001
0010
0100
1000
0100
0000
,
0010
0100
0010
0000
0001
1000
1001
0000
,
0010
0000
1000
0000
0001
0000
1000
0001
,
0100
0001
0100
0000
0010
1000
0001
1000
,
0100
0100
0100
0100
,
1000
0100
1000
0001
1000
0100
1001
0000
;

//---------------dance-single - ----------------
#NOTES:
     dance-single:
     :
     Medium:
     7:
     0.404140,0.397255,0.205329,0.007605,0.022814,372.000000,345.000000,27.000000,1.000000,0.000000,0.000000,0.404140,0.397255,0.205329,0.007605,0.022814,372.000000,345.000000,27.000000,1.000000,0.000000,0.000000:
0000
0000
0000
1001
,
0000
0000
0000
0110
,
0001
0001
0010
0010
0001
0001
1000
0001
,
0100
0100
0001
0001
1000
1000
0010
1000
,
0100
0100
0010
0010
0001
0010
0001
1000
,
0010
0010
0100
0100
0010
1000
0010
1000
,
0001
0001
1000
1000
0100
0100
1000
0001
,
0100
0100
0001
0001
1000
1000
0010
1000
,
0001
0010
0001
0010
1000
0010
0001
1000
,
0100
1001
1001
0000
0010
0100
1000
1001
,
0000
0001
0100
0001
0100
0000
1000
0100
,
0001
0100
0010
1000
1000
0000
0000
0010
,
1000
0001
0001
0010
0001
0100
0100
1000
,
0100
0000
0001
0000
0001
0100
0010
0100
,
1001
0001
0010
0001
1000
0000
0011
0000
,
0100
0010
0001
0010
0001
0000
0000
1001
,
1000
1000
0001
0100
0001
0001
0010
0100
,
1000
0000
0010
0000
1000
0010
0100
0001
,
1000
1000
0100
0100
1000
1000
0100
0100
,
0001
0001
0100
0100
0001
0001
0100
0100
,
1000
1000
0010
0010
0001
0001
0100
0100
,
1001
1001
0110
0110
0000
0000
0001
1000
,
0100
1000
0010
0001
0010
0000
1000
0010
,
0001
0100
1000
0100
0010
0000
0001
1000
,
0010
0100
0001
0010
1000
0001
0100
1000
,
0010
0000
0000
0100
0000
0000
1001
0000
0000
0000
0000
0001
0000
0000
1000
0000
0000
0000
1001
0000
0000
1001
0000
0000
,
0000
0001
0100
0001
0100
0000
0010
0010
,
1000
0100
0010
0100
0001
0000
0000
0001
,
0100
1000
0100
0010
0001
0100
0010
0100
,
1000
0100
0001
0000
1000
1010
0010
1000
,
0100
0000
0100
0000
0100
0000
0100
0010
,
1001
0010
0001
1000
0010
0000
1000
0010
,
0100
0001
1000
1000
0001
1000
0100
0001
,
0100
1000
0010
0000
0100
0010
1000
0001
,
0100
0100
0001
0001
0100
0100
0010
0010
,
0100
0100
1000
1000
0100
0100
0001
0001
,
1000
1000
0001
0001
0010
0010
0001
0001
,
1001
1010
1001
0000
0001
0000
1000
0000
,
0100
0001
0100
0001
0100
1000
0100
0010
,
0001
0010
0001
1000
0010
1000
0001
0010
,
0100
0001
0100
1000
0010
0001
0100
1000
,
0001
0100
0010
1000
0010
0100
0001
1000
,
0101
0010
1000
0010
0100
0001
0010
0001
,
1000
0010
1000
0100
0010
0001
0100
0001
,
1000
0100
0001
0010
1000
0001
0010
0001
,
0100
0000
0000
0010
0000
0000
1001
0000
0000
0000
0000
0010
0000
0000
0100
0000
0000
0000
1001
0000
0000
0000
0000
0000
,
1000
0100
1000
0001
0100
0000
0001
1000
,
0010
1000
0010
0000
1000
0001
0010
0002
,
0100
0100
1000
0103
,
0001
0000
0000
0101
0000
0000
1001
0000
0000
0000
0000
1000
0000
0000
1010
0000
0000
0000
0101
0000
0000
0000
0000
0000
;

//---------------dance-single - ----------------
#NOTES:
     dance-single:
     :
     Hard:
     8:
     0.443251,0.397255,0.288982,0.129281,0.163503,408.000000,370.000000,38.000000,17.000000,0.000000,0.000000,0.443251,0.397255,0.288982,0.129281,0.163503,408.000000,370.000000,38.000000,17.000000,0.000000,0.000000:
0000
0000
0000
1001
,
0000
0000
0000
0000
0000
0000
0000
0000
0000
0000
0000
0000
0000
0000
0010
0000
0000
0000
1001
0000
0000
0110
0000
0000
,
1000
0000
0000
0010
0000
0000
0100
0000
0000
0010
0000
0000
1000
0000
0000
0010
0000
0000
0100
0000
0001
0100
0000
0000
,
0010
0000
0000
1000
0000
0000
0100
0000
0000
0010
0000
0000
0100
0000
0000
0001
0000
0000
1000
0000
0010
1000
0000
0000
,
0001
0100
1000
0010
1000
0001
0100
0010
,
0001
0010
1000
0010
0001
0100
1000
0010
,
1001
0000
0000
0100
0000
0000
0001
0000
0000
1000
0000
0000
0001
0000
0000
0100
0000
0000
0001
0000
0010
0001
0000
0000
,
1000
0000
0000
0010
0000
0000
1000
0000
0000
0100
0000
0000
0010
0000
0000
0100
0000
0000
1000
0000
0010
1000
0000
0000
,
0100
0001
0100
1000
0010
0100
1000
0100
,
0001
0000
0000
0101
0000
0000
1001
0000
0000
0000
1000
0000
0000
1000
0000
0000
1000
0000
0100
0000
0000
0100
0000
0000
,
0010
0000
0000
0001
0000
0000
0100
0000
0000
0001
0000
2000
0000
0000
0000
0000
0000
0000
0010
0000
0000
3010
0000
0000
,
1000
0000
0000
0010
0000
0000
0100
0000
0001
0000
0000
0001
0000
0000
0000
0000
0000
0000
0101
0000
0000
1000
0000
0000
,
0100
0000
0000
0001
0000
0000
0100
0000
0000
0010
0000
0000
0001
0000
0000
0010
0000
0000
0100
0000
1000
0000
0000
1010
,
0000
0010
0010
0000
1000
0010
0100
0001
,
1010
0000
0000
1000
0000
0000
0100
0000
1000
0000
0000
0010
0000
0000
0000
0010
0000
0000
1000
0000
0000
0000
0000
0000
,
0100
0010
1001
0001
0100
0000
0010
1001
,
0100
0001
0100
1000
0001
0010
1000
0001
,
0010
1000
0110
0000
1000
0010
0100
0010
,
1000
2000
0100
0100
3001
0002
0010
0010
,
1003
2000
0010
0010
3001
0002
0100
0100
,
2003
0100
3002
0100
2003
0010
3002
0013
,
1001
0000
0000
1001
0000
0000
0110
0000
0000
1001
0000
0000
0010
0000
0000
0000
0000
0010
0000
0000
0000
0100
0000
0000
,
1000
0000
0000
0100
0000
0000
1001
0000
0000
0100
0000
0001
0000
0000
0000
0001
0000
0000
0010
0000
0000
0000
0000
0000
,
0001
0000
0000
0010
0000
0000
1001
0000
0010
0000
0000
1000
0000
0000
0000
1000
0000
0000
0100
0000
0000
0000
0000
0000
,
1000
0010
1001
0010
0001
0100
1001
0100
,
1000
0000
0000
1001
0000
0000
0110
0000
0000
0000
0000
0001
0000
0000
1000
0000
0000
0000
1000
0000
0000
0001
0000
0000
,
1100
0001
0100
0001
0010
0000
0010
0001
,
0100
0000
0000
0001
0000
1000
0000
0000
0000
1000
0000
0100
0000
0000
0000
1000
0000
0000
0010
0000
0000
1000
0000
0000
,
0100
0001
0100
1000
0010
0001
0010
1000
,
0100
0000
0000
0010
0000
0000
1001
0000
0000
0000
0000
0000
0001
0000
0000
0010
0000
0000
0001
0000
0100
0000
0000
0100
,
0010
0000
0010
0000
0010
0000
0010
1001
,
0100
0000
0000
0010
0000
0000
1000
0000
0000
0010
0000
1000
0000
0000
0000
0010
0000
0000
0001
0000
0000
0010
0000
0000
,
1000
0001
0010
1000
0010
0001
1000
0100
,
0001
0000
0000
0100
0000
0000
1000
0000
0000
0000
0000
0001
0000
0000
0001
0000
0000
0100
0001
0000
0000
0100
0000
0000
,
0010
0020
1000
1000
0130
0200
0010
0010
,
0301
0002
0010
0010
1003
2000
0010
0010
,
3002
0010
1000
0100
2003
0100
0001
3010
,
1001
0000
0000
0110
0000
0000
1001
0000
0000
0000
0000
0010
0000
0000
0100
0000
0000
0010
0100
0000
0000
0010
0000
0000
,
0001
0000
0000
0010
0000
0000
1001
0000
0000
0100
0000
0001
0000
0000
0000
0001
0000
0000
0010
0000
0000
0000
0000
0000
,
0100
0000
0000
1000
0000
0000
1001
0000
0010
0000
0000
1000
0000
0000
0000
1000
0000
0000
0100
0000
0000
0000
0000
0000
,
0010
0001
0101
0010
1000
0100
1100
0010
,
1000
0100
0001
0000
0100
0100
0010
0010
,
1001
0000
0000
1000
0000
0000
0100
0000
0000
0010
0000
0001
0000
0000
0000
0010
0000
0000
1000
0000
0000
0000
0000
0000
,
0100
0000
0000
0001
0000
0000
0100
0000
1000
0000
0000
0100
0000
0000
0000
0001
0000
0000
0010
0000
0000
0001
0000
0000
,
1000
0010
1100
0010
0001
0010
0101
0001
,
1000
0000
0000
0010
0000
0000
0100
0000
0000
0000
0000
0001
0000
0000
0001
0000
0000
0000
0100
0000
0000
0010
0000
0000
,
1000
1000
0100
0010
0001
0001
0010
0100
,
1000
0010
0010
1000
0020
0100
1030
0002
,
0100
0000
0100
0000
0100
0000
0103
0010
,
0100
0000
0000
1001
0000
0000
1001
0000
0000
0010
0000
0100
0000
0000
1001
0000
0000
0100
0010
0000
0000
0000
0000
0000
;

//---------------dance-single - ----------------
#NOTES:
     dance-single:
     :
     Beginner:
     1:
     0.139059,0.151335,0.068443,0.007605,0.000000,128.000000,119.000000,9.000000,1.000000,0.000000,0.000000,0.139059,0.151335,0.068443,0.007605,0.000000,128.000000,119.000000,9.000000,1.000000,0.000000,0.000000:
// measure 0
0000
0000
0000
1001
,  // measure 1
0000
0000
0000
1001
,  // measure 2
0001
0000
1000
0000
,  // measure 3
0100
0000
1000
0000
,  // measure 4
0010
0000
1000
0000
,  // measure 5
0001
0000
0100
0000
,  // measure 6
1001
0000
1000
0000
,  // measure 7
0100
0000
0010
0000
,  // measure 8
0001
0000
0100
0000
,  // measure 9
1001
0000
0001
1000
,  // measure 10
0001
0001
0001
0000
,  // measure 11
0100
0100
0100
0000
,  // measure 12
1000
0000
0100
0000
,  // measure 13
0001
0010
0010
0000
,  // measure 14
1000
0000
0010
0000
,  // measure 15
0001
0001
0010
0000
,  // measure 16
0100
0000
1000
0000
,  // measure 17
1000
1000
0100
0000
,  // measure 18
0110
0000
0001
0000
,  // measure 19
1000
1000
0001
0000
,  // measure 20
1000
0000
0010
0000
,  // measure 21
1001
0000
0000
0001
,  // measure 22
0001
0000
0000
0100
,  // measure 23
0100
0000
0000
0010
,  // measure 24
0010
0000
0100
0100
,  // measure 25
0020
0000
0030
0000
,  // measure 26
1001
0000
1000
1000
,  // measure 27
1000
0000
0010
0010
,  // measure 28
0010
0000
1000
0000
,  // measure 29
0001
0001
1000
0000
,  // measure 30
0100
0100
0100
0100
,  // measure 31
0100
0000
1000
0000
,  // measure 32
0001
0000
0100
0000
,  // measure 33
0100
0001
0010
0000
,  // measure 34
1001
0000
1000
0000
,  // measure 35
0001
0000
1000
0000
,  // measure 36
0010
0000
1000
0000
,  // measure 37
0001
1000
0000
0001
,  // measure 38
0100
0000
0000
0001
,  // measure 39
0010
0000
0000
1000
,  // measure 40
0010
0000
1000
1000
,  // measure 41
0100
0000
0000
0001
,  // measure 42
0010
0000
0000
1000
,  // measure 43
0100
0000
0000
0001
,  // measure 44
0100
0000
0010
0010
,  // measure 45
1000
0000
0010
0100
,  // measure 46
0010
0000
0100
0000
,  // measure 47
0001
0001
1000
1000
,  // measure 48
0010
0000
0100
0000
,  // measure 49
0001
1000
0001
1001
;
