#VERSION:0.82;
#TITLE:Nausicaa's Theme;
#SUBTITLE:;
#ARTIST:AS-13;
#TITLETRANSLIT:;
#SUBTITLETRANSLIT:;
#ARTISTTRANSLIT:;
#GENRE:;
#ORIGIN:;
#CREDIT:;
#BANNER:nausicaastheme-bn.png;
#BACKGROUND:nausicaastheme-bg.png;
#PREVIEWVID:;
#JACKET:;
#CDIMAGE:;
#DISCIMAGE:;
#LYRICSPATH:;
#CDTITLE:;
#MUSIC:Nausicaa's Theme (AS-13 Remix).mp3;
#OFFSET:-0.080000;
#SAMPLESTART:73.059792;
#SAMPLELENGTH:12.000000;
#SELECTABLE:YES;
#BPMS:0.000=115.000;
#STOPS:;
#DELAYS:;
#WARPS:;
#TIMESIGNATURES:0.000=4=4;
#TICKCOUNTS:0.000=4;
#COMBOS:0.000=1;
#SPEEDS:0.000=1.000=0.000=0;
#SCROLLS:0.000=1.000;
#FAKES:;
#LABELS:0.000=Song Start;
#BGCHANGES:;
#KEYSOUNDS:;
#ATTACKS:
;

//---------------dance-single - ----------------
#NOTEDATA:;
#CHARTNAME:;
#STEPSTYPE:dance-single;
#DESCRIPTION:;
#CHARTSTYLE:;
#DIFFICULTY:Hard;
#METER:8;
#RADARVALUES:0.480612,0.405579,0.256400,0.085467,0.205897,389.000000,33.000000,11.000000,0.000000,0.000000,0.000000,0.000000,0.000000,0.480612,0.405579,0.256400,0.085467,0.205897,389.000000,33.000000,11.000000,0.000000,0.000000,0.000000,0.000000,0.000000;
#CREDIT:;
#NOTES:
// measure 0
0000
0000
0000
0000
,  // measure 1
0000
0000
0000
0000
,  // measure 2
0000
0000
0000
0000
,  // measure 3
0000
0000
0000
0000
,  // measure 4
0100
0010
2002
0000
3003
0001
0000
0100
,  // measure 5
0010
0100
0002
0000
0003
0010
0100
0000
,  // measure 6
1000
1000
1100
0000
0001
0100
0001
1000
,  // measure 7
0010
0010
2002
0000
3003
0100
0010
0100
,  // measure 8
0001
0100
2000
0000
3100
0001
0000
0001
,  // measure 9
0010
0001
0200
0000
0300
0010
1000
0100
,  // measure 10
1100
0000
0000
0000
1100
0000
0000
0001
0000
0000
0101
0000
0100
0000
0001
0000
,  // measure 11
1000
0000
1001
0000
0000
0010
0000
1001
,  // measure 12
1000
0100
1000
0100
0010
0000
0000
0000
0100
0000
0010
0000
0000
0000
1001
0000
,  // measure 13
0001
0100
2000
0000
3100
0001
0010
0001
,  // measure 14
0100
0000
0000
0000
0101
0000
0000
0010
0000
0000
1000
0000
0100
0000
1000
0000
,  // measure 15
0010
0000
0100
0001
0100
0000
0110
0000
0000
0000
1000
0000
0001
0000
1001
0000
,  // measure 16
0010
0001
0100
0000
0001
0101
0000
1000
,  // measure 17
0100
0000
1000
0100
0010
0000
0000
0000
0001
0000
0001
0000
0100
0000
0010
0000
,  // measure 18
1000
0000
0000
0000
1010
0000
0000
1001
0000
0000
0100
0000
1000
0000
0001
1000
,  // measure 19
0100
0000
1000
0000
0101
0000
0000
0000
0000
0010
1000
0000
0001
0000
0100
0000
,  // measure 20
0001
0100
0001
0100
0001
0000
0000
0000
0010
0000
0001
0000
0101
0000
0000
0000
,  // measure 21
0100
0000
0000
0100
0010
0000
0000
1001
0000
0000
0010
0000
0100
0000
0001
0000
,  // measure 22
1000
0100
0000
1000
0200
0000
0000
0000
0300
0000
0010
0000
1001
0000
0001
0000
,  // measure 23
0010
0000
0000
0001
0100
0000
0000
0010
0000
0000
0010
0000
0100
0000
0001
0100
,  // measure 24
0001
0000
0010
0000
1001
0000
0100
0000
0000
0000
1000
0100
1000
0000
0100
0000
,  // measure 25
0010
0000
1001
0000
0001
0100
1000
0100
,  // measure 26
0002
0000
0010
0000
0013
0001
0010
0001
,  // measure 27
0100
0000
0001
0100
0010
0000
0000
0100
0001
0100
0000
0000
0010
0000
0100
0000
,  // measure 28
0001
0100
0010
0000
0100
0000
0001
0000
0100
0000
0010
0000
1000
0000
0010
0000
,  // measure 29
1000
0100
1000
0000
0001
0000
0010
0000
1000
0000
0010
0000
0001
0000
0100
0000
,  // measure 30
0010
0000
0000
0010
1000
0000
0100
0000
0010
0000
0000
1001
0000
0000
0001
0000
,  // measure 31
0100
0000
0000
0100
0001
0000
0010
0000
0100
0000
1000
0000
0100
0000
0010
0000
,  // measure 32
0001
0000
0100
0001
0000
0100
0001
0000
1000
0000
0000
0100
1000
0000
0010
0000
,  // measure 33
0001
0010
0001
0010
0001
1000
0100
0001
,  // measure 34
0010
0001
0010
0001
0010
0001
1100
0000
,  // measure 35
0001
0000
0010
0000
0100
0000
0000
1000
0000
0000
0100
0000
0010
0000
0001
0000
,  // measure 36
0100
0000
0001
0000
0010
0000
0000
1000
0000
0000
0010
0000
0001
0000
0010
0000
,  // measure 37
0100
1000
0010
0000
1000
0100
1000
0010
,  // measure 38
0101
0000
0000
1000
0100
0000
0010
0000
0100
0000
1000
0000
0010
0000
0000
0000
,  // measure 39
1001
0000
0001
0000
0100
0000
0000
0010
0100
0000
0001
0000
0010
0000
0100
0000
,  // measure 40
0001
0100
2000
0000
3010
1000
0001
0100
,  // measure 41
0010
0100
0001
0100
0000
1000
0100
0010
,  // measure 42
0100
0000
0001
0000
0100
0000
0010
0000
0000
1000
0100
0000
1001
0000
0000
0000
,  // measure 43
0001
0010
0001
0010
0001
0000
0000
1000
0000
0000
0100
0000
0010
0000
0100
0000
,  // measure 44
1000
0000
0000
1000
0010
0000
0000
0101
0000
0000
0001
0000
0010
0000
0100
0000
,  // measure 45
1000
0100
0000
1000
0010
0000
0100
0000
0000
0000
0100
0000
0010
0000
0000
0000
,  // measure 46
1000
0100
0010
0100
0000
1001
0010
0000
,  // measure 47
0001
0000
0100
0001
1000
0000
0000
0010
0000
0000
1000
0000
0100
0000
1000
0000
,  // measure 48
0010
0000
0100
0000
1001
0000
0000
0000
0001
0100
0000
0010
1000
0000
0000
0000
,  // measure 49
0001
0000
0010
0000
0001
0000
0000
0100
0000
0000
0001
0000
0010
0000
0100
0000
,  // measure 50
1000
0000
0100
1000
0100
0000
0010
0000
0000
1001
0000
0000
0110
0000
0000
0000
,  // measure 51
0001
0100
0010
1000
0010
0100
0001
0000
,  // measure 52
1000
0100
0010
0000
0001
0000
0010
0000
0100
0000
0000
0000
1000
0000
0100
0000
,  // measure 53
0010
0001
0100
1000
0100
0001
0010
0100
,  // measure 54
0001
0000
0000
0001
0100
0000
1000
0000
0010
0000
0100
0000
0001
0000
1000
0000
,  // measure 55
0100
0010
0000
1001
0001
0100
0010
0100
,  // measure 56
1000
0100
1000
0100
1000
0010
0100
1000
,  // measure 57
0010
0000
1000
0000
0010
0000
1000
0000
0001
0100
0000
0010
1000
0000
0100
0000
,  // measure 58
0110
0000
0000
0000
;

//---------------dance-single - ----------------
#NOTEDATA:;
#CHARTNAME:;
#STEPSTYPE:dance-single;
#DESCRIPTION:;
#CHARTSTYLE:;
#DIFFICULTY:Medium;
#METER:6;
#RADARVALUES:0.344087,0.292918,0.139855,0.271940,0.000000,257.000000,18.000000,35.000000,0.000000,0.000000,0.000000,0.000000,0.000000,0.344087,0.292918,0.139855,0.271940,0.000000,257.000000,18.000000,35.000000,0.000000,0.000000,0.000000,0.000000,0.000000;
#CREDIT:;
#NOTES:
0000
0000
0000
0000
,
0000
0000
0000
0000
,
0000
0000
0000
0000
,
0000
0000
0000
0000
,
0001
0100
0002
0000
0000
0000
0003
0010
,
0001
0100
0002
0000
0000
0000
1003
0000
,
0100
0000
0010
0000
0001
0000
1000
0100
,
0020
0000
0000
0000
0000
0000
0030
0100
,
1000
0100
2000
0000
0000
0000
3000
0010
,
1000
0100
2000
0000
0000
3000
0001
0100
,
0020
0000
0130
0000
0100
0001
0100
0001
,
0100
0010
1000
0001
,
1001
0100
0020
0000
1000
0000
1030
0000
,
0001
0100
0002
0000
0100
0000
0103
0000
,
0010
0000
1000
0000
0001
0001
1000
0100
,
1000
0000
2200
0000
3300
1000
0000
0001
,
0010
0001
0200
0000
0001
0000
0301
0000
,
1000
0100
0020
0000
0130
0000
0010
0001
,
0100
0000
0001
0000
1000
0100
0010
0100
,
0020
0100
0000
0130
,
1001
0000
0001
0000
0100
0000
1000
0100
,
0002
0000
0103
0000
0010
0000
1000
0001
,
0020
0000
0100
0000
0000
0130
1000
0001
,
0010
0000
1002
0000
0000
0103
0001
0000
,
0010
0000
1001
0000
0100
1000
0010
1000
,
0020
0000
0130
0000
0001
0000
1000
0100
,
0020
0000
0230
2300
,
3002
0000
0003
0000
0100
0010
1000
0001
,
0100
0000
0010
1000
0100
0000
0010
0000
,
0001
0000
0010
0001
0010
0000
0100
0000
,
1000
0101
0010
0101
,
1000
0100
1000
0100
0020
0000
0130
0000
,
1001
0001
0010
0100
,
2000
0100
0100
0100
,
3002
0010
0103
1001
,
1000
0010
0200
0000
0301
0000
0100
0000
,
0010
0100
0002
0000
1003
0000
0001
0100
,
0001
0000
0100
0000
0010
0000
1000
0100
,
0020
0100
1000
0031
,
0100
0001
0010
0000
0001
0100
0001
0000
,
1000
0000
1001
0000
0001
0100
0001
0000
,
1000
0000
0100
0000
0010
0000
0001
0010
,
0002
1003
0110
1001
,
1000
0100
2000
0000
0000
3010
0000
0010
,
1000
0000
1100
0000
0000
0100
1000
0100
,
0010
0000
0100
0000
0000
1000
0100
1000
,
0002
0100
1003
0010
,
0101
0000
0001
0000
0100
0000
0010
1000
,
0200
0000
0000
0300
0010
0000
0001
0100
,
0010
0000
1000
0000
0001
0100
0010
0000
,
1000
0000
1001
0000
0001
0010
0100
1000
,
0001
0000
0100
0010
1000
0000
0100
0000
,
0010
0000
0001
0100
0001
0000
1000
0100
,
2000
0100
3002
0010
,
1003
0000
1100
0000
0100
1000
0100
0000
,
0010
0000
0001
1000
0001
0000
0200
0000
,
0010
0010
0010
0320
,
1000
1000
0130
0101
,
1010
0000
0000
0000
;

//---------------dance-single - ----------------
#NOTEDATA:;
#CHARTNAME:;
#STEPSTYPE:dance-single;
#DESCRIPTION:;
#CHARTSTYLE:;
#DIFFICULTY:Easy;
#METER:3;
#RADARVALUES:0.187583,0.180257,0.031079,0.186473,0.000000,141.000000,4.000000,24.000000,0.000000,0.000000,0.000000,0.000000,0.000000,0.187583,0.180257,0.031079,0.186473,0.000000,141.000000,4.000000,24.000000,0.000000,0.000000,0.000000,0.000000,0.000000;
#CREDIT:;
#NOTES:
0000
0000
0000
0000
,
0000
0000
0000
0000
,
0000
0000
0000
0000
,
0000
0000
0000
0000
,
0001
0002
0000
0003
,
0010
0020
0000
0030
,
0100
0000
1000
0100
,
0020
0000
0000
0030
,
0100
0200
0000
0300
,
1000
2000
3000
0010
,
0200
0000
0001
0001
,
0002
0000
0303
0000
,
1000
0200
0300
0100
,
0001
0200
0300
0100
,
1000
0000
0010
0010
,
0020
0000
0000
0030
,
1000
0020
0030
0010
,
0001
0020
0030
0010
,
0100
0000
1000
0100
,
1000
0000
0000
0000
,
1001
0000
0010
1000
,
0100
0000
1000
1000
,
0002
0003
0001
0100
,
0020
0000
0030
0000
,
1000
0000
0010
0010
,
1000
0000
0001
0000
,
0100
0100
0010
1000
,
0002
0000
0000
0003
,
1000
0100
1000
0000
,
0001
0100
0001
0000
,
1000
0000
0010
0000
,
1000
0100
0010
0000
,
1001
0000
0100
0010
,
0220
0000
0000
0330
,
0001
1000
0100
0010
,
0001
0100
0000
0100
,
0010
1000
0000
1000
,
0100
0000
0100
1000
,
0020
0000
0030
0010
,
1000
0100
0000
0100
,
0010
0001
0000
0001
,
0100
0010
0100
0010
,
2000
0000
0000
3000
,
0010
0010
0010
0100
,
0002
0003
0001
1000
,
2000
3000
0100
1000
,
0020
0000
0030
0000
,
1000
0000
0001
0000
,
0100
0000
0100
0001
,
0010
0000
0010
0100
,
1000
0000
0001
1000
,
0010
1000
0010
0000
,
1000
0001
1000
0000
,
0001
0000
0100
0000
,
0010
0100
0001
0000
,
1000
0000
0001
0100
,
0020
0000
1030
0001
,
0200
0000
0310
0100
,
1001
0000
0000
0000
;
