#TITLE:Midna's Lament;
#SUBTITLE:(AS-13 Dubstep Remix);
#ARTIST:AS-13;
#TITLETRANSLIT:;
#SUBTITLETRANSLIT:;
#ARTISTTRANSLIT:;
#GENRE:;
#CREDIT:;
#BANNER:midnaslament-bn.png;
#BACKGROUND:midnaslament-bg.png;
#LYRICSPATH:;
#CDTITLE:;
#MUSIC:Midna's Lament (AS-13 Dubstep Remix).mp3;
#OFFSET:-5.420000;
#SAMPLESTART:50.725616;
#SAMPLELENGTH:12.000000;
#SELECTABLE:YES;
#BPMS:0.000000=90.000000
,48.000000=45.000000
,55.875000=90.000000
,168.000000=45.000000
;
#STOPS:55.875000=2.760000
;
#BGCHANGES:;
#KEYSOUNDS:;
#ATTACKS:;

//---------------dance-single - ----------------
#NOTES:
     dance-single:
     :
     Hard:
     10:
     0.509513,0.523100,0.360262,0.072052,0.569214,435.000000,50.000000,10.000000,0.000000,0.000000,0.000000,0.509513,0.523100,0.360262,0.072052,0.569214,435.000000,50.000000,10.000000,0.000000,0.000000,0.000000:
// measure 0
0200
0000
0300
0010
0202
0303
0100
0001
,  // measure 1
1100
0000
0010
0010
0100
0000
0010
0100
,  // measure 2
2100
0000
0000
0000
3010
0000
0000
0000
0010
0000
0000
1000
0000
0000
0100
0000
,  // measure 3
2100
0000
0000
0000
3010
0000
0000
0000
0100
0000
0000
0001
0000
0000
0010
0000
,  // measure 4
0100
0000
0000
0100
1000
0000
0100
0000
0010
0000
0010
0000
0100
0000
0000
0000
,  // measure 5
1000
1000
0010
0100
0000
0001
0201
0000
,  // measure 6
0310
0100
1001
0000
0000
0010
1000
0001
,  // measure 7
0110
0000
1001
0000
0000
0000
0000
0000
0000
0000
0000
1000
0000
0100
1000
0000
,  // measure 8
0010
0000
0000
0100
0001
0000
0100
0000
0001
0000
0100
0000
0010
0000
0000
0000
,  // measure 9
1000
0000
0100
0000
0000
0010
0000
0000
0001
0000
0100
0000
0000
0010
0000
0000
,  // measure 10
1000
0000
1000
0000
0000
0000
0000
0000
0000
0000
0010
0000
1000
0000
0000
0002
,  // measure 11
0000
0000
0000
0003
0110
0000
1001
0000
,  // measure 12
0100
0000
0100
0000
,  // measure 13
0010
0000
0010
0000
1000
1000
0001
0100
,  // measure 14
1100
0000
0000
0001
0100
0000
1001
0000
1100
0000
0000
0010
0100
0000
1001
0000
,  // measure 15
0010
1000
0010
0000
0100
1000
0000
1000
0100
0000
0010
0000
1000
0001
0000
1000
,  // measure 16
0001
0100
0001
0100
0001
0000
0100
0000
0010
0000
1000
0000
0010
0000
1000
0000
0100
0000
1000
0000
0100
0000
1000
0000
0010
0000
0100
0000
0001
0000
0000
0000
,  // measure 17
1000
0100
1000
0000
0000
0000
0100
0000
0010
0000
0001
0000
0010
0000
0001
0000
0100
0000
0001
0000
0100
0000
0001
0000
0110
0000
1000
0000
0010
0000
0000
0000
,  // measure 18
1001
0000
0000
0100
0001
0000
0110
0000
1000
0010
0000
0100
0001
0100
0010
0000
,  // measure 19
0101
0000
1000
0001
1000
0100
0000
1000
0010
0000
0100
0000
1000
0100
0000
0001
,  // measure 20
1000
0100
1000
0100
1000
0000
0100
0000
0010
0000
0001
0000
0010
0000
0001
0000
0100
0000
0001
0000
0100
0000
0001
0000
0010
0000
0100
0000
1000
0000
0000
0000
,  // measure 21
0010
0100
0010
0000
0000
0000
0100
0000
0010
0000
1000
0000
0010
0000
1000
0000
0100
0000
1000
0000
0100
0000
1000
0000
0110
0000
0001
0000
0010
0000
0000
0000
,  // measure 22
1100
0000
0101
0000
1000
0100
1000
0000
0010
0000
0101
0000
1000
0101
0000
0010
,  // measure 23
0100
0000
1001
0000
0000
0010
0000
1000
0001
0000
0110
0000
0000
1001
0000
0100
,  // measure 24
0010
0000
1001
0000
0000
0000
1000
0000
0100
0000
0010
0100
1000
0001
0000
1000
,  // measure 25
0010
0000
0100
0001
0010
0000
1100
0000
1001
0010
0100
0000
1100
0001
0000
0010
,  // measure 26
1100
0000
0010
0001
0100
0000
0001
0000
1100
0000
0000
0010
0100
0000
1001
0000
,  // measure 27
0110
0000
1000
0010
0100
1000
0000
0100
0010
0000
1001
0000
1100
0001
0000
0010
,  // measure 28
0100
1000
0100
1000
0100
0000
1000
0000
0001
0000
0100
0000
0001
0000
0100
0000
0001
0000
0010
0000
0001
0000
0010
0000
0100
0000
1000
0000
0010
0000
0000
0000
,  // measure 29
1000
0001
1000
0000
0000
0000
0001
0000
1000
0000
0010
0000
1000
0000
0010
0000
1000
0000
0100
0000
1000
0000
0100
0000
0110
0000
0001
0000
1000
0000
0000
0000
,  // measure 30
0101
0000
0000
1000
0001
0000
1100
0000
0010
0100
0000
0001
1000
0000
0110
0000
,  // measure 31
1000
0010
1000
0000
0001
0100
1000
0100
0001
0100
0010
0000
1000
0100
0010
0100
,  // measure 32
0001
0000
0101
0000
0000
0000
0100
0000
1000
0000
0010
0100
0001
0100
0010
0000
,  // measure 33
0101
0000
1100
0000
0010
0000
1001
0000
1000
0100
0000
0100
1000
0000
0100
0000
,  // measure 34
1001
0001
0100
0001
1000
0010
0100
0001
1000
0001
0100
0001
0100
0010
1000
0001
,  // measure 35
0010
0100
1000
0100
0010
0001
1000
0100
0010
0001
1000
0010
0100
0001
0100
0010
,  // measure 36
1000
0100
0010
0001
0010
0100
1000
0100
0010
0001
1000
0001
0100
0001
1000
0010
,  // measure 37
0100
0001
1000
0010
1000
0100
0010
0001
0010
0100
1000
0100
0010
0001
0100
0010
,  // measure 38
0101
0000
1000
0100
1000
0000
1000
0001
1000
0000
1000
0010
1000
0000
0001
0000
,  // measure 39
0101
0000
0001
0010
0001
0000
0001
1000
0001
0000
0001
0100
0001
0000
0010
0000
,  // measure 40
1100
0000
0100
0001
0100
0000
0100
0010
0100
0000
0100
1000
0100
0000
1000
0000
,  // measure 41
0011
0000
0010
0001
0010
0100
0010
1000
0010
0100
1000
0100
0010
0100
0000
0010
,  // measure 42
2100
0100
0100
0100
0001
0001
0001
3002
,  // measure 43
0100
0100
0100
0100
0010
0010
0010
0020
,  // measure 44
0033
0000
0000
0000
;

//---------------dance-single - ----------------
#NOTES:
     dance-single:
     :
     Medium:
     8:
     0.358203,0.317030,0.475545,0.050437,0.140502,275.000000,66.000000,7.000000,0.000000,0.000000,0.000000,0.358203,0.317030,0.475545,0.050437,0.140502,275.000000,66.000000,7.000000,0.000000,0.000000,0.000000:
0101
0000
0010
0100
0001
0000
0100
0001
,
0100
0000
0010
0010
1000
0001
0100
0100
,
0101
0000
0101
0000
0000
0000
0000
0000
0000
0000
0000
0010
0000
0000
1000
0000
,
1100
0000
1100
0000
0000
0000
0000
0000
0000
0000
0000
0010
0000
0000
0001
0000
,
0101
0000
1000
0100
0110
0000
0001
0010
,
1001
0000
1000
0001
0010
0010
0001
1000
,
1100
0000
1100
0000
0000
0000
0000
0000
0000
0000
0000
0001
0000
0000
0010
0000
,
0101
0000
0101
0000
0000
0000
0000
0000
0000
0000
0000
1000
0000
0000
0010
0000
,
1001
0110
0000
0000
0000
0000
0000
0000
,
1000
0000
1000
0000
0000
0010
0000
0000
0001
0000
0001
0000
0000
0100
0000
0000
,
1000
0000
1001
0000
0000
0000
0000
0000
0010
0000
1000
0000
0001
0100
0000
0200
,
0000
0000
0000
0000
0300
0000
0000
0000
1001
0000
0000
0000
0010
0100
0000
0000
,
2002
0000
3003
0000
,
0020
0000
0000
0000
0000
0000
0000
0000
0000
0000
0000
0000
0000
0000
0000
0000
0000
0000
0000
0000
0000
0000
0000
0000
0000
0000
0000
0000
0000
0000
0000
0030
,
0101
0000
0000
0100
0010
0000
0100
0000
0001
0000
0000
0000
1000
0000
0100
0000
,
1001
0000
0000
0000
0001
1000
0000
0001
1000
0000
0000
0000
0010
0000
1000
0000
,
0101
0101
0010
1000
0010
1000
0101
0000
,
1010
1010
0100
0001
0010
0001
0100
0010
,
1001
0000
0000
1000
0100
0000
0010
0000
0110
0000
0000
0000
0001
0000
0101
0000
,
1001
0000
0000
0000
1000
0100
0000
1000
0100
0000
0010
0000
0001
0000
0010
0000
,
1100
0000
0000
0000
0001
0000
0100
0000
0001
0100
0001
0000
0100
0000
0010
0000
,
0110
0000
0000
0000
1000
0000
0010
0000
1000
0000
0000
0001
0000
0000
0100
0000
,
0101
0000
1100
0000
0000
0000
0000
0000
0001
0000
0000
0101
0000
0000
1001
0000
,
1000
0000
0010
0000
0000
1001
0000
0000
0001
0000
0100
0000
0000
1001
0000
0000
,
0110
0000
1001
0000
0000
0000
0000
0000
1000
0000
0010
0000
1000
0001
0000
0001
,
1000
0000
0001
0000
0000
0000
0000
0000
1010
0000
1001
0000
0100
0010
0000
0000
,
1001
0000
0000
0001
1000
0000
0100
0000
1100
0000
0000
0000
0010
0000
1100
0000
,
1100
0000
0000
0000
0001
0100
0000
0000
0010
0000
0100
0000
0001
0100
0000
0000
,
1001
1100
0001
1000
0001
1000
0101
0000
,
1001
0101
1000
0001
1000
0001
0110
0000
,
1001
0000
0000
0001
0010
0000
0001
0000
1001
0000
0000
0000
1000
0000
0001
0000
,
0101
0000
0000
0000
0100
0001
0000
0100
0001
0000
0100
0000
0010
0000
0000
0000
,
1001
0000
1001
0000
0010
0000
0001
0000
0010
0000
0000
0001
0000
0000
0100
0000
,
0101
0000
0101
0000
0010
0000
0100
0000
0001
0100
0000
0000
0010
0000
0100
0000
,
1001
0000
0000
0000
0100
0000
1000
0000
0100
0000
0010
0000
0001
0100
0000
0000
,
0101
0000
0000
1000
0001
0000
0100
0000
0001
0000
1000
0000
0001
0000
0000
0000
,
1100
0000
0000
0010
0000
0000
0100
0000
1000
0000
0100
0000
0010
0001
0000
0010
,
0001
0000
0000
0101
0000
0000
0010
0000
1000
0000
0001
0000
0100
0000
0000
0000
,
0101
1000
1000
0010
0010
0100
0100
0000
,
1100
0001
0001
0100
0100
0010
0010
0000
,
1001
0100
0100
1000
1000
0010
0010
0000
,
0101
0000
1000
0000
0100
0000
1000
0100
1000
0000
0010
0000
1000
0100
0000
0000
,
0102
0100
0100
0100
1000
1000
1000
2003
,
0100
0100
0100
0100
0010
0010
0010
0020
,
3030
0000
0000
0000
;

//---------------dance-single - ----------------
#NOTES:
     dance-single:
     :
     Easy:
     5:
     0.248066,0.237773,0.273799,0.108079,0.000000,188.000000,38.000000,15.000000,0.000000,0.000000,0.000000,0.248066,0.237773,0.273799,0.108079,0.000000,188.000000,38.000000,15.000000,0.000000,0.000000,0.000000:
0001
0000
0000
0010
0010
0000
0000
1000
,
1000
0000
0000
0100
0001
0000
1000
0000
,
0100
0100
0000
0000
0000
0000
0010
0000
,
1001
1001
0000
0000
0000
0001
0100
0000
,
1001
0000
0000
0010
0010
0000
0000
1000
,
1000
0000
0000
0100
0001
0000
0100
0000
,
1100
1100
0000
0000
0000
0010
0001
0000
,
0101
0101
0000
0000
0000
0100
0010
0000
,
0110
0110
0000
0000
0000
0000
0000
0000
,
1000
0000
0000
0010
0010
0000
0000
0100
,
0100
0000
0001
0100
,
0202
0303
0010
0100
,
2002
0000
3003
0000
,
0020
0000
0000
0000
0000
0000
0000
0000
0000
0000
0000
0000
0000
0000
0000
0000
0000
0000
0000
0000
0000
0000
0000
0000
0000
0000
0000
0000
0000
0000
0000
0030
,
1001
0000
0001
0001
0010
0000
0001
0001
,
1000
0000
0001
0001
0100
0000
0001
0000
,
1001
0010
1000
0100
,
1100
0010
0001
0100
,
1001
0000
1000
1000
0100
0000
1000
1000
,
0001
0000
1000
1000
0010
0000
0100
0000
,
1001
0000
0010
0000
1000
0100
1000
0000
,
1001
0000
0010
0000
0001
0100
0001
0000
,
1001
0000
0100
0000
0000
0100
0100
0000
,
0010
0010
0000
0000
0100
0100
0000
0000
,
0010
0010
0000
0000
1000
0000
0001
0001
,
1000
1000
0000
0000
1010
0000
0101
0000
,
1001
0000
1000
0010
0010
0000
1000
0001
,
0001
0000
1000
0100
0100
0000
0010
0000
,
1001
0010
0001
0101
,
1001
0010
0100
0110
,
1001
0000
0001
0001
0100
0000
0001
0001
,
1000
0000
0001
0001
0010
0000
0001
1000
,
1001
0100
0010
0100
,
1001
0010
0100
0110
,
1001
0000
0001
0000
0100
0000
0010
0100
,
0010
0000
2002
0000
3003
1000
0001
0000
,
1001
0010
1000
0100
,
0010
0000
0220
0000
0330
0000
1000
1000
,
0001
0102
0100
0103
,
1000
2010
0010
3010
,
0100
2001
0010
3100
,
0001
0001
1000
1000
0110
0000
1000
0001
,
2100
0000
0100
0000
0001
0000
0001
3002
,
0100
0000
0100
0000
0010
0010
0010
0020
,
0033
0000
0000
0000
;
