#VERSION:0.81;
#TITLE:Metropolis Zone;
#SUBTITLE:(AS-13 Remix);
#ARTIST:AS-13;
#TITLETRANSLIT:;
#SUBTITLETRANSLIT:;
#ARTISTTRANSLIT:;
#GENRE:;
#ORIGIN:;
#CREDIT:;
#BANNER:metropolis-bn.png;
#BACKGROUND:metropolis-bg.png;
#PREVIEWVID:;
#JACKET:;
#CDIMAGE:;
#DISCIMAGE:;
#LYRICSPATH:;
#CDTITLE:;
#MUSIC:Metropolis Zone (AS-13 Remix).mp3;
#OFFSET:-0.700000;
#SAMPLESTART:93.325531;
#SAMPLELENGTH:12.000000;
#SELECTABLE:YES;
#BPMS:0.000=145.000;
#STOPS:60.000=0.830,
154.000=0.830,
215.500=0.830;
#DELAYS:;
#WARPS:;
#TIMESIGNATURES:0.000=4=4;
#TICKCOUNTS:0.000=4;
#COMBOS:0.000=1;
#SPEEDS:0.000=1.000=0.000=0;
#SCROLLS:0.000=1.000;
#FAKES:;
#LABELS:0.000=Song Start;
#BGCHANGES:;
#KEYSOUNDS:;
#ATTACKS:
;

//---------------dance-single - ----------------
#NOTEDATA:;
#CHARTNAME:;
#STEPSTYPE:dance-single;
#DESCRIPTION:;
#CHARTSTYLE:;
#DIFFICULTY:Hard;
#METER:8;
#RADARVALUES:0.510151,0.517600,0.237083,0.281536,0.048157,412.000000,32.000000,38.000000,0.000000,0.000000,0.000000,0.000000,0.000000,0.510151,0.517600,0.237083,0.281536,0.048157,412.000000,32.000000,38.000000,0.000000,0.000000,0.000000,0.000000,0.000000;
#CREDIT:;
#NOTES:
// measure 0
0000
0000
0000
0000
,  // measure 1
0000
0000
0000
0000
,  // measure 2
0000
0000
0000
0000
,  // measure 3
0000
0000
0000
0000
,  // measure 4
0000
0000
0000
0000
,  // measure 5
0000
0000
0000
0000
,  // measure 6
0000
0000
0000
0000
,  // measure 7
0000
0000
0000
0000
0000
0010
0010
1000
,  // measure 8
1100
0010
0020
0030
,  // measure 9
0001
0100
0000
0200
0000
0000
0300
0010
,  // measure 10
0100
0010
0020
0030
,  // measure 11
1000
0100
0000
0220
0000
0000
0330
0000
,  // measure 12
0001
0100
0200
0300
,  // measure 13
0010
0000
0000
0200
0000
0000
0300
0000
,  // measure 14
0001
0000
0010
0000
0001
0001
0000
0000
,  // measure 15
0100
1010
1010
0001
0100
0000
1001
0000
,  // measure 16
0010
1000
0100
0000
0010
0010
0001
0100
,  // measure 17
1000
0100
0001
0000
0010
0000
1100
0000
,  // measure 18
0100
1000
0010
0000
0010
1000
0100
1000
,  // measure 19
0010
0100
0100
0000
0101
0000
0010
0000
,  // measure 20
1000
0100
1000
0000
0010
0100
0001
0001
,  // measure 21
0100
0010
1000
1000
0100
0000
1100
0000
,  // measure 22
0010
0001
0100
0000
0001
0100
0001
0100
,  // measure 23
0010
1000
0100
1000
0010
0000
1001
0000
,  // measure 24
0100
0001
0100
0000
0010
0100
0001
0001
,  // measure 25
1000
0001
0100
0001
0010
0000
0100
1000
,  // measure 26
0010
0010
0100
0000
0001
0100
0010
1000
,  // measure 27
0000
1000
0100
1000
0010
0000
0101
0000
,  // measure 28
1010
1000
0100
0000
0010
0001
0100
0001
,  // measure 29
0100
0001
0010
0000
0100
1000
0010
0000
,  // measure 30
1000
0010
0100
0000
0001
0100
0001
0010
,  // measure 31
0000
1000
0010
0001
0100
0001
0100
0001
,  // measure 32
0100
0001
0100
0001
1000
0100
1000
0100
,  // measure 33
0010
0000
0100
0000
0010
0000
0100
0000
1100
0000
0000
0000
0001
0100
0001
0100
,  // measure 34
0000
0000
0010
0000
1000
0000
0000
0000
0101
0000
0000
0000
1000
0100
1000
0100
,  // measure 35
0000
0010
0001
0000
1000
0010
1000
0010
,  // measure 36
1000
0010
1000
0010
0001
0010
0001
0010
,  // measure 37
0100
0000
0001
0000
0100
0000
0001
0000
1100
0000
0000
0000
0001
0010
0001
0010
,  // measure 38
0000
0100
1000
0000
0101
1010
1010
1000
,  // measure 39
0200
0010
0010
0010
,  // measure 40
0010
0000
0010
0000
0310
0001
1000
0010
,  // measure 41
0200
0001
0001
0001
,  // measure 42
0001
0000
0001
0000
0301
0010
0100
1000
,  // measure 43
0020
0100
0100
0100
,  // measure 44
0100
0000
0100
0000
0130
0001
0010
0100
,  // measure 45
2000
0010
0010
0010
,  // measure 46
0010
0000
0000
0000
3010
0000
0000
0000
1000
0000
0001
0000
0100
0000
0001
0100
,  // measure 47
0002
0023
0032
0203
,  // measure 48
0302
0203
0302
0023
,  // measure 49
0230
2300
3020
2030
,  // measure 50
3200
0320
0230
0320
,  // measure 51
0032
0203
2300
3200
,  // measure 52
0302
0203
0302
0203
,  // measure 53
0320
0000
2030
0000
3200
0000
1300
1010
,  // measure 54
0000
0100
0010
0000
0101
0000
1000
1000
,  // measure 55
0010
1000
0100
0000
1000
0100
0010
0001
,  // measure 56
0100
0001
0100
0000
0001
0000
1100
0000
,  // measure 57
1001
0000
0010
0000
1000
0010
0100
0001
,  // measure 58
0000
1000
1000
0100
1000
0000
0010
0000
,  // measure 59
0010
1000
0001
0000
0100
0001
0010
0001
,  // measure 60
0100
0010
0010
0100
0001
0000
0101
0000
,  // measure 61
1000
0100
1000
0000
0010
1000
0000
0101
,  // measure 62
0000
0100
0100
0001
0011
0000
0100
0000
,  // measure 63
1000
0010
0100
0000
0001
0100
0001
0010
,  // measure 64
0000
0001
0010
0001
0100
0001
0100
0000
,  // measure 65
0010
1000
0100
0000
1000
0010
0000
1001
,  // measure 66
0000
0101
0000
0010
0100
0000
0001
0100
,  // measure 67
0001
1000
0100
0000
1000
0100
1000
0010
,  // measure 68
1000
0100
0010
0001
0100
0000
1010
0000
,  // measure 69
0001
0100
0010
0000
1000
0100
1000
0010
,  // measure 70
0000
0010
1000
0001
0100
0001
0100
0001
,  // measure 71
0100
0001
0100
0001
0010
0001
0010
0001
,  // measure 72
1000
0000
0100
0000
1000
0000
0100
0000
0110
0000
0000
0000
0001
0010
0001
0010
,  // measure 73
0000
0000
0001
0000
0100
0000
0000
0000
0110
0000
0000
0000
1000
0010
1000
0010
,  // measure 74
0000
1000
0100
0000
0010
0001
0010
0001
,  // measure 75
0010
0001
0010
0001
0100
0010
0100
0010
,  // measure 76
1000
0000
0100
0000
1000
0000
0100
0000
0011
0000
0000
0000
0100
1000
0100
1000
,  // measure 77
0000
0010
0100
0001
1010
0101
0000
0000
;

//---------------dance-single - ----------------
#NOTEDATA:;
#CHARTNAME:;
#STEPSTYPE:dance-single;
#DESCRIPTION:;
#CHARTSTYLE:;
#DIFFICULTY:Medium;
#METER:5;
#RADARVALUES:0.336573,0.460089,0.148177,0.274127,0.022227,261.000000,20.000000,37.000000,0.000000,0.000000,0.000000,0.000000,0.000000,0.336573,0.460089,0.148177,0.274127,0.022227,261.000000,20.000000,37.000000,0.000000,0.000000,0.000000,0.000000,0.000000;
#CREDIT:;
#NOTES:
0000
0000
0000
0000
,
0000
0000
0000
0000
,
0000
0000
0000
0000
,
0000
0000
0000
0000
,
0000
0000
0000
0000
,
0000
0000
0000
0000
,
0000
0000
0000
0000
,
0000
0000
0000
0000
,
0000
0001
0001
0000
,
0010
0000
0000
0100
0000
0000
0000
0000
,
0000
1000
1000
0000
,
0100
0000
0000
0010
0000
0000
0000
0000
,
0000
0001
0100
0000
,
0010
0000
0000
1000
0000
0000
0000
0000
,
0000
1000
0100
0000
,
0010
0000
1001
0100
,
0001
0001
0000
0000
0010
0000
0001
0000
,
1000
0100
1000
0010
,
0100
0100
0000
0000
0001
0001
0000
0010
,
0000
0001
1000
0100
,
1000
1000
0000
0000
0010
0000
1000
0000
,
0100
0010
0100
1000
,
0010
0010
0000
0000
1000
0000
1100
0000
,
0001
0100
0001
0100
0001
0000
1000
0000
,
0100
0000
0010
0000
0100
1000
0000
0100
,
0000
1000
0010
0001
,
0010
0000
1000
0000
0001
0000
0000
1001
,
0000
0100
0001
0010
,
0100
0000
0100
0000
0010
0001
0000
0020
,
0000
0030
0000
0000
0100
0000
1000
0000
,
1100
0000
1001
0000
0100
0100
0000
0010
,
0000
0100
0002
0023
,
0032
0023
0230
2300
,
3002
0000
0000
0000
0013
0000
0000
0000
1100
0000
0000
0000
0001
0000
0000
0001
,
0000
0000
0000
0000
0100
0000
0000
0000
0101
0000
0000
0000
1000
0000
0000
1000
,
0000
0100
0020
0230
,
0320
0230
2300
3002
,
0203
0000
0000
0000
0310
0000
0000
0000
1001
0000
0000
0000
0100
0000
0000
0100
,
0000
0010
1001
0000
,
2000
0100
0100
0100
,
0100
0100
3100
0010
,
0002
0100
0100
0100
,
0100
0100
1003
0010
,
0200
0001
0001
0001
,
0001
0001
0301
1000
,
0200
0010
0010
0010
,
0010
0310
1001
0110
,
2002
0000
3003
0000
0100
0000
0100
0010
,
0000
0000
0000
0000
0010
0000
0010
0100
,
0000
0000
0000
0000
0001
0000
1000
0001
,
0000
0000
0100
0001
,
2200
0000
3300
0000
0010
0000
0001
0010
,
0000
0000
0000
0000
0001
0000
0100
0001
,
0000
0000
0000
0000
0100
0000
0000
1001
,
0000
0000
0001
0100
,
0010
0010
0000
0000
1000
0000
0010
0000
,
0001
0010
1000
0100
,
0001
0001
0000
0000
0100
0100
0000
0010
,
0000
0100
1000
0010
,
0100
0100
0000
0000
0001
0000
0100
0000
,
0010
1000
0100
1000
,
0010
0010
0000
0000
1000
1000
0000
0001
,
0001
1000
0101
0010
,
1000
0000
0100
0000
1000
0010
0000
1000
,
0000
0010
0000
1000
0000
0000
0001
0000
,
0010
0100
1000
0100
,
0010
0100
0010
0100
0010
0000
0001
0000
,
0100
0000
0001
0000
1000
0100
0000
1000
,
0000
0100
1000
0010
,
0100
0100
0010
0000
0010
0000
0100
0000
,
0001
1000
0001
1000
0002
0000
0203
0000
,
0302
0203
0320
2030
,
3200
0000
0000
0000
1300
0000
0000
0000
1010
0000
0000
0000
0100
0000
0000
0100
,
0000
0000
0000
0000
0001
0000
0000
0000
0011
0000
0000
0000
0100
0000
0000
0100
,
0000
1000
0002
0203
,
0302
0203
0320
0230
,
0302
0000
0000
0000
1003
0000
0000
0000
1100
0000
0000
0000
0010
0000
0000
0001
,
0000
0000
0100
0000
0110
0110
0000
0000
;

//---------------dance-single - ----------------
#NOTEDATA:;
#CHARTNAME:;
#STEPSTYPE:dance-single;
#DESCRIPTION:;
#CHARTSTYLE:;
#DIFFICULTY:Easy;
#METER:3;
#RADARVALUES:0.208506,0.230044,0.103724,0.014818,0.000000,181.000000,14.000000,2.000000,0.000000,0.000000,0.000000,0.000000,0.000000,0.208506,0.230044,0.103724,0.014818,0.000000,181.000000,14.000000,2.000000,0.000000,0.000000,0.000000,0.000000,0.000000;
#CREDIT:;
#NOTES:
0000
0000
0000
0000
,
0000
0000
0000
0000
,
0000
0000
0000
0000
,
0000
0000
0000
0000
,
0000
0000
0000
0000
,
0000
0000
0000
0000
,
0000
0000
0000
0000
,
0000
0000
0000
0000
,
0001
0000
0001
0000
,
0100
0000
1000
0000
,
0001
0000
0001
0000
,
1000
0000
0010
0000
,
1000
0000
1000
0000
,
0001
0000
0100
0000
,
1000
0000
1000
0000
,
0010
0000
0000
0100
,
0100
0000
0001
0000
,
0100
0000
0010
0010
,
1000
0000
0010
0000
,
0100
0000
0001
0100
,
0001
0000
0100
0000
,
0010
0000
1000
1000
,
0100
0000
1000
0000
,
0001
0001
0001
0100
,
0100
0000
0001
0000
,
0100
0001
0010
0010
,
0010
0000
0001
0000
,
0100
0010
0100
0000
,
0001
0000
1000
0001
,
1000
0001
0100
0001
,
0100
0000
0001
0000
,
0010
0000
0001
0001
,
0001
0001
1000
1000
,
0010
0010
1001
0000
,
0100
0000
1001
0000
,
0010
0000
1000
1000
,
1000
1000
0001
0001
,
0010
0010
1001
0000
,
0100
0000
0110
0000
,
1002
0000
0100
0000
,
0100
0000
0100
0000
,
0010
0000
0100
0000
,
0100
0000
0103
0000
,
2001
0000
0010
0000
,
0010
0000
0010
0000
,
0100
0000
0010
0000
,
0010
0000
3010
0000
,
1001
0000
0100
0000
,
0010
0000
0100
0000
,
1001
0000
0010
0000
,
0100
0000
0010
0000
,
0110
0000
1000
0000
,
0001
0000
1000
0000
,
0110
0000
0000
0000
0001
0000
0000
0001
,
0000
0000
0110
0000
,
1000
0000
0010
1000
,
0010
0000
1000
0100
,
0100
0000
1000
0000
,
0100
0100
0010
0010
,
0010
0000
0100
0000
,
0010
0000
0001
0000
,
0100
0100
0100
0001
,
0100
0001
0100
0000
,
0010
0000
0010
0000
,
1000
0001
1000
0000
,
0100
0000
1000
1000
,
0001
0001
0100
0000
,
0001
0000
1000
0000
,
0100
0000
1000
1000
,
0001
0001
1000
0001
,
0100
0000
0010
0010
,
0010
0010
0100
0100
,
0001
0001
1001
0000
,
0100
0000
1001
0000
,
0010
0000
1000
1000
,
1000
1000
0010
0010
,
0100
0100
1001
0000
,
0010
0000
0000
0000
0100
0100
0000
0000
;
