#TITLE:Luminosity;
#SUBTITLE:;
#ARTIST:AS-13;
#TITLETRANSLIT:;
#SUBTITLETRANSLIT:;
#ARTISTTRANSLIT:;
#GENRE:;
#CREDIT:;
#BANNER:luminosity-bn.png;
#BACKGROUND:luminosity-bg.png;
#LYRICSPATH:;
#CDTITLE:;
#MUSIC:Luminosity.mp3;
#OFFSET:-0.080000;
#SAMPLESTART:28.845562;
#SAMPLELENGTH:12.000000;
#SELECTABLE:YES;
#BPMS:0.000000=150.000000
;
#STOPS:
;
#BGCHANGES:;
#KEYSOUNDS:;
#ATTACKS:;

//---------------dance-single - ----------------
#NOTES:
     dance-single:
     :
     Hard:
     8:
     0.440574,0.436558,0.281117,0.190168,0.000000,316.000000,34.000000,23.000000,0.000000,0.000000,0.000000,0.440574,0.436558,0.281117,0.190168,0.000000,316.000000,34.000000,23.000000,0.000000,0.000000,0.000000:
0000
0000
0000
0000
,
0000
0000
0000
0000
,
0000
0000
2010
0000
0000
3100
0000
0000
,
0000
0000
0102
0000
0000
0013
0000
0000
,
0000
0000
2010
0000
0000
3100
0000
0000
,
0000
0000
0102
0000
0000
0013
0000
1100
,
0000
0000
1020
0000
0000
0130
0000
0000
,
0000
0000
0201
0000
0000
0310
0000
0000
,
0000
0000
1020
0000
0000
0130
0000
0000
,
0001
0100
0010
0101
,
1001
0010
0010
0010
,
1000
0100
0100
0100
,
1000
0010
0010
0010
,
1000
1000
0100
0010
,
0001
0100
0100
0100
,
0001
0010
0010
0010
,
0001
0100
0100
0100
,
1010
0000
0100
0101
0000
0010
1010
0000
,
0101
0000
1000
0100
0001
0100
1000
0000
,
0010
0000
0102
0000
0013
0100
1000
0000
,
0001
0100
0001
0010
0000
0010
0100
0000
,
1000
0000
0100
0000
0001
0100
1000
0000
,
1010
0000
0001
0010
0001
0100
0001
0000
,
1000
0100
1000
0010
0000
0101
0000
0000
,
0100
0010
0100
0000
0001
0100
0001
0000
,
1000
0010
0100
0001
1000
0100
0010
0000
,
0110
0000
0001
0010
1000
0010
0001
0000
,
1000
0100
0010
0100
0000
1001
0000
0010
,
0001
0000
0100
0000
0010
0100
0001
0000
,
1000
0100
0010
0100
1000
0010
0000
0110
,
0000
0001
1000
0001
0000
0100
0001
0000
,
1000
0010
0100
0001
0100
0010
1000
0000
,
0010
0100
0001
0000
1000
0100
0010
0000
,
0001
0010
0100
0001
0100
1000
0010
0000
,
0101
0000
1000
0100
0000
0100
1000
0010
,
0000
0010
0000
1000
0010
0100
0001
0000
,
0010
0001
0100
0001
0000
0001
0100
0010
,
0000
0010
0000
0100
0002
0000
0013
0000
,
0100
1000
0100
0010
0000
0010
0100
1000
,
0000
1000
0100
1000
0020
0000
0230
0000
,
0301
0100
0001
0100
0000
0100
0010
0100
,
0000
0001
0100
0010
1000
0000
1010
0000
,
0001
0010
0001
0010
0000
0001
0100
0001
,
0000
0100
1000
0100
0002
0000
0103
0000
,
1000
0100
1000
0100
0000
0001
0100
0001
,
0000
0010
0001
0010
2000
0000
3010
0000
,
0001
0010
1000
0010
0000
1000
0100
1000
,
0000
0100
0001
0100
0002
0000
0103
0000
,
1000
0100
1000
0100
0000
1000
0010
1000
,
0000
0010
0001
0010
0002
0000
0103
0000
,
1001
0000
1000
0100
0001
0100
2000
0000
,
0000
0010
0010
3010
,
1001
0000
0001
0100
1000
0100
0020
0000
,
0000
1000
1000
1030
,
1010
0000
0100
0010
1000
0010
0200
0000
,
0000
0001
0001
0301
,
0011
0000
0001
0010
0100
0010
0002
0000
,
0000
0100
0100
0103
,
0110
0000
1000
0010
0001
0010
0200
0000
,
0000
0001
0001
0301
,
0101
0000
1000
0100
0001
0100
2000
0000
,
0000
0010
0010
3010
,
0110
0000
0001
1000
0010
0100
0002
0000
,
0000
0100
0100
0103
,
0110
0000
1000
0001
0100
0010
2000
0000
,
3100
0010
0110
0000
1001
0000
0110
0000
,
1001
0000
0000
0000
;

//---------------dance-single - ----------------
#NOTES:
     dance-single:
     :
     Medium:
     5:
     0.361436,0.354704,0.380335,0.057877,0.000000,253.000000,46.000000,7.000000,0.000000,0.000000,0.000000,0.361436,0.354704,0.380335,0.057877,0.000000,253.000000,46.000000,7.000000,0.000000,0.000000,0.000000:
0000
0000
0000
0000
,
0000
0000
0000
0000
,
0000
0000
0010
0000
0000
0010
0000
0000
,
0000
0000
1000
0000
0000
1000
0000
0000
,
0000
0000
0001
0000
0000
0001
0000
0000
,
0000
0000
0100
0000
0000
0010
0000
0100
,
0000
0000
0010
0000
0000
0010
0000
0000
,
0000
0000
0100
0000
0000
0100
0000
0000
,
0000
0000
0001
0000
0000
0001
0000
0000
,
0010
0001
1000
0100
,
1001
0010
0010
0010
,
0001
0100
0100
0100
,
0001
0010
0010
0010
,
0001
0100
0010
0010
,
1000
0100
0100
0100
,
1000
0010
0010
0010
,
1000
0100
0100
0100
,
0110
0100
0010
1001
,
0100
0101
0010
1000
,
0100
0011
1000
0010
,
1000
0101
0010
0100
,
0001
0101
1000
1100
,
0010
1100
0100
1000
,
0010
0101
0100
0010
,
0100
1001
0010
1000
,
1001
1001
0101
1001
,
0100
1100
1000
0010
,
1000
0101
0001
0100
,
0010
0110
0100
0010
,
1000
0101
0001
0110
,
0100
1001
0010
1000
,
0100
1001
0010
0100
,
1000
1100
0100
0010
,
1001
1001
1010
1001
,
0100
0001
0010
0001
,
1000
0100
1100
1100
,
0001
0010
0100
1000
,
0010
0100
0101
0101
,
0010
1000
0100
0010
,
0001
0100
1010
1010
,
0100
0010
0100
0001
,
0010
0100
0110
0110
,
0001
0010
0100
0001
,
0100
1000
1010
1010
,
0010
0100
0001
0100
,
0010
1000
0101
0101
,
1000
0001
0010
0001
,
1000
0010
0101
0101
,
1000
0001
1000
0100
,
0010
0100
0011
1100
,
0001
0000
0100
0001
0100
0001
0200
0000
,
0000
0010
0010
0310
,
1000
0000
0100
1000
0100
1000
0200
0000
,
0000
1000
1000
1300
,
0010
0000
1000
0010
1000
0010
2000
0000
,
0000
0010
0010
3100
,
0001
0000
0001
0010
0001
0010
0002
0000
,
0000
0100
1000
0103
,
1000
0000
0100
1000
0100
1000
0200
0000
,
0000
0010
0001
1000
,
0310
0000
0001
0010
0001
0010
0002
0000
,
0000
0100
0010
0100
,
1003
0000
0010
1000
0010
1000
0020
0000
,
0000
0100
1000
0001
,
1030
0000
0100
1000
0100
1000
0100
0000
,
1001
0001
0010
1100
,
1001
0000
0000
0000
;

//---------------dance-single - ----------------
#NOTES:
     dance-single:
     :
     Easy:
     4:
     0.283480,0.272849,0.107486,0.107486,0.000000,214.000000,13.000000,13.000000,0.000000,0.000000,0.000000,0.283480,0.272849,0.107486,0.107486,0.000000,214.000000,13.000000,13.000000,0.000000,0.000000,0.000000:
// measure 0
0000
0000
0000
0000
,  // measure 1
0000
0000
0000
0000
,  // measure 2
0000
0001
0000
0000
,  // measure 3
0000
0100
0000
0000
,  // measure 4
0000
0010
0000
0000
,  // measure 5
0000
1000
0000
1000
,  // measure 6
1000
0100
0000
0000
,  // measure 7
0000
0010
0000
0000
,  // measure 8
0000
0001
0000
0000
,  // measure 9
0100
0010
1000
0001
,  // measure 10
1001
0100
0100
0100
,  // measure 11
0001
0010
0010
0010
,  // measure 12
0001
0100
0100
0100
,  // measure 13
0010
0010
0100
0001
,  // measure 14
1000
0100
0100
0100
,  // measure 15
1000
0010
0010
0010
,  // measure 16
1000
0100
0100
0100
,  // measure 17
0110
0100
0010
1001
,  // measure 18
0001
0100
0010
0100
,  // measure 19
0000
0001
1000
0100
,  // measure 20
0000
1000
0001
0100
,  // measure 21
0000
0010
1000
0001
,  // measure 22
0100
0010
0100
0001
,  // measure 23
0000
0010
0100
1000
,  // measure 24
0000
0100
0010
0001
,  // measure 25
1001
1000
0001
1001
,  // measure 26
0010
1000
0100
0010
,  // measure 27
0000
0100
1000
0001
,  // measure 28
0000
0010
0001
1000
,  // measure 29
0000
0010
1000
0001
,  // measure 30
0100
0010
1000
0100
,  // measure 31
0000
0010
0001
0100
,  // measure 32
0000
1000
0100
0001
,  // measure 33
1000
1001
0001
1001
,  // measure 34
0110
0000
1000
0010
,  // measure 35
2000
3000
0001
1000
,  // measure 36
0200
0300
1000
0100
,  // measure 37
0020
0030
0100
0010
,  // measure 38
0002
0003
0010
0001
,  // measure 39
0200
0300
1000
0100
,  // measure 40
0002
0003
1000
0100
,  // measure 41
1000
0010
0100
0001
,  // measure 42
0010
0010
0100
1000
,  // measure 43
0001
0001
1000
0100
,  // measure 44
0010
0010
0100
0010
,  // measure 45
0001
0001
0100
0001
,  // measure 46
1000
1000
0010
1000
,  // measure 47
0100
0100
1000
0100
,  // measure 48
0010
0010
0100
1000
,  // measure 49
0010
0100
1001
0110
,  // measure 50
0001
0001
0100
0020
,  // measure 51
0000
0100
0100
0130
,  // measure 52
1000
1000
0100
0020
,  // measure 53
0000
0100
0100
0130
,  // measure 54
0001
0100
0010
0200
,  // measure 55
0000
0001
0001
0301
,  // measure 56
1000
0100
0010
0200
,  // measure 57
0000
1000
1000
1300
,  // measure 58
0001
0100
0010
2000
,  // measure 59
0000
0100
0100
3100
,  // measure 60
1000
0100
0010
0002
,  // measure 61
0000
0100
0100
0103
,  // measure 62
0010
0100
0001
0020
,  // measure 63
0000
0100
0100
0130
,  // measure 64
0010
0100
1000
0010
,  // measure 65
0100
1001
0010
1001
,  // measure 66
0110
0000
0000
0000
;
