#TITLE:Heat 2013;
#SUBTITLE:;
#ARTIST:AS-13;
#TITLETRANSLIT:;
#SUBTITLETRANSLIT:;
#ARTISTTRANSLIT:;
#GENRE:;
#CREDIT:;
#BANNER:heat2013-bn.png;
#BACKGROUND:heat2013-bg.png;
#LYRICSPATH:;
#CDTITLE:;
#MUSIC:Heat 2013.mp3;
#OFFSET:-0.060000;
#SAMPLESTART:74.699997;
#SAMPLELENGTH:12.000000;
#SELECTABLE:YES;
#BPMS:0.000000=135.000000
,64.000000=67.500000
,68.000000=135.000000
,225.000000=67.500000
,261.000000=135.000000
;
#STOPS:160.000000=1.350000
;
#BGCHANGES:;
#KEYSOUNDS:;
#ATTACKS:;

//---------------dance-single - Blank----------------
#NOTES:
     dance-single:
     Blank:
     Hard:
     9:
     0.592317,0.775020,0.462896,0.138869,0.419912,536.000000,70.000000,21.000000,0.000000,0.000000,0.000000,0.592317,0.775020,0.462896,0.138869,0.419912,536.000000,70.000000,21.000000,0.000000,0.000000,0.000000:
0000
0000
0000
0000
,
0000
0000
0000
0000
,
0000
0000
0000
0000
,
0000
0000
0000
0000
0000
0000
0000
0101
,
2002
0000
0000
0000
,
0000
0000
0000
0000
,
3003
0000
0000
0000
,
0000
0000
0000
0000
0000
0000
0000
0000
0000
0000
0000
0000
0001
1000
0001
1000
,
0200
1000
0010
1000
,
0320
0100
0001
0100
,
0032
0010
1000
0010
,
0203
0010
0001
0010
,
0302
1000
0010
0100
,
2003
0100
0010
0001
,
3200
0010
1000
0001
,
0320
0000
0001
0000
0130
1000
0010
0000
,
2002
0000
3000
0103
,
1001
0000
0010
1000
0100
0000
0010
0001
,
0100
0000
1000
0100
0001
0000
1000
0100
,
0011
0000
0100
0010
0001
0000
1000
0100
,
0010
0000
0001
1000
0100
0000
1000
0010
,
0101
0000
0010
1000
0001
0000
0100
0010
,
0001
0000
1000
0100
0010
0000
1000
0010
,
1001
0000
0010
0001
1000
0000
0100
0001
,
1000
0000
0010
0001
0100
0000
1000
0100
,
0110
0000
1000
0010
0100
0000
0001
0100
,
1001
0000
0010
1000
0010
0000
0100
0001
,
0101
0000
1000
0001
0100
0000
0001
0010
,
0110
0000
1000
0001
0010
0000
0001
0100
,
0101
0000
0010
1000
0100
0000
0010
0100
,
1001
0000
0001
0100
0010
0000
1000
0010
,
1001
0000
0010
0001
1000
0000
0010
0100
,
0101
0000
0000
0000
1000
0000
0100
0000
1000
0000
0001
1000
0001
0000
1000
0000
,
1100
0000
1100
0000
1100
0000
1000
0001
,
0101
0000
0101
0000
0101
2000
3001
0200
,
0301
0000
0000
0000
1100
0000
0000
0000
1100
0000
0000
0000
0010
0001
1000
0001
,
0100
0000
0000
0000
0101
0000
0000
0000
0010
0100
0010
0100
0001
0100
0001
0100
,
0001
0000
0101
0000
0101
0000
0001
1000
,
1100
0000
1100
0000
1100
0002
1003
0200
,
1300
0000
0000
0000
0101
0000
0000
0000
0101
0000
0000
0000
0010
1000
0001
1000
,
0100
0000
0000
0000
0001
0100
0001
0000
1000
0000
0100
0000
1000
0010
1000
0000
,
0010
0100
0010
0000
1000
0010
1000
0000
0001
0000
0100
0000
0010
0100
0010
0000
,
0100
0001
0100
0001
0100
0010
0100
0000
0001
0000
0100
0000
0001
1000
0001
0000
,
1000
0010
1000
0000
0001
1000
0001
0000
1000
0000
0010
0000
1000
0100
1000
0000
,
0001
0100
0001
0100
0010
0100
0010
0000
1000
0000
0001
0000
0100
0001
0100
0000
,
0001
1000
0001
0000
1000
0010
1000
0000
0001
0000
0100
0000
0001
1000
0001
0000
,
1000
0100
1000
0100
1000
0001
1000
0000
0100
0000
1000
0000
0001
0100
0001
0000
,
1000
0001
1000
0000
0010
1000
0010
0000
0100
0000
0010
0000
1000
0001
1000
0000
,
0010
1000
0010
1000
0001
1000
0001
0000
0010
0000
0001
0000
1000
0010
1000
0000
,
0010
0100
0010
0000
0100
0001
0100
0000
0010
0000
0100
0000
0001
0100
0001
0000
,
1000
0001
1000
0001
1000
0010
1000
0000
0010
0000
0100
0000
0010
0100
0010
0000
,
1000
0010
1000
0000
0001
0100
0001
0000
1000
0000
0010
0000
0100
0010
0100
0000
,
0001
0100
0001
0100
0010
0100
0010
0000
0100
0000
0001
0000
0100
0010
0100
0000
,
0001
0100
0001
0000
1000
0100
1000
0000
0001
0000
1000
0000
0100
1000
0100
0000
,
0010
0100
0010
0100
1000
0001
1000
0000
0010
0000
1000
0000
0001
0010
0001
0000
,
1000
0010
1000
0000
0001
0100
0001
0000
1000
0000
0001
0000
0100
0001
0100
0001
,
1000
0010
1000
0010
0200
0001
0001
0001
0001
0001
0001
0001
0001
0001
0001
0301
,
1000
0000
0000
0000
1000
0000
0000
0000
1100
0000
0000
0000
0010
0000
0100
0000
1001
0000
0100
0000
0010
0000
0000
0000
1001
0000
0000
0101
0000
0000
1000
0000
,
0001
0000
0100
0000
0010
0000
0000
0000
0101
0000
0000
0000
1000
0000
0010
0000
1000
0000
0001
0000
0101
0000
0000
0000
0010
0000
0000
0101
0000
0000
1000
0000
,
1100
0000
0000
0000
1100
0000
0000
0000
0110
0000
0000
0000
0001
0000
0010
0000
0100
0000
1000
0000
1010
0000
0000
0000
0101
0000
0000
1000
0000
0000
0010
0000
,
0101
0000
0000
0000
0101
0000
0000
0000
1001
0000
0000
0000
1000
0000
0100
0000
0010
0000
0001
0000
0100
0000
0000
0000
1001
0000
0000
0100
0000
0000
0001
0000
,
1010
0000
0100
0000
0010
0000
0000
0000
0101
0000
0000
0000
1000
0000
0001
0000
0100
0000
0001
0000
1000
0000
0100
0000
0010
0000
0000
0100
0000
0000
1000
0000
,
1010
0000
1010
0000
0100
0000
0001
0100
1000
0100
0001
0100
0010
0001
0010
1000
,
1100
0000
0000
1001
0000
0000
0011
0000
1100
0000
0000
0000
0010
0000
0100
0000
1000
0000
0100
0000
0010
0000
0000
0000
0001
0000
0000
0010
0000
0000
1000
0000
,
0000
0000
0010
0000
0100
0000
0000
0000
1000
0000
0000
0100
0000
0000
1001
0000
0000
0000
0001
0000
0100
0000
0010
0000
1010
0000
0000
0101
0000
0000
1010
0000
,
1001
1001
0101
0000
0101
0000
0101
0000
,
0001
1000
1100
0000
1100
0000
1100
0002
,
1003
0200
1300
0000
0101
0000
0101
0000
,
0010
1000
0001
1000
0100
0000
0000
0000
1100
0000
0000
0000
0010
0001
0010
0001
,
1000
0001
1000
0001
0100
0000
0000
0000
0100
0000
0000
0000
0100
0000
0000
0000
,
0001
1000
0100
0000
0100
0000
0100
2000
,
3001
0200
0301
0000
0100
0000
0100
0000
,
0001
1000
0001
1000
0100
0000
0000
0000
0100
0000
0000
0000
0010
0001
0010
0001
,
0100
0001
0100
0001
0010
0000
0000
0000
0000
0000
0000
0000
0000
0000
0000
0000
;

//---------------dance-single - ----------------
#NOTES:
     dance-single:
     :
     Medium:
     7:
     0.390155,0.435948,0.138869,0.085966,0.029758,379.000000,21.000000,13.000000,0.000000,0.000000,0.000000,0.390155,0.435948,0.138869,0.085966,0.029758,379.000000,21.000000,13.000000,0.000000,0.000000,0.000000:
0000
0000
0000
0000
,
0000
0000
0000
0000
,
0000
0000
0000
0000
,
0000
0000
0000
0000
0000
0000
0000
0101
,
2002
0000
0000
0000
,
3003
0000
0000
0000
,
0000
0000
0000
0000
,
0000
0000
0000
0000
0000
0000
0010
1000
,
0002
0100
0100
0100
,
2003
0100
0100
0100
,
3002
0010
0010
0010
,
2003
0000
0010
0000
0010
0000
3010
0010
,
0201
0001
0001
0302
,
1000
1000
1000
2003
,
0010
0010
0010
3010
,
1000
0001
0100
0010
,
0202
0000
0003
0310
,
1100
0000
0010
0001
0010
0000
0001
0100
,
0001
0000
1000
0010
1000
0000
0100
1000
,
0100
0000
0010
0001
0010
0000
0100
0010
,
0100
0000
1000
0010
1000
0000
0001
1000
,
0100
0000
1000
0001
1000
0000
0010
0100
,
0010
0000
0100
0001
0100
0000
0010
1000
,
0010
0000
1000
0100
1000
0000
0001
0010
,
0001
0000
1000
0010
1000
0000
0100
0000
,
1001
0000
0001
1000
0100
0000
1000
0001
,
0100
0000
0010
1000
0100
0000
0010
0001
,
0100
0000
0001
0100
0010
0000
0100
0001
,
0010
0000
0100
1000
0010
0000
1000
0010
,
0100
0000
0010
0100
0010
0000
1000
0010
,
1000
0000
0001
0010
0100
0000
0010
0100
,
0010
0000
0100
1000
0001
0000
1000
0001
,
1000
0000
0100
1000
0001
0000
0101
0000
,
1000
0000
1000
0000
1000
0000
0010
1000
,
0001
0000
0001
0000
0001
0010
0001
0010
,
0001
0000
0001
0000
0001
0000
0010
0001
,
1000
0000
1000
0000
0010
1000
0100
1000
,
0001
0000
0001
0000
0001
0000
0010
0001
,
1000
0000
1000
0000
1000
0010
1000
0001
,
1000
0000
1000
0000
1000
0000
0010
1000
,
0101
0000
1000
0100
1000
0000
0001
0100
,
0001
0100
0010
0100
0001
0000
1000
0100
,
0010
0000
0100
1000
0010
0000
1000
0010
,
1000
0001
1000
0010
0100
0000
0001
0000
,
0101
0000
1000
0100
0010
0000
0100
1000
,
0010
1000
0010
0000
1000
0000
0001
0100
,
0010
0000
0100
0001
0100
0000
0010
0100
,
0001
0100
0001
1000
0010
0000
1000
0001
,
0100
0000
1001
0000
0010
0000
0001
1000
,
0100
0000
1000
0100
0010
0001
0010
0000
,
0100
1000
0100
0000
0010
0000
0100
0000
,
1000
0001
0100
0000
0001
0100
0001
1000
,
0010
1000
0010
0000
1000
0000
0001
0000
,
0010
0001
1000
0000
0100
1000
0100
0000
,
0010
0000
0100
0000
1001
0000
0010
0001
,
0100
0000
0010
0100
0001
0000
1000
0001
,
0100
0000
0010
0010
0010
0010
0010
0010
,
0100
0100
1001
0000
0001
0100
0010
0010
,
1000
0000
0100
0000
1001
0000
0000
0000
1000
0100
1000
0000
0001
0000
0001
0000
,
1000
0000
1000
0000
0101
0000
0000
0100
0010
0000
1000
0000
0002
0000
0000
0003
,
1000
0100
1000
0001
1001
0000
0010
1000
,
0101
0000
1001
0000
0010
0000
0000
0000
1000
0001
1000
0000
0010
0000
1000
0000
,
0100
1000
0100
0000
1000
0000
0000
0000
0001
0001
0001
0000
0100
0000
0001
0000
,
0010
0000
0100
0010
0200
0000
0000
0000
1300
0000
0100
0000
0010
0000
0001
0000
,
1000
0001
1000
0000
0001
0000
0100
0000
0010
0000
0100
0000
0001
0010
0001
0000
,
1000
0010
1000
0000
1001
0000
0000
0000
0001
0000
0000
0000
0001
0000
0000
0000
,
0100
0001
1000
0000
1000
0000
1000
0100
,
1000
0010
1000
0000
1000
0000
1000
0000
,
0010
1000
0001
0000
0001
0000
0010
0100
,
1000
0001
0100
0000
0100
0000
0100
0000
,
0010
1000
1000
0010
,
1000
0001
0001
0001
,
0010
0100
0100
0110
,
1100
1001
0000
0000
;

//---------------dance-single - ----------------
#NOTES:
     dance-single:
     :
     Easy:
     5:
     0.292852,0.314852,0.052902,0.079354,0.000000,290.000000,8.000000,12.000000,0.000000,0.000000,0.000000,0.292852,0.314852,0.052902,0.079354,0.000000,290.000000,8.000000,12.000000,0.000000,0.000000,0.000000:
// measure 0
0000
0000
0000
0000
,  // measure 1
0000
0000
0000
0000
,  // measure 2
0000
0000
0000
0000
,  // measure 3
0000
0000
0000
0000
0000
0000
0000
0100
,  // measure 4
0010
0000
0000
0000
,  // measure 5
0000
0000
0000
0000
,  // measure 6
0000
0000
0000
0000
,  // measure 7
0000
0000
0000
0000
0000
0000
0000
1000
,  // measure 8
0002
0100
0100
0100
,  // measure 9
2003
0100
0100
0100
,  // measure 10
3002
0010
0010
0010
,  // measure 11
2003
0010
0010
3010
,  // measure 12
0201
0001
0001
0302
,  // measure 13
1000
1000
1000
2003
,  // measure 14
0010
0010
0010
3020
,  // measure 15
0100
0230
0010
0310
,  // measure 16
0202
0000
0003
0310
,  // measure 17
1100
0000
0000
0010
0001
0000
0000
1000
,  // measure 18
0100
0000
0000
0010
0001
0000
0000
0001
,  // measure 19
1000
0000
0000
0010
1000
0000
0000
0100
,  // measure 20
1000
0000
0000
0010
0100
0000
0000
0100
,  // measure 21
0001
0000
0000
1000
0100
0000
0000
1000
,  // measure 22
0010
0000
0000
1000
0001
0000
0000
0001
,  // measure 23
0010
0000
0000
0001
1000
0000
0000
0010
,  // measure 24
1000
0000
0000
0001
0100
0000
0000
0100
,  // measure 25
0110
0000
0000
0010
1000
0000
0000
0001
,  // measure 26
1000
0000
0000
0010
1000
0000
0000
1000
,  // measure 27
0100
0000
0000
1000
0010
0000
0000
1000
,  // measure 28
0001
0000
0000
0010
0001
0000
0000
0001
,  // measure 29
1000
0000
0000
0010
0100
0000
0000
0010
,  // measure 30
1000
0000
0000
0100
0010
0000
0000
0010
,  // measure 31
0100
0000
0000
1000
0010
0000
0000
1000
,  // measure 32
0001
0000
0000
0100
0001
0000
0000
0000
,  // measure 33
1000
1000
1000
0010
,  // measure 34
0001
0001
0001
0100
,  // measure 35
1000
1000
1000
0010
,  // measure 36
0001
0001
0100
1000
,  // measure 37
0010
0010
0010
0001
,  // measure 38
0100
0100
0100
1000
,  // measure 39
0010
0010
0010
0001
,  // measure 40
0101
0000
1000
0000
0100
0000
1000
0100
,  // measure 41
1000
0000
0001
0000
0010
0000
0001
0010
,  // measure 42
0001
0000
1000
0000
0010
0000
1000
0010
,  // measure 43
1000
0001
0010
0100
,  // measure 44
1000
0000
0010
0000
1000
0000
0010
1000
,  // measure 45
0010
0000
0100
0000
0001
0000
0100
0001
,  // measure 46
0100
0000
0010
0000
0100
0000
0010
0100
,  // measure 47
0010
0000
1000
0000
0001
0000
0010
0001
,  // measure 48
0010
0000
1001
0000
0001
0000
0100
0001
,  // measure 49
0100
0000
0001
0000
1000
0000
0001
1000
,  // measure 50
0001
0000
0010
0000
0100
0000
0010
0100
,  // measure 51
0010
0000
0100
0000
1000
0000
0100
1000
,  // measure 52
0100
0000
0010
0000
0100
0000
1000
0100
,  // measure 53
1000
0000
0010
0000
0100
0000
0001
0100
,  // measure 54
0001
0000
1000
0000
0001
0000
1000
0100
,  // measure 55
1000
0001
1000
0010
,  // measure 56
0100
0020
0000
0000
,  // measure 57
0130
0100
1001
0000
0001
0000
0010
0010
,  // measure 58
0001
0001
1000
0000
0001
0000
0100
0100
,  // measure 59
0100
0000
0010
0000
1000
1000
0010
0010
,  // measure 60
0010
0000
1000
0000
0001
0000
0100
0001
,  // measure 61
0100
0000
0010
0000
1000
0000
0100
1000
,  // measure 62
0100
1000
0001
0000
1000
0001
0100
0010
,  // measure 63
1000
0001
0100
0000
0001
0000
1000
0001
,  // measure 64
0100
0000
0001
0000
0100
0100
0001
1000
,  // measure 65
0100
0010
0001
0000
0001
0000
0001
0000
,  // measure 66
0100
1000
1000
1000
,  // measure 67
0010
0001
0001
0001
,  // measure 68
0100
1000
1000
0010
,  // measure 69
0001
0100
0100
0100
,  // measure 70
0001
0010
0010
0010
,  // measure 71
1000
0100
0100
0100
,  // measure 72
0001
0010
1000
0100
,  // measure 73
0001
1001
0000
0000
;
