#TITLE:God's Green Earth;
#SUBTITLE:;
#ARTIST:AS-13 with IA;
#TITLETRANSLIT:;
#SUBTITLETRANSLIT:;
#ARTISTTRANSLIT:;
#GENRE:;
#CREDIT:;
#BANNER:godsgreenearth-bn.png;
#BACKGROUND:godsgreenearth-bg.png;
#LYRICSPATH:;
#CDTITLE:;
#MUSIC:God's Green Earth.ogg;
#OFFSET:0.000000;
#SAMPLESTART:30.717161;
#SAMPLELENGTH:15.400016;
#SELECTABLE:YES;
#BPMS:0.000000=62.499996
,8.000000=124.999992
,192.000000=62.499996
;
#STOPS:
;
#BGCHANGES:;
#KEYSOUNDS:;
#ATTACKS:;

//---------------dance-single - ----------------
#NOTES:
     dance-single:
     :
     Easy:
     3:
     0.000000,0.000000,0.000000,0.000000,0.000000,0.000000,0.000000,0.000000,0.000000,0.000000,0.000000,0.000000,0.000000,0.000000,0.000000,0.000000,0.000000,0.000000,0.000000,0.000000,0.000000,0.000000,0.000000,0.000000,0.000000,0.000000,0.000000,0.000000:
0000
0000
0000
0000
,
0000
0000
0000
0000
,
1001
0000
0100
0000
,
0100
0000
0100
0000
,
0010
0000
0010
0000
,
0010
0000
0010
0000
,
1001
0100
0001
0000
,
0001
0000
0001
1000
,
0100
1000
1000
0000
,
2002
0000
0000
3003
,
0100
0000
0010
1000
,
0100
0000
0010
0001
,
0100
0000
0010
1000
,
1001
0000
0110
0000
,
0001
1000
0100
0000
,
1000
0100
0010
0000
,
0001
0100
0001
0000
,
1000
1000
0100
0100
,
0001
0100
1000
0000
,
0001
0100
0010
0000
,
1000
0010
1000
0000
,
0001
0100
1000
0100
,
0001
0001
0100
0000
,
0001
0100
0010
0000
,
1000
0010
0100
0000
,
0100
0010
0100
0010
,
1000
0001
1000
0000
,
0001
0100
0010
0000
,
1000
0010
0100
0001
,
0010
0010
0100
0100
,
2002
3003
0002
0003
,
0100
0100
0200
0300
,
0001
0100
0002
0003
,
2000
3000
0020
0030
,
0010
1000
0200
0300
,
1000
0100
2000
3000
,
0001
0100
0010
0100
,
2002
3003
0220
0330
,
1000
1000
0010
1000
,
0001
0000
0001
0100
,
0010
0000
0100
0100
,
0001
1000
0100
0000
,
1000
0100
1000
0000
,
0001
0010
0100
0000
,
1000
0010
1000
0010
,
1000
0010
0100
0001
,
1000
0010
1000
0010
,
0200
0000
0000
0300
,
1001
0000
0001
0000
,
0100
0000
0000
0000
0000
0000
0000
0000
0000
0000
0000
0000
0000
0000
0000
0000
0010
0000
0000
0000
0000
0000
0000
0000
0000
0010
0000
0000
0000
0000
0000
0000
,
0000
0010
0000
0000
0000
0000
0000
0000
0000
0000
0000
0000
0000
0000
0000
0000
;

//---------------dance-single - ----------------
#NOTES:
     dance-single:
     :
     Medium:
     6:
     0.000000,0.000000,0.000000,0.000000,0.000000,0.000000,0.000000,0.000000,0.000000,0.000000,0.000000,0.000000,0.000000,0.000000,0.000000,0.000000,0.000000,0.000000,0.000000,0.000000,0.000000,0.000000,0.000000,0.000000,0.000000,0.000000,0.000000,0.000000:
0000
0000
0000
0000
,
0000
0000
0000
0000
,
1010
0000
0000
1000
0000
1000
0000
0010
,
1000
0000
0000
0001
0000
0001
0020
0000
,
0031
0000
0000
0001
0000
0001
0000
0100
,
0001
0000
0000
1000
0000
1000
0200
0000
,
1300
0000
0000
0000
0001
0000
0000
0001
0000
0000
0000
0000
0100
0000
0000
0000
,
0001
0000
0000
0000
1000
0000
0000
1000
0000
0000
0000
0000
0010
0000
0000
0000
,
1000
0000
0000
0000
0001
0000
0000
1000
0000
0000
0000
0000
0010
0000
0000
0000
,
0200
0300
1001
0000
,
0010
0000
0000
0000
1000
0000
0000
0100
0000
0000
0000
0000
1000
0000
0100
0000
,
1000
0000
0000
0000
0001
0000
0000
0100
0000
0100
0000
0000
0001
0000
0000
0000
,
1000
0000
0000
0000
0001
0000
0000
1000
0000
0000
0010
0000
1000
0000
0000
0000
,
1001
0000
0000
0000
0010
0000
0100
0000
0010
0000
0000
0110
0000
0000
1001
0000
,
0000
0001
0100
0000
0010
0000
0100
0001
,
0010
0000
0100
0000
1001
0000
1000
0001
,
0100
0000
0001
0000
1000
0100
0000
0100
,
1000
0000
0000
0000
0010
0000
0000
0000
1001
0000
0000
0001
0000
0000
0010
0000
,
0000
0010
1000
0000
0010
0000
0001
0000
,
0100
0001
0100
0001
0010
0000
0000
0010
,
0100
0000
1001
0000
1000
0001
0100
0000
,
0010
0000
0000
0000
0101
0000
0000
0000
1000
0000
0000
0010
0000
0000
0101
0000
,
0000
1000
0100
0000
1000
0001
0000
0001
,
0100
0000
0001
0000
1000
0000
1000
0001
,
0010
0000
1001
0000
0100
0010
0100
0000
,
1000
0000
0100
0000
0000
0000
0000
0000
1001
0000
0000
0100
0000
0000
0001
0000
,
1000
0000
0001
0100
0001
0000
0010
0000
,
1001
0000
0100
0000
1000
0000
1000
0010
,
0100
0000
0110
0000
0010
0000
1000
0001
,
1001
0101
1001
0100
,
1000
0100
1000
0000
0001
0100
0001
0000
,
1000
0010
1000
0000
0001
0010
0001
0000
,
0100
0010
0100
0000
0001
0100
0001
0000
,
1000
0010
1000
0000
0100
0010
0100
0000
,
1000
0100
1000
0000
1000
0010
1000
0000
,
0001
0010
0001
0000
0001
1000
0100
0000
,
1000
0100
1000
0000
1000
0001
0100
0000
,
1001
0000
0000
0000
0001
0000
1000
0000
0010
0000
0000
0010
0000
0000
0100
0000
,
0001
0000
0000
0000
0100
0000
0000
1000
0000
0000
0100
0000
0001
0000
0000
0000
,
1000
0000
0000
0000
0100
0000
1000
0000
0000
1000
0000
0000
0010
0000
0000
0000
,
1000
0000
0010
0000
0100
0010
1000
0000
,
0001
0000
0000
0001
0000
0000
0001
0000
0000
0000
1000
0000
0001
0000
0000
0000
,
0100
0000
0000
0001
0000
0000
0100
0000
0000
0000
0000
0000
0100
0000
0010
0000
,
0100
0000
0000
0010
0000
0000
1000
0000
0000
0000
0000
0000
0010
0000
0000
0000
,
1001
0000
0000
0001
0000
0000
0100
0000
0000
0001
0000
0000
0100
0000
0000
0001
,
0000
0000
0100
0000
0000
0001
0000
0000
0100
0000
0000
0000
0001
0000
1000
0000
,
0100
0000
0000
1000
0000
0000
0100
0000
0000
1000
0000
0000
0100
0000
0000
0000
,
0022
0000
0000
0033
,
1000
0000
0000
0000
0000
0000
0001
0000
0100
0000
0000
0000
0000
1000
0000
0000
,
0010
0000
0000
0000
0000
0000
0000
0000
0100
0000
0000
0000
0000
0000
0000
0000
0001
0000
0000
0000
0000
0000
0000
0000
0000
1000
0000
0000
0000
0000
0000
0000
,
0000
0100
0000
0000
0000
0000
0000
0000
0000
0000
0000
0000
0000
0000
0000
0000
;

//---------------dance-single - ----------------
#NOTES:
     dance-single:
     :
     Hard:
     9:
     0.500308,0.521507,0.278376,0.062859,0.332256,390.000000,359.000000,31.000000,7.000000,0.000000,0.000000,0.000000,0.000000,0.000000,0.500308,0.521507,0.278376,0.062859,0.332256,390.000000,359.000000,31.000000,7.000000,0.000000,0.000000,0.000000,0.000000,0.000000:
// measure 0
0000
0000
0000
0000
,  // measure 1
0000
0000
0000
0000
,  // measure 2
0002
0000
0000
0100
0000
1000
0000
0103
,  // measure 3
0002
0000
0000
0100
0000
1003
0100
0000
,  // measure 4
2000
0000
0000
0100
0000
0001
0000
3001
,  // measure 5
2000
0000
0000
3001
0000
0001
0100
0000
,  // measure 6
1001
0000
1000
0001
1000
0100
1000
0001
,  // measure 7
0100
0000
1000
0100
0001
0100
0001
0000
,  // measure 8
1000
0100
1000
0001
0000
0001
1000
0100
,  // measure 9
0020
0000
0130
0000
,  // measure 10
1001
0000
0000
0000
0001
0000
0100
0010
0000
0010
0000
0000
0100
0000
0010
0000
,  // measure 11
1000
0000
0010
0000
1000
0000
0000
0001
0000
1000
0000
0000
1000
0000
0001
0000
,  // measure 12
0100
0000
0001
0000
1000
0000
0001
0010
0000
0010
0000
0000
0001
0000
1000
0000
,  // measure 13
0110
0000
0000
0000
0010
0000
0100
0000
1001
0000
0000
1100
0000
0000
0101
0000
,  // measure 14
0100
0000
0100
0000
1001
0000
0000
0010
0100
0000
0010
0000
1001
0000
0000
0000
,  // measure 15
0100
0000
0001
0000
0110
0000
0000
0010
1000
0000
0001
0000
1000
0000
0010
0000
,  // measure 16
1000
0000
0100
0000
0110
0000
0000
0010
0001
0000
0010
0000
1001
0000
0000
0000
,  // measure 17
0100
0000
1000
0000
0001
0000
0001
0000
0010
0000
0001
1000
0000
0001
0010
0000
,  // measure 18
0001
1000
0101
0000
0010
1000
0001
1000
,  // measure 19
1000
0000
0001
0000
0010
0000
0000
1001
0000
0001
1000
0000
0010
0000
1000
0000
,  // measure 20
0001
0001
0100
0010
1000
1000
0100
0010
,  // measure 21
0001
0000
0000
1000
0100
0000
0000
0000
0101
0000
0000
1100
0000
0000
0101
0000
,  // measure 22
1000
0000
0001
0000
0100
0000
0000
0100
0001
0000
0010
0000
0001
0000
0100
0000
,  // measure 23
1000
0000
0100
0000
0001
0000
0000
0000
1000
0000
1000
0000
0101
0000
0000
0010
,  // measure 24
1000
0100
1000
0010
0010
1000
0100
1000
,  // measure 25
0001
0100
0000
0000
1001
0000
1000
0000
0100
0000
0001
0100
0000
0001
0100
0000
,  // measure 26
1000
0100
0010
0000
0001
0010
1001
1000
,  // measure 27
0010
1000
0001
0100
0020
0000
0130
0010
,  // measure 28
1000
0100
1000
0100
0001
0100
0010
0001
,  // measure 29
0100
0000
0000
0000
1010
0000
0000
0100
0010
0000
1000
0001
0000
0100
0010
0000
,  // measure 30
1000
0100
1000
0100
1000
0100
1000
0100
,  // measure 31
0001
0100
0001
0100
0001
0100
0001
0100
,  // measure 32
1000
0010
1000
0010
1000
0010
1000
0010
,  // measure 33
0001
0010
0001
0010
0001
0010
0001
0010
,  // measure 34
1000
0001
0100
0001
1000
0010
0100
0001
,  // measure 35
1000
0001
0100
0010
0100
0001
1000
0001
,  // measure 36
1000
0100
0010
0100
1000
0001
0010
0100
,  // measure 37
1000
0000
0010
0000
1000
0000
0001
0000
0100
0000
0010
0000
0100
0001
0100
0001
,  // measure 38
1000
0000
0000
1000
0100
0000
0010
0001
0000
0001
0000
0000
0100
0010
0100
0001
,  // measure 39
0100
0000
0010
0000
1000
0000
0100
1000
0000
0100
0000
0010
0001
0000
1000
0001
,  // measure 40
0100
0000
0000
0001
1000
0000
0100
1000
0000
1000
0100
0000
1000
0010
0000
0010
,  // measure 41
1000
0000
0000
0010
0000
0000
1001
0000
0000
0100
0001
0000
0100
0000
0010
0000
,  // measure 42
1000
0000
0000
0011
0000
0000
0101
0000
0000
0100
0010
1000
0001
0000
1000
0001
,  // measure 43
0100
0000
0100
0010
0000
0010
0100
0000
0000
0001
0100
0000
0010
0000
1000
0001
,  // measure 44
0010
0000
0000
1001
0000
0000
0010
0000
0000
1001
0000
0000
0100
0000
0000
1001
,  // measure 45
0000
0000
0100
0000
0000
1001
0000
0000
0100
0000
0010
1000
0010
0100
0001
0100
,  // measure 46
0001
0000
0000
0110
0000
0000
1000
0000
0000
0010
1000
0010
0100
0001
1000
0010
,  // measure 47
0100
0000
0000
0010
0000
0000
1001
0000
0000
0110
0000
0000
1001
0000
0000
0000
,  // measure 48
0100
0000
0000
0000
0010
0100
0001
0000
0100
1000
0000
0000
0000
0100
0000
0100
,  // measure 49
0010
0000
0000
0000
0000
0000
0000
0000
0000
0000
0000
0000
0100
0000
0000
0000
0000
0000
0000
0000
0000
0000
0000
0000
0000
0000
0000
0000
0000
0000
0000
0000
0000
0000
0000
0000
0000
0000
0000
0000
0000
0000
0000
0000
0000
0000
0000
0000
0001
0000
0000
0000
0000
0000
0000
0000
0000
0000
0000
0000
0000
0000
0000
0000
0000
0000
0000
0000
0000
0000
0000
0000
0100
0000
0000
0000
0000
0000
0000
0000
0000
0000
0000
0000
0000
0000
0000
0000
0000
0000
0000
0000
0000
0000
0000
0000
0010
0000
0000
0000
0000
0000
0000
0000
0000
0000
0000
0000
0000
0000
0000
0000
0000
0000
0100
0000
0000
0000
0000
0000
0000
0000
0000
0000
0000
0000
0000
0000
0000
0000
0000
0000
0001
0000
0000
0000
0000
0000
0000
0000
0000
0000
0000
0000
0000
0000
0000
0000
0000
0000
1000
0000
0000
0000
0000
0000
0000
0000
0000
0000
0000
0000
0000
0000
0000
0000
0000
0000
0100
0000
0000
0000
0000
0000
0000
0000
0000
0000
0000
0000
0000
0000
0000
0000
0010
0000
0000
0000
0000
0000
0000
0000
,  // measure 50
0000
0002
0000
0000
0000
0000
0000
0000
0003
0000
0000
0000
0000
0000
0000
0000
;
