#TITLE:Fun Warriors;
#SUBTITLE:;
#ARTIST:AS-13;
#TITLETRANSLIT:;
#SUBTITLETRANSLIT:;
#ARTISTTRANSLIT:;
#GENRE:;
#CREDIT:;
#BANNER:funwarriors-bn.png;
#BACKGROUND:funwarriors-bg.png;
#LYRICSPATH:;
#CDTITLE:;
#MUSIC:Fun Warriors.mp3;
#OFFSET:-0.040000;
#SAMPLESTART:73.405594;
#SAMPLELENGTH:12.000000;
#SELECTABLE:YES;
#BPMS:0.000000=170.000000
;
#STOPS:92.000000=0.700000,
202.000000=1.070000
;
#BGCHANGES:8.000=robot8.avi=1.000=0=0=1=====,
16.000=robot1.avi=1.000=0=0=1=====,
48.000=robot8.avi=1.000=0=0=1=====,
80.000=gradius5.avi=1.000=0=0=1=====,
92.000=robot2.avi=1.000=0=0=1=====,
94.000=robot9.avi=1.000=0=0=1=====,
126.000=robot10.avi=1.000=0=0=1=====,
158.000=robot13.avi=1.000=0=0=1=====,
190.000=gradius4.avi=1.000=0=0=1=====,
198.000=gradius5.avi=1.000=0=0=1=====,
202.000=funwarriors-bg.png=1.000=0=0=1=====,
203.000=gradius1.avi=1.000=0=0=1=====,
211.000=gradius2.avi=1.000=0=0=1=====,
219.000=gradius1.avi=1.000=0=0=1=====,
227.000=gradius3.avi=1.000=0=0=1=====,
235.000=gradius1.avi=1.000=0=0=1=====,
243.000=gradius2.avi=1.000=0=0=1=====,
251.000=gradius1.avi=1.000=0=0=1=====,
259.000=gradius3.avi=1.000=0=0=1=====,
267.000=robot13.avi=1.000=0=0=1=====,
291.000=robot8.avi=1.000=0=0=1=====,
298.000=funwarriors-bg.png=1.000=0=0=1=====,
99999=-nosongbg-=1.000=0=0=0 // don't automatically add -songbackground-
;
#KEYSOUNDS:;
#ATTACKS:;

//---------------dance-single - ----------------
#NOTES:
     dance-single:
     :
     Easy:
     4:
     0.256809,0.329325,0.184186,0.073675,0.000000,244.000000,219.000000,25.000000,10.000000,0.000000,0.000000,0.256809,0.329325,0.184186,0.073675,0.000000,244.000000,219.000000,25.000000,10.000000,0.000000,0.000000:
0000
0000
0000
0000
,
0000
0000
0000
0000
,
0000
0000
0000
0000
,
0000
0000
0000
0000
,
0000
1001
0100
0000
,
0010
0010
1000
0100
,
0000
1001
0010
0000
,
0100
0100
1000
0010
,
0000
1001
0010
0000
,
1000
1000
0010
0100
,
0000
1001
0100
0000
,
0001
0001
0010
0100
,
0000
1001
0010
0000
,
1000
0001
0100
0010
,
0000
1001
0100
0000
,
0010
1000
0001
0100
,
0000
0110
0001
0000
,
1000
0100
1000
0010
,
0000
0110
1000
0000
,
0010
1000
0100
0010
,
2002
0000
0000
0000
,
0000
0000
0000
3003
,
0010
0100
0010
0100
,
0110
0000
1000
1000
,
0010
1000
0001
1000
,
0200
0300
0001
0001
,
0100
0001
0010
0001
,
0200
0300
1000
1000
,
0010
1000
0001
0001
,
0010
0001
0100
0100
,
0010
1000
0010
1000
,
0200
0300
1001
0000
,
0010
0001
0010
0100
,
2000
3000
0010
0010
,
1000
0100
0001
0100
,
1000
0100
1000
0010
,
0020
0030
1000
0010
,
0100
0000
0001
0100
,
0010
1000
1000
0010
,
0100
0000
0000
0001
,
0000
0001
0000
0000
0000
0000
0001
0000
,
0000
0001
1000
1000
,
0000
1000
0000
0000
1000
0000
0000
1000
,
0000
1000
0001
0001
,
0000
0001
0000
0000
0000
0000
0001
0000
,
0000
0001
1000
1000
,
0000
1000
0000
0000
1000
0000
0000
1000
,
0000
1000
0010
0010
,
0010
0010
0100
0100
,
0100
0100
0010
1000
,
0001
0100
0010
0000
,
1001
0100
0000
0010
,
1000
0100
0010
0000
,
1001
0010
0000
0100
,
0010
0001
0100
0000
,
0110
1000
0000
0010
,
1000
0100
0010
0000
,
0110
0001
0000
0010
,
0001
1000
0100
0000
,
1001
0100
0000
0010
,
0100
0001
0010
0000
,
1001
0100
0000
1000
,
0100
0001
0100
0000
,
0110
1000
0000
0001
,
0010
0100
1000
0000
,
0110
0001
0000
0100
,
0010
1000
0100
0110
,
0002
1003
0000
0010
,
1000
0100
0100
0010
,
0100
1000
0000
0010
,
0100
0010
0220
0330
,
1000
0010
0000
1000
,
0100
0010
0100
1000
,
0001
0010
0000
1001
,
0110
0110
1001
0000
;

//---------------dance-single - ----------------
#NOTES:
     dance-single:
     :
     Medium:
     7:
     0.401000,0.411657,0.287331,0.051572,0.000000,381.000000,342.000000,39.000000,7.000000,0.000000,0.000000,0.401000,0.411657,0.287331,0.051572,0.000000,381.000000,342.000000,39.000000,7.000000,0.000000,0.000000:
0000
0000
0000
0000
,
0000
0000
0000
0000
,
0000
0000
0000
0000
,
0000
0000
0000
0000
,
0000
1001
0010
0100
,
0001
0000
0100
0010
0000
0100
0001
0000
,
0000
0011
1000
0100
,
0010
0000
0100
1000
0000
0100
1000
0000
,
0010
0000
1001
0000
0100
0001
0100
0000
,
0010
0000
1000
0100
0000
1000
0100
0000
,
0010
1001
0100
0010
,
0001
0100
0001
0100
0000
0010
0100
0000
,
1001
0000
0010
0000
0100
1000
0100
0000
,
0010
0001
0000
0010
0000
0100
1000
0000
,
0010
0101
0100
0001
,
0010
0001
0010
0001
0000
0010
0001
0000
,
1000
0000
0100
0000
0010
0001
0100
0000
,
0010
0000
0100
0001
0000
0100
0010
0000
,
1000
1000
0100
0000
0010
0000
0100
0000
,
1000
0100
0000
0010
0000
0100
0010
0000
,
0001
0100
0001
0000
0001
0100
0001
0000
,
1000
0010
1000
0000
1000
0010
1000
0000
,
0001
0100
0001
0100
0001
0100
0001
0100
,
0010
0110
1000
0100
,
0010
0001
0100
0000
0001
0100
0000
0010
,
0000
0100
0001
0000
1000
0100
1000
0000
,
0010
0000
1000
0000
0100
1000
0000
0010
,
0000
1000
0010
0000
1000
0010
1000
0000
,
0001
0000
0100
0000
0001
0100
0000
0010
,
0000
0100
0001
0000
0010
0001
0010
0000
,
0001
0000
0100
0000
0010
1000
0010
1000
,
0000
0001
0100
0000
1010
0000
0100
0000
,
0010
1000
0010
0000
0100
0001
0000
0100
,
0000
0010
0100
0000
0001
0010
0001
0000
,
1000
0000
0100
1000
0100
1000
0000
0010
,
0000
1000
0010
0000
1000
0001
1000
0000
,
0001
0000
0100
0000
0001
0100
0000
0010
,
0000
0100
0010
0000
1000
0000
1100
0000
,
0100
0000
1000
0000
0010
1000
0000
0001
,
1001
0110
0010
1001
,
0000
0110
0000
0000
0100
0001
0000
0101
,
0000
1001
1000
1010
,
0000
1001
0000
0000
0100
1100
0000
1100
,
0000
0011
1000
0110
,
0000
1001
0000
0000
0001
0011
0000
0011
,
0000
0011
1000
1010
,
0000
0110
0000
0001
0101
0000
0100
0100
,
0000
1001
2000
0100
,
0100
0100
3002
0010
,
0010
0000
0010
0000
1003
0010
1000
0010
,
1000
0010
1000
0010
1000
0000
0001
0000
,
0110
0000
0010
0001
0010
0000
0100
0000
,
1000
0010
0000
1000
0100
0000
0010
0000
,
1001
0000
0001
0000
0100
0001
0010
0000
,
0001
0100
0000
0001
0010
0000
0100
1000
,
0100
0000
0010
0000
1001
0000
1000
0010
,
1000
0001
0000
1000
0100
0000
1000
0100
,
1000
0100
0010
1001
,
0100
0010
0000
0010
0100
0000
0011
0000
,
2000
0000
3100
0000
0010
0100
1000
0000
,
0100
0010
0000
0100
1000
0000
0001
0100
,
0001
0000
0010
0000
0001
0000
0100
0010
,
0100
0010
0000
0100
0001
0000
1000
0001
,
1000
0000
0100
0000
1000
0100
1000
0000
,
0100
0010
0000
0100
0010
0000
0001
0000
,
0010
0000
1001
0000
0100
0000
1000
0010
,
1000
0001
0000
1000
0100
0000
0010
0000
,
2001
0000
3100
0000
0000
0000
1000
0100
,
0000
1000
0000
0010
0100
0000
0001
0000
,
1200
0000
0310
0000
0100
0000
1000
0010
,
0000
0001
0000
0010
1000
0000
0000
0000
,
0201
0000
0310
0000
0100
0000
0001
0100
,
0000
1000
0000
0100
0001
0000
1000
0000
,
1002
0000
0013
0000
0000
0000
0100
1000
,
0100
0010
0000
0100
1000
0000
0000
0000
;

//---------------dance-single - ----------------
#NOTES:
     dance-single:
     :
     Hard:
     9:
     0.515722,0.548876,0.383108,0.036837,0.018419,490.000000,438.000000,52.000000,5.000000,0.000000,0.000000,0.515722,0.548876,0.383108,0.036837,0.018419,490.000000,438.000000,52.000000,5.000000,0.000000,0.000000:
// measure 0
0000
0000
0000
0000
,  // measure 1
0000
0000
0000
0000
,  // measure 2
0000
0000
0000
0000
,  // measure 3
0000
0000
0000
0000
,  // measure 4
0000
0000
1001
0000
0010
1000
0100
0000
,  // measure 5
1000
0000
0100
0010
0000
0001
1000
0000
,  // measure 6
0001
0100
0010
0000
1000
0000
0010
1000
,  // measure 7
0100
0010
0000
1100
0000
0000
0011
0000
,  // measure 8
1000
0000
0101
0000
0010
1000
0100
0000
,  // measure 9
1000
0100
0010
0001
0010
0100
1000
0000
,  // measure 10
0001
0100
0010
0000
1001
0000
0001
1000
,  // measure 11
0010
0000
0100
0000
0001
0000
1000
0000
0010
0000
0100
0000
0001
0000
0100
0010
,  // measure 12
0100
0000
1001
0000
0010
1000
0100
0000
,  // measure 13
0010
0100
1000
0010
0000
0100
0010
0000
,  // measure 14
1000
0001
0110
0000
1000
0000
0010
0000
,  // measure 15
0100
0001
0100
0010
1000
0010
0100
0000
,  // measure 16
0001
0100
1020
0000
0130
0000
1001
0000
,  // measure 17
1000
0100
0010
0001
0000
0001
0010
0000
,  // measure 18
1100
0000
0010
0100
1000
0100
0001
0000
,  // measure 19
0100
1000
0010
0101
0000
1000
1010
0000
,  // measure 20
0100
0100
0010
0010
1000
1000
0001
0001
,  // measure 21
0100
0100
0010
0010
1000
1000
0001
0001
,  // measure 22
0100
0000
0010
0000
1000
0000
0001
0000
0100
0000
0010
0000
1000
0001
1000
0001
,  // measure 23
1000
0000
0110
0000
0001
0100
0010
0000
,  // measure 24
1000
0100
0010
0000
0001
0100
0000
1010
,  // measure 25
0000
0100
0001
0000
1000
0100
0010
0000
,  // measure 26
0100
1000
0010
0000
0100
0001
0100
0010
,  // measure 27
1000
0001
0100
0000
0010
1000
0001
0000
,  // measure 28
0010
0001
0100
0000
1000
0100
1000
0100
,  // measure 29
0001
0100
0010
0000
1000
0100
0010
0000
,  // measure 30
0001
0010
0100
1000
0000
0011
0000
1100
,  // measure 31
0000
0010
0001
1000
1001
0001
0100
0000
,  // measure 32
0010
1000
0100
1000
0100
0010
0000
0101
,  // measure 33
0000
1000
0001
0100
0001
0000
1000
0010
,  // measure 34
0100
0001
0100
0010
0000
0101
0000
1010
,  // measure 35
0000
0010
0100
0000
0001
0010
0100
1000
,  // measure 36
0100
0010
0001
0100
0010
1000
0001
0100
,  // measure 37
0000
0100
0010
0000
1000
0100
0001
0100
,  // measure 38
1000
0010
0100
0001
0000
1010
0000
0011
,  // measure 39
0000
1000
0001
0000
0010
0010
1001
0000
,  // measure 40
0100
1100
0000
0010
0100
1100
0000
1001
,  // measure 41
0000
0000
0101
0000
0010
0010
1010
0000
,  // measure 42
1000
0101
0000
0001
0010
1001
0000
1001
,  // measure 43
0000
0100
1000
0001
1000
1000
0101
0000
,  // measure 44
0001
0101
0000
0000
0100
1001
0000
0101
,  // measure 45
0000
0010
1001
0000
0100
0001
0101
0000
,  // measure 46
1000
0101
0000
0010
1010
1000
1001
0101
,  // measure 47
0000
0001
1001
1000
0010
1000
0010
1000
,  // measure 48
0010
1000
0010
1000
0001
0010
0001
0010
,  // measure 49
0001
0010
0001
0010
0100
0100
0010
0010
,  // measure 50
0001
0000
0001
0000
1000
0001
1000
0001
1000
0000
0000
0000
0010
0000
1000
0000
,  // measure 51
0100
0000
0010
0001
0100
0000
0001
0100
,  // measure 52
0010
1000
0001
0100
0010
0000
1000
0100
,  // measure 53
0010
0000
0100
0000
1000
0100
0010
0001
,  // measure 54
0100
0010
0000
0010
0100
0000
0001
0100
,  // measure 55
1010
0000
1000
0010
0100
0001
0010
0001
,  // measure 56
0000
1100
0000
0100
0010
0000
0001
0010
,  // measure 57
1100
0000
1001
0100
0001
0100
0010
1000
,  // measure 58
0000
1100
0000
0010
0100
0000
1001
0100
,  // measure 59
0002
0000
0013
0001
0100
0001
0010
0000
,  // measure 60
0100
0001
0000
0100
1000
0000
0001
0100
,  // measure 61
0010
1000
0010
0000
0100
0001
0010
0100
,  // measure 62
1000
0010
0100
0001
0010
0000
0100
1000
,  // measure 63
1020
0000
0130
0001
0100
0000
0010
1000
,  // measure 64
0001
0010
0001
1000
0100
0000
1000
0100
,  // measure 65
0010
0100
0011
0000
0001
0100
0010
1000
,  // measure 66
0100
0001
0000
0100
1000
0000
0010
0000
,  // measure 67
1002
0000
0103
0000
0010
0100
0001
0000
,  // measure 68
0010
0001
0000
1000
0100
0000
1000
0010
,  // measure 69
1000
0000
0100
0000
0010
0100
1000
0010
,  // measure 70
0000
0100
0000
0100
0010
0000
1001
0000
,  // measure 71
0100
0000
0001
1000
0100
0000
0010
0001
,  // measure 72
1000
0100
0000
0100
0010
0000
0100
1000
,  // measure 73
0020
0000
0130
0001
0100
0001
0010
0100
,  // measure 74
1000
0010
0100
0001
0010
0000
0000
0000
;
