#VERSION:0.83;
#TITLE:Following the Leader;
#SUBTITLE:(AS-13 Dubstep Remix);
#ARTIST:AS-13;
#TITLETRANSLIT:;
#SUBTITLETRANSLIT:;
#ARTISTTRANSLIT:;
#GENRE:;
#ORIGIN:;
#CREDIT:;
#BANNER:followdub-bn.png;
#BACKGROUND:followdub-bg.png;
#PREVIEWVID:;
#JACKET:;
#CDIMAGE:;
#DISCIMAGE:;
#LYRICSPATH:;
#CDTITLE:;
#MUSIC:Following the Leader (AS-13 Dubstep Remix).mp3;
#OFFSET:-0.080000;
#SAMPLESTART:57.999027;
#SAMPLELENGTH:12.000000;
#SELECTABLE:YES;
#BPMS:0.000=145.000;
#STOPS:136.000=1.250;
#DELAYS:;
#WARPS:;
#TIMESIGNATURES:0.000=4=4;
#TICKCOUNTS:0.000=4;
#COMBOS:0.000=1;
#SPEEDS:0.000=1.000=0.000=0;
#SCROLLS:0.000=1.000;
#FAKES:;
#LABELS:0.000=Song Start;
#BGCHANGES:8.000=FollowingTheLeader.mp4=1.000=1=0=1===CrossFade==,
99999=-nosongbg-=1.000=0=0=0 // don't automatically add -songbackground-
;
#KEYSOUNDS:;
#ATTACKS:
;

//---------------dance-single - Blank----------------
#NOTEDATA:;
#CHARTNAME:Blank;
#STEPSTYPE:dance-single;
#DESCRIPTION:Blank;
#CHARTSTYLE:;
#DIFFICULTY:Hard;
#METER:8;
#RADARVALUES:0.593315,0.565243,0.553113,0.077630,0.160112,428.000000,371.000000,57.000000,8.000000,0.000000,0.000000,0.000000,0.000000,0.000000,0.593315,0.565243,0.553113,0.077630,0.160112,428.000000,371.000000,57.000000,8.000000,0.000000,0.000000,0.000000,0.000000,0.000000;
#CREDIT:Blank;
#NOTES:
0000
0000
0000
0000
,
0000
0000
0000
0000
,
0101
0000
0100
0000
0001
0000
0100
0000
0001
0000
0000
0001
0000
0000
0010
0000
,
0001
0000
0000
0001
0000
0000
0100
0000
0001
0000
0000
0001
0000
0000
0001
0000
,
1000
0000
0100
0000
1000
0000
0010
0000
1000
0000
0000
1000
0000
0000
0100
0000
,
1000
0010
0100
0001
0202
0000
0303
0010
,
1000
0000
0100
0000
0010
0000
0100
0000
1000
0000
0000
1000
0000
0000
0010
0000
,
1000
0000
0000
1000
0000
0000
0001
0000
1000
0000
0000
1000
0000
0000
1000
0000
,
0100
0000
0010
0000
0001
0000
0100
0000
0001
0000
0000
0001
0000
0000
0010
0000
,
0001
1000
0010
0100
0010
0000
1001
0000
,
0010
0000
0100
0000
0001
0000
0100
0000
0101
0000
0000
0001
0000
0000
0010
0000
,
0100
0000
0000
1000
0000
0000
0010
0000
0100
0000
0000
0001
0000
0000
0010
0000
,
0110
0000
0100
0000
1000
0000
0100
0000
0010
0000
0000
0001
0000
0000
0100
0000
,
0101
0000
0001
0000
1000
0000
0001
0000
1000
0000
0000
0010
0000
0000
1001
0000
,
1000
0000
0100
0000
0001
0000
0100
0000
1100
0000
0000
1100
0000
0000
0010
0000
,
0100
0000
0000
0010
0000
0000
0001
0000
0011
0000
0000
0011
0000
0000
0010
0000
,
0100
0000
1000
0000
0010
0000
0100
0000
0001
0000
0000
0101
0000
0000
0100
0000
,
0010
1000
0010
1000
0001
0100
0001
0100
,
0110
0000
1000
0100
0110
0000
0001
0100
,
0010
1000
0100
0010
0001
1000
0001
1000
,
1100
0000
0100
0010
1100
0000
0010
0100
,
0011
0001
0010
0100
1000
0000
0001
0100
,
0101
0000
0010
1000
1010
0000
0100
0010
,
1000
0010
0100
0001
0101
0000
0100
0010
,
1000
0001
1000
0001
0100
0001
0100
0001
,
1000
0000
0000
0100
0000
0000
0001
0000
0000
0100
0000
0000
1000
0000
0001
0000
,
0101
0000
0010
0010
1010
0000
0100
0100
,
0101
0001
0100
0001
1000
0000
0100
1000
,
1001
0000
0001
0100
0010
0000
1000
0100
,
0010
0001
0010
0100
1000
0000
0010
1000
,
0100
0000
0001
0100
1000
0000
0001
0100
,
1000
0100
0001
0100
0101
0000
0010
1000
,
0001
0100
0010
1000
0001
0100
0010
1000
,
1001
0000
0000
0101
0000
0000
1010
0000
0000
0101
0000
0000
1001
0000
0000
0000
,
0110
0000
0000
0000
1010
0000
1000
0000
0100
0000
0010
0000
0001
0000
0000
0101
,
0000
0000
0100
0000
0010
0000
0000
1010
0000
0000
1000
0000
0001
0000
0000
0011
,
0000
0000
0010
0000
0100
0000
1000
0000
0100
0000
0010
0000
0001
0000
0000
0101
,
0000
0000
0100
0000
0010
0000
1000
0000
0100
0000
0010
0000
0001
0000
0000
1000
,
0000
0000
0001
0000
0100
0000
0010
0000
1000
0000
0010
0000
0100
0000
0000
0101
,
0000
0000
0001
0000
1000
0000
0000
1100
0000
0000
0100
0000
0010
0000
0000
0011
,
0000
0000
0001
0000
0100
0000
0001
0000
1000
0000
0010
0000
1000
0000
0000
0100
,
0000
0001
0100
1000
0010
0100
0202
0000
,
0303
0010
2020
0000
3030
0100
0202
0000
,
0303
0010
0100
0010
0100
0001
1000
0000
,
0010
1000
0100
0000
0010
0001
0100
0000
,
1000
0100
1000
0100
0001
0100
0001
1000
,
0001
1000
0100
0000
1000
0010
0110
0000
,
0100
0001
1001
0000
1000
0001
0100
0000
,
0010
0100
0001
1000
0010
0000
1000
0001
,
0010
0000
0100
1000
0100
1000
0010
0100
,
0010
0100
0101
0000
0001
1000
1100
0000
,
1000
0001
0101
0100
0001
0100
0001
0000
,
1000
0010
1001
0000
0001
0010
1001
0000
,
1000
0000
0010
0000
0001
0000
0010
0000
1000
0000
0100
0000
0010
0000
0000
0001
,
0000
1000
1010
0000
0010
1000
0100
0000
,
0010
0100
0110
1000
0001
1000
0001
0000
,
0100
0001
1000
0100
0010
0001
0100
0010
,
1000
0000
0100
0000
0110
0000
0000
0011
0000
0000
0101
0000
0000
0110
0000
0000
,
1010
1001
0000
0000
;

//---------------dance-single - ----------------
#NOTEDATA:;
#CHARTNAME:;
#STEPSTYPE:dance-single;
#DESCRIPTION:;
#CHARTSTYLE:;
#DIFFICULTY:Medium;
#METER:7;
#RADARVALUES:0.465780,0.452195,0.553113,0.038815,0.067926,336.000000,279.000000,57.000000,4.000000,0.000000,0.000000,0.000000,0.000000,0.000000,0.465780,0.452195,0.553113,0.038815,0.067926,336.000000,279.000000,57.000000,4.000000,0.000000,0.000000,0.000000,0.000000,0.000000;
#CREDIT:;
#NOTES:
0000
0000
0000
0000
,
0000
0000
0000
0000
,
1001
0001
0100
0100
,
1001
1000
0100
0100
,
1001
0001
0100
0100
,
0010
1000
1100
0000
,
0101
0010
1000
1000
,
1100
0010
0001
0001
,
0101
0010
1000
1000
,
0100
0010
2002
3003
,
1010
0000
0000
0000
0101
0000
0000
0000
0100
0000
0000
0100
0000
0000
0010
0000
,
1000
0000
0000
1000
0000
0000
0010
0000
0100
0000
0000
0100
0000
0000
0001
0000
,
0011
0000
0000
0000
1100
0000
0000
0000
0100
0000
0000
0100
0000
0000
0010
0000
,
0001
0000
0001
0010
0100
0000
1001
0000
,
1010
0000
0000
0000
1100
0000
0000
0000
0010
0000
0000
0010
0000
0000
0001
0000
,
0100
0000
0000
0100
0000
0000
0001
0000
0010
0000
0000
0010
0000
0000
0001
0000
,
0011
0000
0000
0000
0101
0000
0000
0000
0010
0000
0000
0010
0000
0000
1000
0000
,
0100
0000
0100
1000
0010
0000
0100
0001
,
0101
0000
0100
0010
0100
0000
0001
0100
,
0010
0000
1000
0000
1100
0000
0010
0100
,
0010
0000
0001
1000
0010
0000
1000
0001
,
0010
0000
0001
0000
0101
0000
0100
0010
,
1000
0000
0010
1000
0010
0000
0100
0010
,
1000
0000
0001
0000
1001
0000
0010
1000
,
0001
0101
1000
1100
,
0001
0000
1000
0000
0100
0010
0001
0000
,
0101
0000
0100
0001
1000
0000
0010
1000
,
0001
0000
0010
0000
0110
0000
0100
0010
,
0001
0000
0010
0100
0010
0000
0001
1000
,
0010
0000
1000
0000
1100
0000
0100
0010
,
0100
0000
1000
0100
1000
0000
0001
0100
,
0001
1000
1001
0101
,
0101
0110
0110
1010
,
1001
0000
0000
0100
0000
0000
0010
0000
0000
0100
0000
0000
0010
0000
0000
0000
,
0101
0000
0010
1000
0010
0000
0101
0000
,
1000
1100
0010
1001
,
0100
0000
1000
0001
0100
0000
0101
0000
,
0010
0000
1000
0100
0010
0000
2002
0000
,
3003
0000
0010
1000
0001
0000
0101
0000
,
0010
1001
0100
0101
,
0010
0000
1000
0010
0100
0000
0101
0000
,
1000
0000
0100
1000
0001
0000
0101
0000
,
0000
0100
0010
0000
0100
0001
0100
0000
,
0010
1000
0010
0000
0100
0000
0101
0000
,
1000
0001
0100
0000
0001
1000
0100
0000
,
1000
0001
0100
0000
0010
0000
1001
0000
,
0001
0100
0001
0000
1000
0010
1000
0000
,
0100
0010
0100
0000
1000
0000
1100
0000
,
0001
0000
0100
0010
1000
0000
0100
0010
,
0001
0000
0000
0000
1000
0000
0000
0010
0000
0000
1000
0000
0000
0010
0000
0000
,
0100
0000
0101
0000
0001
0100
0001
0000
,
1000
0010
0100
0000
0001
0000
0101
0000
,
0100
0001
1000
0000
0001
1000
0001
0000
,
0010
0001
0010
0000
0100
0000
1100
0000
,
1000
0010
0100
0000
0010
0100
0010
0000
,
1000
0001
1000
0000
0010
0000
1001
0000
,
1010
1010
0110
0110
,
1001
0000
0000
0000
0100
0000
0000
0001
0000
0000
0010
0000
0000
1000
0000
0000
,
0100
1001
0000
0000
;

//---------------dance-single - ----------------
#NOTEDATA:;
#CHARTNAME:;
#STEPSTYPE:dance-single;
#DESCRIPTION:;
#CHARTSTYLE:;
#DIFFICULTY:Easy;
#METER:4;
#RADARVALUES:0.278636,0.282622,0.310520,0.058222,0.000000,201.000000,169.000000,32.000000,6.000000,0.000000,0.000000,0.000000,0.000000,0.000000,0.278636,0.282622,0.310520,0.058222,0.000000,201.000000,169.000000,32.000000,6.000000,0.000000,0.000000,0.000000,0.000000,0.000000;
#CREDIT:;
#NOTES:
// measure 0
0000
0000
0000
0000
,  // measure 1
0000
0000
0000
0000
,  // measure 2
0001
0000
0100
0000
,  // measure 3
0010
0000
1000
0000
,  // measure 4
0001
0000
0010
0000
,  // measure 5
0100
0000
1000
0000
,  // measure 6
0010
0000
0100
0000
,  // measure 7
0001
0000
1000
0000
,  // measure 8
0100
0000
0010
0000
,  // measure 9
2002
0000
3003
0110
,  // measure 10
1000
0100
0010
0010
,  // measure 11
0100
0100
1000
1000
,  // measure 12
0001
0100
0010
0010
,  // measure 13
1000
0001
1001
0000
,  // measure 14
0001
0010
0100
0100
,  // measure 15
1000
1000
0010
0010
,  // measure 16
0100
0001
0010
0010
,  // measure 17
0100
1000
1001
0000
,  // measure 18
0110
0000
1001
0000
,  // measure 19
0001
0100
0010
0000
,  // measure 20
1001
0000
0110
0000
,  // measure 21
1000
0100
0010
0000
,  // measure 22
1001
0000
0110
0000
,  // measure 23
0001
0010
0100
0010
,  // measure 24
0001
0010
0100
0010
,  // measure 25
0001
0000
0001
0000
,  // measure 26
1001
0000
0110
0000
,  // measure 27
0100
0010
1000
0000
,  // measure 28
0110
0000
1001
0000
,  // measure 29
0001
1000
0100
0000
,  // measure 30
0110
0000
1001
0000
,  // measure 31
0100
0010
1000
0010
,  // measure 32
0100
0010
1000
0010
,  // measure 33
0100
0010
0100
0010
,  // measure 34
0110
0001
0000
0100
,  // measure 35
0100
0010
0010
0100
,  // measure 36
0100
0001
1000
0100
,  // measure 37
0100
1000
0001
2002
,  // measure 38
3003
0010
1000
0001
,  // measure 39
0001
0100
0100
0010
,  // measure 40
0010
0100
0001
0010
,  // measure 41
0010
0001
1000
2002
,  // measure 42
3003
0110
0000
1001
,  // measure 43
0000
0100
0010
1000
,  // measure 44
0000
1001
0000
0110
,  // measure 45
0000
0100
1000
0001
,  // measure 46
0000
0110
0000
1001
,  // measure 47
0000
1000
0010
0100
,  // measure 48
0010
1000
0010
0100
,  // measure 49
0010
1000
0000
0001
,  // measure 50
0000
1001
0000
0110
,  // measure 51
0000
0010
1000
0100
,  // measure 52
0000
0110
0000
1001
,  // measure 53
0000
0010
0001
0100
,  // measure 54
0000
1001
0000
0110
,  // measure 55
0000
0100
0001
0010
,  // measure 56
0001
0100
0001
0010
,  // measure 57
0001
0100
0010
0100
,  // measure 58
0010
1001
0000
0000
;
