#TITLE:Fascination MAXX;
#SUBTITLE:(AS-13 Remix);
#ARTIST:AS-13;
#TITLETRANSLIT:;
#SUBTITLETRANSLIT:;
#ARTISTTRANSLIT:;
#CREDIT:;
#BANNER:fascination-bn.bmp;
#BACKGROUND:fascination-bg.bmp;
#LYRICSPATH:;
#CDTITLE:;
#MUSIC:Fascination Maxx (AS-13 Remix).mp3;
#OFFSET:-0.040;
#SAMPLESTART:91.208;
#SAMPLELENGTH:12.000;
#SELECTABLE:YES;
#BPMS:0.000=400.000,8.000=100.000,56.000=200.000,62.000=400.000,190.000=100.000,192.000=400.000,199.000=200.000,200.000=400.000,205.000=200.000,206.000=400.000,214.000=132.500,215.000=400.000,227.000=200.000,228.000=400.000,243.000=135.000,244.000=400.000,249.000=200.000,329.000=50.000,331.000=300.000,343.000=400.000,455.000=200.000,459.000=100.000,459.500=200.000,460.000=100.000,461.000=200.000,461.500=400.000,575.500=200.000,576.500=400.000,577.500=200.000,578.500=400.000,579.500=200.000,580.500=400.000;
#STOPS:60.000=0.160
,60.500=0.160
,61.000=0.060
,61.250=0.160
,61.750=0.070
;
#BGCHANGES:;

//---------------dance-single - Blank----------------
#NOTES:
     dance-single:
     Blank:
     Hard:
     10:
     0.891,1.000,0.781,0.045,0.071: // measure 1
0000
0000
0000
0000
,  // measure 2
0000
0000
0000
0000
,  // measure 3
1001
0000
0000
0000
0100
0001
0100
0001
0100
0000
0001
1000
0001
1000
0001
0000
,  // measure 4
1000
0000
1100
0000
1100
0000
1100
0000
1001
0000
0001
0000
0100
0010
0100
0010
,  // measure 5
0100
0000
0001
0100
0001
0100
0001
0000
1000
0000
0001
0000
1000
0000
0001
0000
,  // measure 6
0101
0000
0000
0000
0100
0010
0100
0000
0010
0100
0010
0000
1000
0000
0001
0000
,  // measure 7
0100
0000
0101
0000
0000
0000
0010
0000
1010
0000
0000
0000
1000
0100
1000
0000
,  // measure 8
0001
0100
0001
0000
0101
0000
0000
0000
1000
0010
1000
0000
0001
0010
0001
0000
,  // measure 9
1000
0100
0010
0100
0001
0100
1100
1000
,  // measure 10
0100
0110
0010
0001
1001
1000
0010
1000
,  // measure 11
1100
0110
0011
0001
1000
0001
0100
0001
,  // measure 12
0101
0000
0010
1001
0000
1000
0101
0000
,  // measure 13
0010
1010
1001
1001
0101
0100
0010
0100
,  // measure 14
0101
0101
1001
1000
0001
1001
0100
0010
,  // measure 15
1000
0001
0100
0010
1000
0001
0100
0010
,  // measure 16
0101
0000
1001
0000
1100
1100
0000
1001
0001
0000
0000
0000
0100
0000
0000
0000
,  // measure 17
0001
0100
0010
1000
,  // measure 18
0100
1000
0010
0100
,  // measure 19
0010
0100
0001
0100
,  // measure 20
0010
1000
0100
1000
,  // measure 21
0001
1000
0010
1000
,  // measure 22
0001
1000
0001
0010
,  // measure 23
0100
1000
0100
0010
,  // measure 24
0001
0010
0100
0001
,  // measure 25
0100
1000
0100
0010
,  // measure 26
0001
1000
0010
0100
,  // measure 27
0010
0001
0010
1000
,  // measure 28
0100
0010
0001
1000
,  // measure 29
0100
0001
0100
1000
,  // measure 30
0001
0100
1000
0100
,  // measure 31
0001
1000
0100
0010
,  // measure 32
0001
0010
0100
1000
,  // measure 33
0001
0100
0010
1000
,  // measure 34
0001
0100
0010
1000
,  // measure 35
0100
1000
0001
0100
,  // measure 36
0001
0010
0100
1000
,  // measure 37
0010
0100
1000
0100
,  // measure 38
0001
1000
0100
0010
,  // measure 39
1000
0010
0001
1000
,  // measure 40
0100
0010
0001
0100
,  // measure 41
0010
1000
0100
0001
,  // measure 42
0100
1000
0001
0100
,  // measure 43
0010
0001
0010
1000
,  // measure 44
0001
0010
0100
1000
,  // measure 45
0001
0100
0010
1000
,  // measure 46
0100
0010
0001
1000
,  // measure 47
0010
0100
0001
0100
,  // measure 48
0010
0000
0000
0000
1000
0000
0000
0000
0001
0100
0001
0000
1000
0001
0000
0100
,  // measure 49
0010
1010
1000
0001
,  // measure 50
1001
1000
0010
1010
,  // measure 51
1000
0001
0101
0100
,  // measure 52
0001
1001
1000
0100
,  // measure 53
0110
0010
0100
1100
,  // measure 54
1000
0001
1001
0101
,  // measure 55
0010
0100
1001
1000
,  // measure 56
0001
0101
0100
0010
,  // measure 57
1010
1000
0001
0011
,  // measure 58
1000
0100
1100
1000
,  // measure 59
0001
0100
0101
0010
,  // measure 60
1000
1001
0001
1000
,  // measure 61
1010
0010
0100
0101
,  // measure 62
1001
1000
0001
0101
,  // measure 63
0100
0000
1001
0000
1000
0100
1000
0000
,  // measure 64
0001
0100
0010
0100
0101
0000
1001
0000
,  // measure 65
1100
0000
0010
0001
1000
0100
0010
0000
,  // measure 66
0100
1000
0001
0000
0101
0000
1000
0001
,  // measure 67
0100
0000
0110
0000
0001
1000
0100
1000
,  // measure 68
0001
0100
0010
0000
1010
0000
0100
0010
,  // measure 69
0100
0000
0101
0000
0001
0100
0001
0100
,  // measure 70
0010
0000
1001
0000
1000
0100
0010
0100
,  // measure 71
1000
0000
1100
0000
0001
0000
0100
0001
,  // measure 72
1000
0101
0001
1001
,  // measure 73
1000
1010
0100
0101
,  // measure 74
1010
0000
1001
0000
0001
0010
0001
0010
,  // measure 75
0001
0101
1000
1100
,  // measure 76
0001
0101
1001
1100
,  // measure 77
0110
0000
1001
0000
0001
0100
0010
1000
,  // measure 78
0010
0000
1000
0100
0010
0001
0010
0100
,  // measure 79
1000
2100
0000
3002
,  // measure 80
0000
0103
1010
0001
,  // measure 81
1010
2002
3003
0010
,  // measure 82
1000
0000
0001
0100
0001
0100
1000
0100
,  // measure 83
1000
0100
0220
0000
0000
0330
0001
0100
,  // measure 84
0001
1000
0100
1000
0001
0100
0001
1000
,  // measure 85
0100
1000
0001
0010
0001
1000
0010
1000
,  // measure 86
0001
0010
0001
1000
0010
1000
0001
0000
,  // measure 87
0100
0000
0001
1000
0001
0000
0100
0000
,  // measure 88
0010
0000
1000
0010
1000
0000
0001
0000
,  // measure 89
1000
0000
0010
0100
0010
0000
1000
0000
,  // measure 90
0100
0000
0010
0001
0010
0000
0100
0000
,  // measure 91
1000
0000
0001
0100
0001
0000
1000
0000
,  // measure 92
0001
0000
0100
0010
0100
0000
0001
0000
,  // measure 93
1000
0000
0100
1000
0100
0000
0010
0000
,  // measure 94
0001
0000
1000
0001
1000
0000
0100
0000
,  // measure 95
1000
0000
0001
0100
0001
0000
1000
0000
,  // measure 96
0100
0000
0010
0100
0010
0000
0001
0000
,  // measure 97
1000
0000
0010
1000
0010
0000
0100
0000
,  // measure 98
0010
0000
1000
0001
1000
0000
0010
0000
,  // measure 99
1000
0000
0100
0010
0100
0000
1000
0000
,  // measure 100
0001
0000
0100
0001
0100
0000
0010
0000
,  // measure 101
1000
0000
0001
1000
0001
0000
1000
0000
,  // measure 102
0100
0000
1000
0010
1000
0000
1001
0000
,  // measure 103
0010
1000
0001
0100
,  // measure 104
0010
1000
0100
0011
,  // measure 105
0010
0100
1000
1001
,  // measure 106
0001
0100
1010
1000
,  // measure 107
0100
0010
0001
0100
,  // measure 108
0001
1000
0100
1100
,  // measure 109
0010
0100
0010
1001
,  // measure 110
0001
0100
0010
0101
,  // measure 111
0100
0001
1000
0100
,  // measure 112
1000
0001
0100
0110
,  // measure 113
0001
0010
0100
0110
,  // measure 114
1000
0000
0100
0000
0010
0000
0001
1000
,  // measure 115
0010
0100
0001
0010
0100
1000
1001
0101
,  // measure 116
1001
1100
1100
1001
0000
0010
0000
1000
,  // measure 117
0010
0100
0000
0010
0000
1000
0000
0010
,  // measure 118
0100
0001
0000
0100
0000
0010
0000
1000
,  // measure 119
0001
0100
0000
0001
0000
1000
0000
0100
,  // measure 120
1000
0001
0000
0010
0000
0100
0000
0010
,  // measure 121
0001
1000
0000
0001
0000
1000
0000
0010
,  // measure 122
1000
0001
0000
0100
0000
0010
0000
1000
,  // measure 123
0010
0100
0000
0010
0000
1000
0000
0001
,  // measure 124
0100
0010
0000
1000
0000
0001
0000
1000
,  // measure 125
0100
0010
0000
0100
0000
1000
0000
0001
,  // measure 126
1000
0100
0000
0010
0000
0001
0000
1000
,  // measure 127
0001
0010
0000
0001
0000
1000
0000
0010
,  // measure 128
1000
0001
0000
0100
0000
0010
0000
0100
,  // measure 129
0001
1000
0000
0001
0000
0100
0000
0010
,  // measure 130
1000
0001
0000
1000
0000
0010
0000
0100
,  // measure 131
0010
1000
0000
0010
0000
0100
0000
0001
,  // measure 132
0100
0001
0000
1001
0000
0010
0000
1000
,  // measure 133
0010
1000
0000
0001
0000
0100
0000
0001
,  // measure 134
1000
0001
0000
1001
0000
1000
0000
0100
,  // measure 135
1000
0100
0000
1100
0000
1000
0000
0001
,  // measure 136
0000
1001
0000
1000
0000
0010
0000
0100
,  // measure 137
0010
0100
0000
0010
0000
1000
0000
0001
,  // measure 138
0100
0001
0000
0101
0000
1000
0000
0001
,  // measure 139
1000
0001
0000
1001
0000
0010
0000
1000
,  // measure 140
0010
1000
0000
1001
0000
0001
0000
0010
,  // measure 141
0001
0010
0000
0001
0000
1000
0000
0100
,  // measure 142
1000
0100
0000
1100
0000
1000
0000
0001
,  // measure 143
1000
0001
0000
1001
0000
1000
0000
0010
,  // measure 144
1000
0010
0000
0100
0000
0001
0000
1000
,  // measure 145
0000
0010
0000
0100
0000
0001
0000
0010
,  // measure 146
0000
0100
0000
1000
0000
0001
0000
1001
,  // measure 147
0000
1000
0000
1100
0000
0000
0000
0000
;

//---------------dance-single - Blank----------------
#NOTES:
     dance-single:
     Blank:
     Medium:
     9:
     0.656,1.000,0.342,0.045,0.033:
0000
0000
0000
0000
,
0000
0000
0000
0000
,
1001
0000
0000
0000
0100
0000
0001
0100
0001
0000
0000
0000
1000
0000
0010
1000
,
0010
0000
0100
0000
0001
0000
1000
0000
0100
0000
0000
0000
1000
0000
0100
1000
,
0100
0000
0010
0000
0001
0010
0001
0000
1000
0000
0001
0000
0000
0000
0010
0000
,
0100
0000
1000
0000
0001
0100
0001
0000
1000
0000
0001
0000
1000
0001
1000
0000
,
0010
0100
0000
1000
0100
0001
1000
0100
,
0010
0000
1001
0001
0100
0001
0101
0000
,
1001
1000
0100
0010
0100
1000
1100
0000
,
0010
0100
1000
0000
1001
0001
0100
0001
,
0101
0101
1001
1000
0100
0010
0100
1000
,
1001
0000
0010
0100
0000
0001
1000
0000
,
0010
1000
1000
1000
0100
1000
0001
0100
,
0010
0010
0010
0000
1000
0010
0000
0100
,
0001
1000
0001
0000
1000
0001
1000
0000
,
0100
0000
0010
0000
0100
0010
0000
0100
1000
0000
0000
0000
0000
0000
0000
0000
,
0100
0000
0010
0001
,
0100
0000
0010
1000
,
0010
0100
0010
1000
,
0001
0000
1000
0100
,
0010
0000
0100
0010
,
0001
0000
1000
0001
,
0100
0001
1000
0001
,
0100
0000
0010
1000
,
0001
0000
0100
0010
,
1000
0000
0100
1000
,
0001
0000
1000
0001
,
0100
0001
1000
0100
,
0010
0000
0100
1000
,
0010
0000
1000
0001
,
0100
0000
0010
1000
,
0001
1000
0010
0100
,
0001
0000
1000
0100
,
0010
0000
0001
0010
,
0100
1000
0001
1000
,
0100
0000
0010
0001
,
1000
0000
0010
0100
,
0001
0000
0100
0010
,
1000
0100
0010
0001
,
1000
0000
0010
1000
,
0010
0000
0100
0001
,
0010
0000
0100
1000
,
0100
0010
0001
0010
,
0100
0000
1000
0001
,
0010
0000
0100
1000
,
0010
0000
0100
0010
,
1000
0001
1000
0010
,
0100
0000
0000
0000
0000
0000
0000
0000
0001
0000
0001
0000
1000
0000
0000
1000
,
0010
1000
0000
0001
,
0100
0000
0001
0010
,
0100
0010
0001
0000
,
0010
0100
1000
0100
,
1000
0000
0010
0100
,
0000
0001
1000
0001
,
0100
0000
1001
0000
,
1000
0100
0000
0010
,
0001
0000
0100
0010
,
1000
0001
1000
0000
,
0010
0100
0010
1000
,
0010
0100
0000
0001
,
0100
0000
0010
1000
,
0001
1000
0000
0110
,
0000
0000
1001
0000
1000
0000
0100
1000
,
0001
0010
1100
1001
,
0011
0000
0010
0100
0010
0100
1000
0000
,
0100
0010
0001
0000
0101
0000
0100
0001
,
1000
0000
1100
0000
0100
0010
0100
0000
,
1000
0001
0100
0000
0110
0000
0010
1000
,
0001
0000
1001
0000
0100
0001
0100
0001
,
0100
0000
1001
0000
0010
1000
0010
1000
,
0010
0000
0101
0000
0010
0000
1000
0001
,
0100
0101
1000
1001
,
0001
0101
0010
1010
,
1100
0110
0010
0001
,
1000
1100
0100
0110
,
0010
0011
0101
0110
,
1010
0000
1001
0000
0001
0100
0001
0100
,
0001
0000
1000
0100
1000
0100
1000
0100
,
1000
2100
0000
3002
,
0000
0103
0010
1000
,
0100
0220
0330
1001
,
0110
0001
1000
0010
,
0100
0000
0220
0000
0000
0330
0001
0000
,
0000
0001
0000
0000
1000
0000
0000
1000
,
0000
0000
0010
0000
0000
0010
0000
0000
,
0100
0000
0000
0100
0000
0000
1001
0000
,
0000
0010
0000
1000
,
0001
0100
0000
0010
,
1000
0001
0100
0001
,
1000
0010
0000
1000
,
0100
0010
0000
0001
,
1000
0100
0000
0010
,
0001
0100
0001
1000
,
0010
0100
0000
0010
,
1000
0001
0100
0001
,
1000
0010
0000
1000
,
0010
0100
0001
0100
,
0010
0100
0000
0001
,
1000
0100
0000
1000
,
0001
0010
0000
0100
,
1000
0001
0010
0000
,
0001
0100
0000
0010
,
1000
0010
1000
0001
,
0100
0010
0000
0100
,
0001
1000
0100
1000
,
0001
0010
0000
0001
,
1000
0010
1000
0001
,
0100
0010
0100
0001
,
0100
0010
1000
0001
,
1000
0100
0000
0010
,
0001
1000
0100
0010
,
0100
1000
0000
0100
,
0010
0001
1000
0010
,
1000
0000
0001
0000
0000
0000
0100
0001
,
0100
0001
1000
0010
1000
0010
0100
0100
,
0100
0100
0100
0001
0000
0000
0000
0100
,
0000
0001
0000
1000
0000
0100
0000
0010
,
0000
0000
0000
0001
0000
0010
0000
0100
,
0000
1000
0000
0001
0000
0010
0000
0100
,
0000
0000
0000
1000
0000
0100
0000
1000
,
0000
0001
0000
0100
0000
0001
0000
1000
,
0000
0010
0000
1000
0000
0001
0000
0010
,
0000
0001
0000
1000
0000
0010
0000
0100
,
0000
0000
0000
0010
0000
1000
0000
0001
,
0000
0100
0000
0010
0000
1000
0000
0100
,
0000
0000
0000
0010
0000
0100
0000
1000
,
0000
0001
0000
0100
0000
0001
0000
0010
,
0000
0000
0000
0100
0000
1000
0000
0001
,
0000
0000
0000
1000
0000
0010
0000
0100
,
0000
0000
0000
0001
0000
0100
0000
0010
,
0000
1000
0000
0001
0000
0010
0000
0100
,
0000
0000
0000
1000
0000
0100
0000
1000
,
0000
0100
0000
0010
0000
0100
0000
1000
,
0000
0100
0000
0010
0000
0001
0000
0010
,
0000
0100
0000
0010
0000
0001
0000
1000
,
0000
0000
0000
0010
0000
1000
0000
0001
,
0000
0100
0000
0001
0000
1000
0000
0100
,
0000
1000
0000
0001
0000
0100
0000
0010
,
0000
0100
0000
0010
0000
0000
0000
1001
,
0000
0000
0000
1000
0000
0010
0000
0100
,
0000
0001
0000
1000
0000
0100
0000
1000
,
0000
0000
0000
0001
0000
0100
0000
0010
,
0000
1000
0000
0010
0000
0100
0000
0001
,
0000
0000
0000
0100
0000
0000
0000
1001
,
0000
0000
0000
0110
0000
0000
0000
1001
,
0000
0000
0000
0000
0000
0001
0000
0010
,
0000
0100
0000
1001
0000
0000
0000
0000
;

//---------------dance-single - Blank----------------
#NOTES:
     dance-single:
     Blank:
     Easy:
     8:
     0.488,0.871,0.401,0.089,0.000:
0000
0000
0000
0000
,
0000
0000
0000
0000
,
1001
0000
0100
0001
1000
0000
0001
0100
,
0010
0100
0100
0100
0100
0000
0001
0100
,
0001
1000
0010
0000
1000
0100
0000
0100
,
0100
1000
0001
0100
0001
0000
1000
0001
,
1000
0010
0100
0000
1001
0000
0001
0100
,
0001
0001
0101
0000
1000
0100
1000
1000
,
0001
0100
0001
0100
0001
0100
0101
0000
,
1000
0001
0000
1000
0100
0000
0010
0100
,
0110
0110
0110
0000
1000
0001
1000
0001
,
0101
0000
1000
1000
0000
0001
0001
0000
,
0000
0010
0100
0010
0100
0000
1000
0100
,
1000
0100
0010
0000
0000
1001
0000
0000
,
0001
1000
0001
1000
,
2200
0000
3300
0000
,
0010
0000
0001
0000
,
1000
0000
0001
0000
,
0010
0000
0100
0000
,
1000
0000
0100
0000
,
0010
0000
0001
0000
,
1000
0000
0010
0000
,
0100
0000
0001
0000
,
0010
0000
0100
0000
,
1000
0000
0010
0000
,
0100
0000
0001
0000
,
0100
0000
0010
0000
,
1000
0000
0100
0000
,
0001
0000
0100
0000
,
1000
0000
0001
0000
,
0010
0000
1000
0000
,
0010
0000
0001
0000
,
1000
0000
0010
0000
,
0100
0000
0001
0000
,
0100
0000
0010
0000
,
1000
0000
0100
0000
,
0010
0000
0100
0000
,
1000
0000
0010
0000
,
0100
0000
0001
0000
,
1000
0000
0001
0000
,
0100
0000
0010
0000
,
1000
0000
0100
0000
,
0010
0000
0001
0000
,
1000
0000
0010
0000
,
0100
0000
0001
0000
,
1000
0000
0100
0000
,
1000
0000
0010
0000
,
0100
0000
0000
0000
2002
0000
0000
3003
,
0010
0000
0000
0000
,
1000
0000
0000
0001
,
0000
0000
1000
0000
,
0000
0100
0000
0000
,
1000
0000
0000
0001
,
0000
0000
0100
0010
,
0000
0000
0100
0000
,
0000
0001
0000
0000
,
1000
0000
0000
0010
,
0000
0000
1000
0000
,
0000
0000
0001
0000
,
0000
0100
0000
0000
,
0001
0000
0000
1000
,
0100
0000
0000
0010
,
0000
0000
1001
0000
0000
0000
0001
0100
,
0001
1000
1100
1001
,
0101
0000
1001
0000
1000
0100
1000
0000
,
0001
1000
0001
0000
1001
0000
0100
0000
,
0010
0000
1001
0000
0100
0001
1000
0000
,
0100
1000
0001
0000
0101
0000
0010
0000
,
0100
0000
1010
0000
1000
0010
1000
0010
,
1000
0000
1001
0000
0001
0100
0001
0100
,
0001
1100
0100
1000
,
0001
1001
1000
1100
,
0100
1001
1000
1010
,
0101
0000
1001
0000
1000
0000
0100
0010
,
0100
0010
0200
0000
0000
0000
2300
0000
,
0000
3001
0101
0110
,
1010
0000
1001
0000
0001
0000
1000
0100
,
1000
0000
0001
0000
1000
0010
1000
0010
,
1000
2100
0000
3002
,
0000
0103
0010
1000
,
0100
0000
0010
0100
0010
0000
0100
0010
,
0100
0000
1000
0001
1000
0000
0001
1000
,
0001
0000
0220
0000
0000
0330
0001
0000
,
0000
0001
0000
0000
0001
0000
0000
0001
,
0000
0000
1000
0000
0000
1000
0000
0000
,
1000
0000
0000
1000
0000
0000
0010
0000
,
0000
0100
0000
0001
,
0000
1000
0000
0100
,
0000
0010
0000
0001
,
0000
0100
0000
0010
,
0000
1000
0000
0100
,
0000
0010
0000
0001
,
0000
1000
0000
0001
,
1000
0001
0000
1000
,
0000
0100
0000
0010
,
0000
0001
0000
0100
,
0000
0001
0000
1000
,
0000
0100
0000
0010
,
0000
0100
0000
1000
,
0000
0001
0000
0100
,
0000
0010
0000
1000
,
0010
1000
0000
1001
,
0000
0001
0000
1000
,
0000
0001
0000
1001
,
0000
1000
0000
1001
,
0000
0001
0000
0101
,
0000
0100
0000
0001
,
0000
0100
0000
0101
,
0000
0001
0000
0101
,
0000
0100
0000
0110
,
0000
0010
0000
1000
,
0000
0001
0000
1001
,
0000
1000
0000
1010
,
0000
0010
0000
1000
,
1000
0001
0001
0202
,
0000
0000
0000
0303
0000
0000
0000
1000
,
0000
0000
0000
0010
0000
0000
0000
0100
,
0000
0000
0000
0001
0000
0000
0000
0100
,
0000
0000
0000
0010
0000
0000
0000
1000
,
0000
0010
0000
1000
0000
0000
0000
0001
,
0000
0000
0000
1000
0000
0000
0000
0010
,
0000
0000
0000
0100
0000
0000
0000
0001
,
0000
0000
0000
0010
0000
0000
0000
0001
,
0000
0010
0000
0001
0000
0000
0000
1000
,
0000
0000
0000
0010
0000
0000
0000
0100
,
0000
0000
0000
0010
0000
0000
0000
1000
,
0000
0000
0000
0100
0000
0000
0000
1000
,
0000
0100
0000
1000
0000
0000
0000
0010
,
0000
0000
0000
0100
0000
0000
0000
0010
,
0000
0000
0000
1000
0000
0000
0000
0001
,
0000
0000
0000
0010
0000
0100
0000
0010
,
0000
0000
0000
1001
0000
0000
0000
0001
,
0000
0000
0000
0100
0000
0000
0000
0010
,
0000
0000
0000
1010
0000
0000
0000
1000
,
0000
0000
0000
1010
0000
0000
0000
0010
,
0000
0000
0000
0110
0000
0000
0000
0100
,
0000
0000
0000
0001
0000
0000
0000
1000
,
0000
0000
0000
1100
0000
0000
0000
0100
,
0000
0000
0000
1100
0000
0000
0000
1000
,
0000
0000
0000
1001
0000
0000
0000
0001
,
0000
0000
0000
0100
0000
0000
0000
0010
,
0000
0000
0000
1010
0000
0000
0000
0100
,
0000
0000
0000
0101
0000
0000
0000
0010
,
0000
0000
0000
1000
0000
0000
0000
0000
,
0000
0001
0000
0000
0000
0000
0000
1000
,
0000
0000
0000
0000
0000
0100
0000
0010
,
0000
0000
0000
1001
0000
0000
0000
0000
;
