#VERSION:0.83;
#TITLE:Escape to Fantasyland;
#SUBTITLE:;
#ARTIST:AS-13 with IA;
#TITLETRANSLIT:;
#SUBTITLETRANSLIT:;
#ARTISTTRANSLIT:;
#GENRE:;
#ORIGIN:;
#TAGS:;
#CREDIT:;
#BANNER:escapetofantasyland-bn.png;
#BACKGROUND:escapetofantasyland-bg.png;
#PREVIEWVID:;
#JACKET:jacket.jpg;
#CDIMAGE:;
#DISCIMAGE:;
#LYRICSPATH:;
#CDTITLE:;
#MUSIC:Escape to Fantasyland.ogg;
#OFFSET:0.000000;
#SAMPLESTART:85.113853;
#SAMPLELENGTH:12.000000;
#SELECTABLE:YES;
#BPMS:0.000000=80.000000
,16.000000=160.000000
,272.000000=80.000000
;
#STOPS:;
#DELAYS:;
#WARPS:;
#TIMESIGNATURES:0.000000=4=4
;
#TICKCOUNTS:0.000000=4
;
#COMBOS:0.000000=1
;
#SPEEDS:0.000000=1.000000=0.000000=0
;
#SCROLLS:0.000000=1.000000
;
#XSCROLLS:0.000000=0.000000 ;
#FAKES:;
#LABELS:0.000000=Song Start
;
#BGCHANGES:0.000=Escape to Fantasyland (RGTK).mp4=1.000=0=0=1=====,
99999.000=-nosongbg-=1.000=0=0=0=StretchNoLoop====,
99999=-nosongbg-=1.000=0=0=0 // don't automatically add -songbackground-
;
#KEYSOUNDS:;
#ATTACKS:
;

//---------------dance-single - ----------------
#NOTEDATA:;
#CHARTNAME:;
#CHARTHASH:2147483647;
#STEPSTYPE:dance-single;
#BANNER:;
#DESCRIPTION:;
#CHARTSTYLE:;
#DIFFICULTY:Easy;
#METER:3;
#METERF:3.000000;
#LASTSECONDHINT:120.000000;
#RADARVALUES:0.241580,0.263415,0.073171,0.113821,0.000000,208.000000,199.000000,9.000000,14.000000,0.000000,0.000000,0.000000,0.000000,0.000000,0.241580,0.263415,0.073171,0.113821,0.000000,208.000000,199.000000,9.000000,14.000000,0.000000,0.000000,0.000000,0.000000,0.000000;
#CREDIT:;
#NOTES:
0000
0000
0000
0000
,
0000
0000
0000
0000
,
0000
0000
0000
0000
,
0000
0000
0000
0000
,
0001
0000
0100
0100
,
0010
0010
0100
0000
,
0001
0100
0010
0000
,
1000
1000
1000
0000
,
0010
1000
0100
0000
,
0100
1000
0010
0000
,
0001
0010
0001
0010
,
0001
0100
0001
0100
,
0010
0010
0000
0000
0000
0000
0000
0000
,
0100
0100
0000
0000
0000
0000
0000
0000
,
0001
0001
0000
0000
0000
0000
0000
0000
,
1000
1000
0000
0000
0000
0000
0000
0000
,
0010
0010
0000
0000
0000
0000
0000
0000
,
1000
1000
0000
0000
1000
0000
1000
0000
,
0100
0100
0000
0000
0010
0000
0100
0000
,
0010
0010
0000
0000
0001
0000
0001
0000
,
0200
0000
0300
0001
,
1000
0100
1000
0000
,
0001
1000
0100
0000
,
1000
0010
0010
0000
,
1000
0001
0100
0000
,
1001
0000
0100
0000
,
0010
0100
0010
0000
,
1000
0010
1000
0010
,
1000
0010
1000
0100
,
0010
0000
0100
0000
,
1000
0100
0001
0000
,
1000
0000
0100
0000
,
0001
0100
1000
0000
,
0110
0000
1001
0000
,
0001
1000
0010
0000
,
1000
0001
1000
0001
,
0010
0000
0000
0000
,
0100
0100
0100
0100
,
1000
1000
1000
1000
,
0001
0001
0001
0001
,
0100
0100
0100
0100
,
0001
0001
0001
0001
,
0010
0010
0010
0010
,
0100
0100
0100
0100
,
1000
0001
1000
0100
,
0020
0000
0230
0000
,
2300
0000
3002
0000
,
2003
0000
3200
0000
,
0310
0001
1000
0001
,
0200
0000
0302
0000
,
1003
1000
0001
0001
,
0200
0000
0302
0000
,
1003
0000
0110
0000
,
0001
0010
0001
0000
,
0001
0100
0001
0000
,
1000
0100
1000
0000
,
1000
0010
0100
0000
,
0010
0000
0100
0100
,
0010
0000
0100
0000
,
1001
0000
1001
0000
,
0110
0000
1000
0001
,
0010
0000
0001
0000
,
1000
0010
1000
0000
,
0001
0100
0100
0000
,
1000
0100
0001
0000
,
1000
0000
0100
0000
,
1000
0001
1000
0010
,
1000
0000
1001
0000
,
0110
0000
0002
0003
,
0200
0300
0010
0100
,
0001
0100
0010
0000
,
1000
0001
0020
0000
,
0030
0000
0000
0000
;

//---------------dance-single - ----------------
#NOTEDATA:;
#CHARTNAME:;
#CHARTHASH:1889950295;
#STEPSTYPE:dance-single;
#BANNER:;
#DESCRIPTION:;
#CHARTSTYLE:;
#DIFFICULTY:Medium;
#METER:6;
#METERF:6.000000;
#LASTSECONDHINT:120.000000;
#RADARVALUES:0.387921,0.439024,0.422764,0.154472,0.036585,334.000000,282.000000,52.000000,19.000000,0.000000,0.000000,0.000000,0.000000,0.000000,0.387921,0.439024,0.422764,0.154472,0.036585,334.000000,282.000000,52.000000,19.000000,0.000000,0.000000,0.000000,0.000000,0.000000;
#CREDIT:;
#NOTES:
0000
0000
0000
0000
,
0000
0000
0000
0000
,
0000
0000
0000
0000
,
0000
0000
0000
0000
,
1010
0010
0100
0001
,
0010
0000
0010
0001
0100
0000
0000
0000
,
1000
0100
0001
0010
,
0100
0000
0100
1000
0010
0000
0000
0010
,
1000
0010
0100
0001
,
0100
0000
0010
0100
0010
0000
0000
0000
,
1010
1000
1100
0100
,
0011
0101
0110
1010
,
1000
1000
0100
0000
0100
0000
0100
0000
,
0001
0001
0100
0000
0100
0000
0100
0000
,
1000
1000
0010
0000
0010
0000
0010
0000
,
0001
0001
0100
0000
0100
0001
0100
0000
,
0100
0100
0000
0001
0000
0001
0100
0000
,
0010
0010
0100
0000
0100
0000
0100
0000
,
1000
1000
0010
0000
0010
0000
0010
0000
,
0001
0001
1000
0000
1000
0000
1000
0001
,
2000
0100
0001
3100
,
0011
0000
0100
0000
0010
0000
0001
0010
,
0001
1000
0200
0300
,
1000
1100
0001
0101
,
1000
0000
0001
0100
0200
0000
0300
0000
,
0010
0100
0010
1001
,
0100
0000
0001
1000
0010
0000
0000
0000
,
1000
1010
0010
0101
,
0100
0000
1001
0000
0010
0100
0010
0000
,
0101
0100
0010
1000
,
0010
0100
0010
0100
0002
0000
0003
0000
,
0100
0001
1001
1100
,
0010
0100
1000
0000
0200
0000
0300
0000
,
0010
0001
0100
1000
,
0100
0001
0100
0000
0010
0000
1001
0000
,
1100
0001
0101
1001
,
0100
0000
0100
0010
,
1001
2002
0000
0000
0000
0000
3003
0000
,
1100
2200
0000
0000
0000
0000
3300
0000
,
0011
0022
0000
0000
0000
0000
0033
0000
,
1001
1001
0000
1000
0000
0001
1000
0000
,
0101
0202
0000
0000
0000
0000
0303
0000
,
1010
2020
0000
0000
0000
0000
3030
0000
,
0110
0220
0000
0000
0000
0000
0330
0000
,
1000
1010
0101
1010
,
0001
0100
1000
0100
,
0001
0010
1000
0100
,
0000
0001
0100
0010
,
1000
0001
0020
0000
0000
0000
0030
0000
,
0001
0010
1000
0100
,
0001
0100
1000
0010
,
0001
1000
0001
0000
0010
0100
0010
0000
,
0011
0000
1100
0000
1001
0000
1000
0001
,
1000
0100
0001
0100
,
1000
0000
0000
1000
0000
0000
0001
0000
0010
0000
0000
0000
0000
0000
0000
0000
,
0001
1000
0010
1001
,
0001
0000
0000
0100
0000
0000
0001
0000
0100
0000
0000
0000
0000
0000
0000
0000
,
0010
1000
0001
0100
,
0001
0000
0000
0100
0000
0000
0001
0000
0010
0000
0000
0000
0000
0000
0000
0000
,
0001
0011
1000
1100
,
1001
0000
0010
0000
0100
1000
0100
0000
,
0101
0010
1000
0001
,
1000
0000
0000
0010
0000
0000
0010
0000
1000
0000
0000
0000
0000
0000
0000
0000
,
0001
0000
0010
0000
0100
0000
1000
0100
,
1000
0000
0000
0100
0000
0000
1000
0000
0001
0000
0000
0000
0000
0000
0000
0000
,
0101
1000
0010
0101
,
0100
0000
0000
0010
0000
0000
1000
0000
0010
0000
0000
0000
0100
0000
0000
0000
,
0001
0101
1001
1100
,
0011
0000
1000
0100
,
1000
0000
0000
1000
0010
0000
0000
0000
1000
0000
0000
0000
0001
0000
0001
0000
,
0001
0000
0000
0100
0001
0000
0000
0000
1000
0000
0000
0000
0010
0000
1000
0000
,
0001
0000
0000
0000
1000
0000
0010
0100
0020
0000
0000
0000
0000
0000
0000
0000
,
0030
0000
0000
0000
;

//---------------dance-single - ----------------
#NOTEDATA:;
#CHARTNAME:;
#CHARTHASH:2147483647;
#STEPSTYPE:dance-single;
#BANNER:;
#DESCRIPTION:;
#CHARTSTYLE:;
#DIFFICULTY:Hard;
#METER:8;
#METERF:8.000000;
#LASTSECONDHINT:118.500000;
#RADARVALUES:0.585366,0.552236,0.390244,0.138211,0.235772,504.000000,456.000000,48.000000,17.000000,0.000000,0.000000,0.000000,0.000000,0.000000,0.585366,0.552236,0.390244,0.138211,0.235772,504.000000,456.000000,48.000000,17.000000,0.000000,0.000000,0.000000,0.000000,0.000000;
#CREDIT:;
#NOTES:
// measure 0
0000
0000
0000
0000
,  // measure 1
0000
0000
0000
0000
,  // measure 2
0002
0000
0100
2003
0100
0000
3002
0010
,  // measure 3
2000
0000
0000
0000
3003
0000
0110
1001
,  // measure 4
0100
0000
0000
0100
0001
0000
0100
0000
1000
0000
0100
0000
0001
0000
1000
0000
,  // measure 5
0100
0000
0000
0100
0010
0000
0100
0000
1000
0000
0000
0000
1000
0000
0010
0000
,  // measure 6
0100
0000
0000
0001
0100
0000
0001
0000
0010
0000
0001
0000
1000
0000
0001
0000
,  // measure 7
0100
0000
0000
0100
0001
0000
0100
0000
0010
0000
0000
0000
0100
0000
0010
0000
,  // measure 8
1000
0000
0000
1000
0010
0000
0100
0000
1000
0000
0100
0000
0001
0000
1000
0000
,  // measure 9
0100
0000
0000
0100
1000
0000
0001
0000
0010
0000
0000
0000
0001
0000
0010
0000
,  // measure 10
1001
0000
1000
0010
1001
0000
0001
0010
,  // measure 11
1001
0000
1100
0000
1000
0010
1000
0100
,  // measure 12
1001
1002
1000
0000
0100
0000
0103
0000
,  // measure 13
1010
2010
0010
0000
0001
0000
3100
0000
,  // measure 14
0101
0102
1000
0000
0103
0000
1001
0000
,  // measure 15
1100
0100
1000
0000
0001
1000
1100
0000
,  // measure 16
1001
1001
0000
0100
0000
1001
1001
0000
,  // measure 17
1010
1020
1000
0000
0100
0000
1030
0000
,  // measure 18
1100
2100
0100
0000
0001
0000
3100
0000
,  // measure 19
0011
0011
0000
0001
0000
0001
2000
0000
,  // measure 20
0100
0000
0000
0000
0100
0000
0000
0000
3001
0000
0000
0000
1000
0001
1000
0001
,  // measure 21
1000
0000
0000
0000
0100
0000
1000
0000
0010
0000
0000
1010
0000
0000
0001
0000
,  // measure 22
0010
0000
0000
1001
0000
0000
1000
0000
0100
0000
0000
0000
1000
0000
0100
0000
,  // measure 23
0010
0000
0000
0001
0100
0000
0001
0000
1000
0000
0000
1000
0010
0000
0100
0000
,  // measure 24
0001
0000
0000
0001
0100
0000
0010
0000
1000
0000
0000
0000
1001
0000
0001
0000
,  // measure 25
0010
0000
0000
0001
0100
0000
0010
0000
1000
0000
0000
1010
0000
0000
0010
0000
,  // measure 26
0100
0000
0000
0001
0100
0000
0010
0000
1000
0000
0000
0000
0010
0000
0100
0000
,  // measure 27
0001
0000
0101
0100
0010
0000
1010
0100
,  // measure 28
0001
0000
0000
0100
0000
0000
0010
0000
1000
0000
0000
0110
0000
0000
0001
0000
,  // measure 29
1000
0000
0100
0000
0010
0000
0100
0000
1000
0000
0000
1000
0100
0000
0010
0000
,  // measure 30
0001
0000
0000
0011
0000
0000
0100
0000
0002
0000
0000
0000
0003
0000
0000
0000
,  // measure 31
1100
0000
0000
0101
0000
0000
0001
0000
0010
0000
0000
0000
1010
0000
1000
0000
,  // measure 32
0100
0000
0000
1001
0000
0000
0100
0000
0001
0000
0000
0000
0001
0000
1000
0000
,  // measure 33
0010
0000
0000
1001
0000
0000
0001
0000
1000
0000
0000
0110
0000
0000
1000
0000
,  // measure 34
0100
0000
0000
1000
0100
0000
1000
0000
0010
0000
0000
0000
0100
0000
0010
0000
,  // measure 35
1001
0000
0000
0000
1000
0000
0010
0000
0001
0000
0000
0010
1000
0000
0100
0000
,  // measure 36
0101
0000
0000
0000
0010
0000
0000
0000
0010
0000
0000
0000
0010
0100
0000
0100
,  // measure 37
0001
0100
0001
0100
0001
0100
0001
1000
,  // measure 38
0010
0100
0010
0100
0010
0100
0001
0100
,  // measure 39
0010
1000
0010
1000
0010
1000
0010
0100
,  // measure 40
0001
0010
0001
0010
0100
1000
0001
0010
,  // measure 41
0100
1000
0100
1000
0100
1000
0010
1000
,  // measure 42
0001
0100
0001
0100
0001
0010
0001
0100
,  // measure 43
0010
1000
0010
1000
0001
1000
0010
0100
,  // measure 44
0001
0000
0000
0100
0010
0000
0000
1000
0001
0000
0000
1000
0010
0000
0000
0100
,  // measure 45
0002
0000
0100
0000
0103
0000
0001
2000
,  // measure 46
0100
0100
0001
3100
,  // measure 47
1000
0002
0010
0000
0013
0001
1000
0001
,  // measure 48
0100
0001
0200
0000
1000
0000
0301
0000
,  // measure 49
1000
0001
1000
0000
0100
1000
0001
1000
,  // measure 50
0200
0010
2300
3100
,  // measure 51
1000
0100
0001
0000
0001
0100
1000
0001
,  // measure 52
0100
0000
0000
0000
1010
0000
0000
0000
1100
0000
0000
0000
1000
0100
1000
0100
,  // measure 53
0010
0000
0000
0010
0001
0000
0010
0000
1000
0000
0000
0110
0000
0000
0001
0000
,  // measure 54
1000
0000
0000
1000
0010
0000
1000
0000
0100
0000
0000
0000
1000
0000
0001
0000
,  // measure 55
0100
0000
0000
0100
0001
0000
1000
0000
0010
0000
0000
0010
0100
0000
0001
0000
,  // measure 56
1000
0000
0000
0001
1000
0000
0010
0000
0100
0000
0000
0000
1010
0000
0001
0000
,  // measure 57
1000
0000
0000
0010
1000
0000
0001
0000
0010
0000
0000
0001
0100
0000
0010
0000
,  // measure 58
1000
0000
0000
0010
0000
0000
0010
0000
0001
0000
0000
0000
0010
0000
1000
0000
,  // measure 59
0001
0000
1001
0001
0100
0000
1010
1000
,  // measure 60
0100
0000
0000
1000
0001
0000
1000
0000
0010
0000
0001
0010
0001
0000
0010
0000
,  // measure 61
1000
0000
0000
0000
1001
0000
0001
0000
0100
0000
0000
0100
0001
0000
1000
0000
,  // measure 62
0010
0000
0000
0010
1000
0000
0100
0000
0010
0000
0000
0000
0100
0000
0010
0000
,  // measure 63
0001
0000
0000
0001
0100
0000
0010
0000
1000
0000
0000
1000
0100
0000
0010
0000
,  // measure 64
0001
0000
0000
0010
0001
0000
1000
0000
0100
0000
1000
0000
0100
0000
0010
0000
,  // measure 65
0001
0000
0000
0100
0000
0000
1000
0000
0010
0000
0000
0001
0000
0000
0100
0000
,  // measure 66
0010
0000
0000
1000
0000
0000
0100
0000
0001
0000
0000
0000
1000
0000
0001
0000
,  // measure 67
0100
0000
0000
0100
1000
0000
0100
0000
0010
0000
0000
0010
0001
0000
0100
0000
,  // measure 68
0010
0000
0000
0000
1000
0000
0010
1000
,  // measure 69
0001
0000
0000
0001
0100
0000
0000
0000
1000
0000
0000
0000
0100
0000
0001
0000
,  // measure 70
1000
0000
0000
0001
0010
0000
0000
0000
1000
0000
0000
0000
0010
0000
0001
0000
,  // measure 71
0100
0000
0000
1000
0100
0000
0001
0000
0010
0000
0000
0000
0000
0000
0000
0000
;
